Subcategories
Tags
Language
Tags

Glide - Curvature Of The Earth (2004)

Posted By: gribovar
Glide - Curvature Of The Earth (2004)

Glide - Curvature Of The Earth (2004)
EAC Rip | FLAC (image+.cue+log) - 266 MB | MP3 CBR 320 kbps (LAME 3.93) - 109 MB | Covers (7 MB) included
Genre: Psychedelic/Space Rock, Electronic | RAR 3% Rec. | Label: Cooking Vinyl/Soyuz (COOK CD 307)

Lovers of instrumental rock are a rare breed, but they know who they are and this record is for them. It’s also sure to appeal to a subset of fans of the band Echo & the Bunnymen, as Glide is actually a nom de instrument for Bunnymen guitarist Will Sergeant, who wrote, performed, produced, and tracked pretty much the entire album (yes, at home). Astonishingly, Curvature of the Earth doesn’t sound like a self-indulgent demo. That’s not to say it’s never self-indulgent - what solo instrumental project isn’t? - but it’s the rare track that feels overlong or shy of musical ideas, and the whole thing comes off sounding extremely professional, from its well-balanced mixes to its ear-candy guitar and synth textures. And texture, as it happens, is a big part of Glide’s world. Described by Sergeant as an opportunity to explore “ambient, psychedelic, progressive, glam, experimental, noise, and all points between”, Glide works from a multitude of samples and snippets of sound and music cleverly woven into something that’s not just musically coherent but engaging and quite often invigorating as well. Sergeant proves himself a masterful player and arranger, someone whose considerable talents are ripe for tapping by any number of young or not-so-young musicians.
Tracklist:
01. A Golden Dawn
02. Spirit
03. In Blue Sunshine
04. I Have Seen The Sunlight
05. Kraken
06. Iggy & Ziggy
07. Expo 68
08. Chopped Hog
09. Rotation 1
10. Curvature Of The Earth
11. Ainsdale Beach April

Total time: 43:12

Exact Audio Copy V0.99 prebeta 5 from 4. May 2009

EAC extraction logfile from 21. September 2010, 15:44

Glide / Curvature Of Earth

Used drive : Optiarc DVD-ROM DDU1671S Adapter: 3 ID: 0

Read mode : Secure
Utilize accurate stream : Yes
Defeat audio cache : Yes
Make use of C2 pointers : No

Read offset correction : 6
Overread into Lead-In and Lead-Out : No
Fill up missing offset samples with silence : Yes
Delete leading and trailing silent blocks : No
Null samples used in CRC calculations : Yes
Used interface : Native Win32 interface for Win NT & 2000

Used output format : User Defined Encoder
Selected bitrate : 768 kBit/s
Quality : High
Add ID3 tag : No
Command line compressor : C:\Program Files (x86)\Exact Audio Copy\FLAC\FLAC.EXE
Additional command line options : -6 -V -T "ARTIST=%a" -T "TITLE=%t" -T "ALBUM=%g" -T "DATE=%y" -T "TRACKNUMBER=%n" -T "GENRE=%m" -T "COMMENT=%e" %s -o %d


TOC of the extracted CD

Track | Start | Length | Start sector | End sector
––––––––––––––––––––––––––––-
1 | 0:00.00 | 2:55.57 | 0 | 13181
2 | 2:55.57 | 3:31.37 | 13182 | 29043
3 | 6:27.19 | 3:30.39 | 29044 | 44832
4 | 9:57.58 | 4:13.56 | 44833 | 63863
5 | 14:11.39 | 3:47.06 | 63864 | 80894
6 | 17:58.45 | 4:47.16 | 80895 | 102435
7 | 22:45.61 | 3:51.09 | 102436 | 119769
8 | 26:36.70 | 4:34.26 | 119770 | 140345
9 | 31:11.21 | 3:40.07 | 140346 | 156852
10 | 34:51.28 | 3:58.11 | 156853 | 174713
11 | 38:49.39 | 4:22.12 | 174714 | 194375


Range status and errors

Selected range

Filename F:\Новая папка\Glide - Curvature Of Earth.wav

Peak level 99.7 %
Range quality 100.0 %
Test CRC C2B40BB6
Copy CRC C2B40BB6
Copy OK

No errors occurred


AccurateRip summary

Track 1 accurately ripped (confidence 4) [7E991222]
Track 2 accurately ripped (confidence 4) [4F16C945]
Track 3 accurately ripped (confidence 4) [5B3E4D6A]
Track 4 accurately ripped (confidence 4) [302DCF01]
Track 5 accurately ripped (confidence 4) [2F0C13BD]
Track 6 accurately ripped (confidence 4) [A5BACDD4]
Track 7 accurately ripped (confidence 4) [0CE530D0]
Track 8 accurately ripped (confidence 4) [03E42CC5]
Track 9 accurately ripped (confidence 4) [ACD7A756]
Track 10 accurately ripped (confidence 4) [A159D7C9]
Track 11 accurately ripped (confidence 4) [D6D81B54]

All tracks accurately ripped

End of status report

[CUETools log; Date: 17.06.2021 19:52:16; Version: 2.1.4]
[CTDB TOCID: oWJid27FU5clxivINGCzy0wQYc4-] found.
Track | CTDB Status
1 | (7/7) Accurately ripped
2 | (7/7) Accurately ripped
3 | (7/7) Accurately ripped
4 | (7/7) Accurately ripped
5 | (7/7) Accurately ripped
6 | (7/7) Accurately ripped
7 | (7/7) Accurately ripped
8 | (7/7) Accurately ripped
9 | (7/7) Accurately ripped
10 | (7/7) Accurately ripped
11 | (7/7) Accurately ripped
[AccurateRip ID: 00111839-00966eb5-a70a1f0b] found.
Track [ CRC | V2 ] Status
01 [7e991222|f75007c1] (3+2/9) Accurately ripped
02 [4f16c945|01035236] (3+2/9) Accurately ripped
03 [5b3e4d6a|b10d73d5] (3+2/9) Accurately ripped
04 [302dcf01|3f33d3f3] (3+2/9) Accurately ripped
05 [2f0c13bd|ff8704a2] (3+2/9) Accurately ripped
06 [a5bacdd4|2e06cc05] (3+2/9) Accurately ripped
07 [0ce530d0|b9d37527] (3+2/9) Accurately ripped
08 [03e42cc5|7b10e6ae] (3+2/9) Accurately ripped
09 [acd7a756|55230f8a] (3+2/9) Accurately ripped
10 [a159d7c9|2b244ede] (3+2/9) Accurately ripped
11 [d6d81b54|32b6920c] (3+2/9) Accurately ripped
Offsetted by 664:
01 [4d55392f] (0/9) No match (V2 was not tested)
02 [9da2a134] (0/9) No match (V2 was not tested)
03 [234ef781] (0/9) No match (V2 was not tested)
04 [3dc6a888] (0/9) No match (V2 was not tested)
05 [69e82e98] (0/9) No match (V2 was not tested)
06 [5dd847c2] (0/9) No match (V2 was not tested)
07 [6a6edef7] (0/9) No match (V2 was not tested)
08 [abf3cf99] (0/9) No match (V2 was not tested)
09 [369d6304] (0/9) No match (V2 was not tested)
10 [9d2d9e2d] (0/9) No match (V2 was not tested)
11 [52a4e62c] (0/9) No match (V2 was not tested)

Track Peak [ CRC32 ] [W/O NULL] [ LOG ]
– 99,7 [C2B40BB6] [AFDEFC42] CRC32
01 99,4 [1FEEB28B] [4DBC4BB5]
02 99,7 [9433C611] [60A40C7D]
03 99,4 [E23E5EB1] [12B61AC4]
04 99,4 [2D626A02] [909FA4F6]
05 99,4 [CD057852] [DE214315]
06 99,4 [E7680E26] [4654BA24]
07 99,4 [61D1AC98] [BB2F71EF]
08 99,4 [8713C318] [898FAAD1]
09 99,4 [1382E968] [AE0E0475]
10 99,4 [6E662A83] [FC3B9A3A]
11 99,4 [A994F4E1] [B3325B84]

Thanks to sega_tiger