Tags
Language
Tags

Go West - Go West (1985)

Posted By: BlondStyle
Go West - Go West (1985)

Go West - Go West (1985)
Pop/Rock, Dance-Pop/Rock, Electronic | EAC Rip | FLAC, Tracks+CUE+LOG+Scans (PNG) | 37:30 | 268,49 Mb
Label: Chrysalis (UK) | Cat.# CCD 1495 | Released: 1985

"Go West" is the debut studio album by English pop duo Go West, released in 1985 by Chrysalis Records. The album brought Go West into the limelight, scoring them a string of top 40 hits in the UK and New Zealand. "We Close Our Eyes" was the most successful single, reaching #1 in New Zealand and #5 in the UK. Go West had been writing songs for the album since 1982, when they were formed in London by Peter Cox and Richard Drummie. Two songs featured on the album, "We Close Our Eyes" and "Call Me", helped Go West land a record deal with Chrysalis Records. The album features more Top 40 UK/New Zealand hits than any of Go West's other albums and helped them to be voted Best Newcomers at the 1986 Brit Awards. The song "Goodbye Girl" was featured in the first episode of the second season of the 1980s TV series Miami Vice.
~Wikipedia

Go West - Go West (1985)

Go West - Go West (1985)




Release of this album: 1985 [LP Chrysalis, Cat.# CHR 1495, UK]
Release of this CD: 1985 [CD Chrysalis (UK), Cat.# CCD 1495/ UPC: 5013136149524]
℗&© 1985 Chrysalis Records Ltd.
Mastered by Nimbus.
Printed/Made in the UK.


Credits:

Design [Sleeve Concept And Design] – Go West, Paul Whymant-Morris
Design [Sleeve Concept And Design], Art Direction – John Pasche
Drums – Timmy Goldsmith
Drums, Percussion – Graham Broad
Engineer – Barry Hammond, Drostyn John Madden, Keith Finney
Engineer [Assistant] – Mike "Spike" Drake, Neil Drake
Fretless Bass – Pino Palladino
Guitar, Soloist – Alan Murphy
Illustration – Nick Hardcastle
Keyboards, Kalimba [Linguistaphone] – Dave West
Mastered By – George Marino
Photography – Brian Griffin
Producer, Engineer, Guitar – Gary Stevenson
Saxophone – Mel Collins
Vocals – Katie Humble
Written-By, Vocals, Guitar, Keyboards – Peter Cox
Written-By, Vocals, Keyboards, Bass – Richard Drummie


Tracklist:

01. We Close Our Eyes (03:49)
02. Don't Look Down (03:53)
03. Call Me (04:12)
04. Eye To Eye (03:33)
05. Haunted (03:16)
06. S.O.S. (04:00)
07. Goodbye Girl (05:08)
08. Innocence (04:12)
09. Missing Persons (05:26)

Exact Audio Copy V1.0 beta 3 from 29. August 2011

EAC extraction logfile from 3. February 2014, 16:44

Go West / Go West

Used drive : ASUS DRW-20B1LT Adapter: 1 ID: 1

Read mode : Secure
Utilize accurate stream : Yes
Defeat audio cache : Yes
Make use of C2 pointers : No

Read offset correction : 6
Overread into Lead-In and Lead-Out : No
Fill up missing offset samples with silence : Yes
Delete leading and trailing silent blocks : No
Null samples used in CRC calculations : Yes
Used interface : Native Win32 interface for Win NT & 2000
Gap handling : Appended to previous track

Used output format : User Defined Encoder
Selected bitrate : 320 kBit/s
Quality : High
Add ID3 tag : No
Command line compressor : C:\Program Files\FLAC\flac.exe
Additional command line options : -8 -V -T "ARTIST=%artist%" -T "TITLE=%title%" -T "ALBUM=%albumtitle%" -T "DATE=%year%" -T "TRACKNUMBER=%tracknr%" -T "GENRE=%genre%" -T "COMMENT=EAC FLAC -8" %source%


TOC of the extracted CD

Track | Start | Length | Start sector | End sector
––––––––––––––––––––––––––––-
1 | 0:00.05 | 3:49.00 | 5 | 17179
2 | 3:49.05 | 3:52.40 | 17180 | 34619
3 | 7:41.45 | 4:12.32 | 34620 | 53551
4 | 11:54.02 | 3:33.30 | 53552 | 69556
5 | 15:27.32 | 3:16.30 | 69557 | 84286
6 | 18:43.62 | 3:59.68 | 84287 | 102279
7 | 22:43.55 | 5:08.37 | 102280 | 125416
8 | 27:52.17 | 4:11.38 | 125417 | 144279
9 | 32:03.55 | 5:26.25 | 144280 | 168754


Track 1

Filename K:\EACrips\Go West - Go West\01 - We Close Our Eyes.wav

Pre-gap length 0:00:02.05

Peak level 78.5 %
Extraction speed 3.5 X
Track quality 100.0 %
Test CRC F2671C68
Copy CRC F2671C68
Cannot be verified as accurate (confidence 18) [76AEE2C0], AccurateRip returned [DFDB1A9D] (AR v2)
Copy OK

Track 2

Filename K:\EACrips\Go West - Go West\02 - Don't Look Down.wav

Peak level 80.4 %
Extraction speed 4.0 X
Track quality 100.0 %
Test CRC 4A588DE7
Copy CRC 4A588DE7
Cannot be verified as accurate (confidence 17) [989D183E], AccurateRip returned [C7FBDF53] (AR v2)
Copy OK

Track 3

Filename K:\EACrips\Go West - Go West\03 - Call Me.wav

Peak level 75.3 %
Extraction speed 4.3 X
Track quality 100.0 %
Test CRC C38E1560
Copy CRC C38E1560
Cannot be verified as accurate (confidence 18) [CF09E53B], AccurateRip returned [1D35D5A1] (AR v2)
Copy OK

Track 4

Filename K:\EACrips\Go West - Go West\04 - Eye To Eye.wav

Peak level 74.5 %
Extraction speed 4.5 X
Track quality 100.0 %
Test CRC 981E1A72
Copy CRC 981E1A72
Cannot be verified as accurate (confidence 17) [7174B72A], AccurateRip returned [F8F20544] (AR v2)
Copy OK

Track 5

Filename K:\EACrips\Go West - Go West\05 - Haunted.wav

Peak level 75.0 %
Extraction speed 4.7 X
Track quality 100.0 %
Test CRC FF31099E
Copy CRC FF31099E
Cannot be verified as accurate (confidence 18) [3A9EBD22], AccurateRip returned [5769405E] (AR v2)
Copy OK

Track 6

Filename K:\EACrips\Go West - Go West\06 - S.O.S..wav

Peak level 70.3 %
Extraction speed 5.0 X
Track quality 100.0 %
Test CRC 79B3D7E1
Copy CRC 79B3D7E1
Cannot be verified as accurate (confidence 18) [29823DDC], AccurateRip returned [2413A12D] (AR v2)
Copy OK

Track 7

Filename K:\EACrips\Go West - Go West\07 - Goodbye Girl.wav

Peak level 62.5 %
Extraction speed 5.6 X
Track quality 100.0 %
Test CRC BD9330D6
Copy CRC BD9330D6
Cannot be verified as accurate (confidence 18) [41D11E66], AccurateRip returned [DEA79217] (AR v2)
Copy OK

Track 8

Filename K:\EACrips\Go West - Go West\08 - Innocence.wav

Peak level 71.5 %
Extraction speed 5.8 X
Track quality 100.0 %
Test CRC 7A23F765
Copy CRC 7A23F765
Cannot be verified as accurate (confidence 18) [1B451C4F], AccurateRip returned [26071424] (AR v2)
Copy OK

Track 9

Filename K:\EACrips\Go West - Go West\09 - Missing Persons.wav

Peak level 63.7 %
Extraction speed 5.3 X
Track quality 99.9 %
Test CRC 5356DABC
Copy CRC 5356DABC
Cannot be verified as accurate (confidence 17) [E5D67105], AccurateRip returned [DB64F9AB] (AR v2)
Copy OK


No tracks could be verified as accurate
You may have a different pressing from the one(s) in the database

No errors occurred

End of status report

==== Log checksum 76EFDE888F310D18AC9931C4DECBA813B4892C40D80721F3D0C3C114C6F043DD ====

––––––––––––––––––––––––––––––––––––––––
Analyzed: Go West / Go West
––––––––––––––––––––––––––––––––––––––––

DR Peak RMS Duration Track
––––––––––––––––––––––––––––––––––––––––
DR13 -2.10 dB -17.35 dB 3:49 01-We Close Our Eyes
DR13 -1.89 dB -17.32 dB 3:53 02-Don't Look Down
DR13 -2.46 dB -17.73 dB 4:12 03-Call Me
DR14 -2.55 dB -18.40 dB 3:33 04-Eye to Eye
DR12 -2.49 dB -17.47 dB 3:16 05-Haunted
DR12 -3.05 dB -17.46 dB 4:00 06-S.O.S.
DR12 -4.07 dB -20.64 dB 5:08 07-Goodbye Girl
DR12 -2.91 dB -17.78 dB 4:12 08-Innocence
DR12 -3.90 dB -18.96 dB 5:26 09-Missing Persons
––––––––––––––––––––––––––––––––––––––––

Number of tracks: 9
Official DR value: DR13

Samplerate: 44100 Hz
Channels: 2
Bits per sample: 16
Bitrate: 794 kbps
Codec: FLAC
================================================================================

Thanks to the original releaser

See also:
Go West - Aces And Kings: The Best Of Go West (1993)

♫~Welcome To My Blog~♫

password: BlondStyle