Tags
Language
Tags

Gong - Gazeuse! (1976) [2015, Universal Music Japan, UICY-77299]

Posted By: v3122
Gong - Gazeuse! (1976) [2015, Universal Music Japan, UICY-77299]

Gong - Gazeuse! (1976)
EAC | Flac(Image) + Cue + Log & MP3 CBR 320Kbps
Universal Music Japan, UICY-77299 | ~ 264 or 112 Mb | Scans(png) -> 142 Mb
Psychedelic Rock / Prog Rock

Gazeuse! was the first in a successful line of strictly jazz-rock sessions for percussionist Pierre Moerlen and company – compositions that stressed jazz more than rock and which generally strayed away from lyrical content. This 1976 recording, also released under the title Expresso, was the band's first completely instrumental album, a companion piece to the later, somewhat warmer Expresso II, which is quite similar in sound and structure. To say Gazeuse! is percussive is an understatement. Drummer Moerlen is accompanied by brother Benoit and Mireille Bauer on vibraphones with Mino Cinelu playing other assorted percussion. "Percolations" is a showcase for this foursome: Part one, a display of beautiful vibes and xylophones; part two, a technically superb drum solo. Pierre's playing is fierce in this second part, exhibited by some truly volatile drumming near the close. Allan Holdsworth is the sole guitarist on the album and contributes two of his own compositions. His "Night Illusion" is a standout and reminiscent of Bill Bruford's Feels Good to Me on which Holdsworth collaborated around the same time. Longtime Gong member Didier Malherbe adds spice to the proceedings with jazzy flute on "Shadows Of" and prominent sax on the slightly funky "Esnuria."

by David Ross Smith, AMG
Gong - Gazeuse! (1976) [2015, Universal Music Japan, UICY-77299]


Gong - Gazeuse! (1976):

Gong - Gazeuse! (1976) [2015, Universal Music Japan, UICY-77299]

Tracklist:

01. Expresso 05:38
02. Night Illusion 03:42
03. Percolations 10:02
04. Shadows Of 07:48
05. Esnuria 08:01
06. Mireille 04:12

Exact Audio Copy V1.1 from 23. June 2015

EAC extraction logfile from 9. January 2016, 11:10

Gong / Gazeuse! SHM-CD

Used drive : PLEXTOR BD-R PX-B950SA Adapter: 1 ID: 1

Read mode : Secure
Utilize accurate stream : Yes
Defeat audio cache : Yes
Make use of C2 pointers : No

Read offset correction : 6
Overread into Lead-In and Lead-Out : No
Fill up missing offset samples with silence : Yes
Delete leading and trailing silent blocks : No
Null samples used in CRC calculations : Yes
Used interface : Native Win32 interface for Win NT & 2000

Used output format : Internal WAV Routines
Sample format : 44.100 Hz; 16 Bit; Stereo


TOC of the extracted CD

Track | Start | Length | Start sector | End sector
––––––––––––––––––––––––––––-
1 | 0:00.00 | 5:58.35 | 0 | 26884
2 | 5:58.35 | 3:42.33 | 26885 | 43567
3 | 9:40.68 | 10:02.15 | 43568 | 88732
4 | 19:43.08 | 7:48.20 | 88733 | 123852
5 | 27:31.28 | 8:01.55 | 123853 | 159982
6 | 35:33.08 | 4:12.67 | 159983 | 178949


Range status and errors

Selected range

Filename C:\Users\Meijin\Desktop\Lossless Galaxy ALLexxess\Gong\1976 Gazeuse! (Mini LP SHM-CD Universal Japan 2015)\Gong - Gazeuse! SHM-CD.wav

Peak level 100.0 %
Extraction speed 6.6 X
Range quality 100.0 %
Test CRC 9922C0B7
Copy CRC 9922C0B7
Copy OK

No errors occurred


AccurateRip summary

Track 1 accurately ripped (confidence 3) [2C10128B] (AR v2)
Track 2 accurately ripped (confidence 3) [533CA25C] (AR v2)
Track 3 accurately ripped (confidence 3) [3DCFD582] (AR v2)
Track 4 accurately ripped (confidence 3) [0E467356] (AR v2)
Track 5 accurately ripped (confidence 3) [5CFD5368] (AR v2)
Track 6 accurately ripped (confidence 3) [178EEDEF] (AR v2)

All tracks accurately ripped

End of status report

–– CUETools DB Plugin V2.1.6

[CTDB TOCID: XTJMdIDS_0_VdbwBZUjPTeJX.6s-] found
Submit result: XTJMdIDS_0_VdbwBZUjPTeJX.6s- has been confirmed
Track | CTDB Status
1 | (3/3) Accurately ripped
2 | (3/3) Accurately ripped
3 | (3/3) Accurately ripped
4 | (3/3) Accurately ripped
5 | (3/3) Accurately ripped
6 | (3/3) Accurately ripped


==== Log checksum 3F1161FDDE254B3E938E6D47551337A1E7AFA8D6A634F0BF0107CE0EDB19432F ====

foobar2000 1.1.7 / Dynamic Range Meter 1.1.1
log date: 2016-01-09 11:16:44

––––––––––––––––––––––––––––––––––––––––
Analyzed: Gong / Gazeuse! SHM-CD
––––––––––––––––––––––––––––––––––––––––

DR Peak RMS Duration Track
––––––––––––––––––––––––––––––––––––––––
DR8 0.00 dB -9.82 dB 5:58 01-Expresso
DR9 0.00 dB -10.54 dB 3:42 02-Night Illusion
DR12 0.00 dB -16.21 dB 10:02 03-Percolations
DR11 0.00 dB -12.59 dB 7:48 04-Shadows Of
DR9 0.00 dB -10.98 dB 8:02 05-Esnuria
DR13 -5.64 dB -25.30 dB 4:13 06-Mireille
––––––––––––––––––––––––––––––––––––––––

Number of tracks: 6
Official DR value: DR10

Samplerate: 44100 Hz
Channels: 2
Bits per sample: 16
Bitrate: 1411 kbps
Codec: PCM

[CUETools log; Date: 21.01.2016 8:42:51; Version: 2.1.4]
[CTDB TOCID: XTJMdIDS_0_VdbwBZUjPTeJX.6s-] found.
Track | CTDB Status
1 | (4/4) Accurately ripped
2 | (4/4) Accurately ripped
3 | (4/4) Accurately ripped
4 | (4/4) Accurately ripped
5 | (4/4) Accurately ripped
6 | (4/4) Accurately ripped
[AccurateRip ID: 00097d94-003370d4-43095206] found.
Track [ CRC | V2 ] Status
01 [cfbb1312|2c10128b] (0+3/3) Accurately ripped
02 [2a729029|533ca25c] (0+3/3) Accurately ripped
03 [ef5b5ef2|3dcfd582] (0+3/3) Accurately ripped
04 [2ec0fdbc|0e467356] (0+3/3) Accurately ripped
05 [9737890b|5cfd5368] (0+3/3) Accurately ripped
06 [df8e624f|178eedef] (0+3/3) Accurately ripped

Track Peak [ CRC32 ] [W/O NULL] [ LOG ]
– 100,0 [9922C0B7] [104A666B] CRC32
01 100,0 [78B695B4] [ADDDD82C]
02 100,0 [73B048D7] [D9DAB9D5]
03 100,0 [45CE3592] [DCF3B451]
04 100,0 [FFD8CCEF] [65A6C258]
05 100,0 [5EA74F5B] [59B2E1A1]
06 52,2 [602B862D] [EEB98483]


Gong - Gazeuse! (1976) [2015, Universal Music Japan, UICY-77299]

All thanks go to ALLexxess

Gong in my Blog

Download Gong - Gazeuse! (1976):