Tags
Language
Tags

Gong - You (1974) [2015, Universal Music Japan, UICY-77297]

Posted By: v3122
Gong - You (1974) [2015, Universal Music Japan, UICY-77297]

John Hackett - Another Life (2015)
EAC | Flac(Image) + Cue + Log & MP3 CBR 320Kbps
Esoteric Antenna, EANT21038 | ~ 297 or 115 Mb | Scans(png) -> 258 Mb
Progressive Rock

You is the final installment in Gong's legendary Radio Gnome Trilogy, and it marks an important turning point for the band. By 1974, the psychedelic hippie/folk-rock element of the sound that was leader Daevid Allen's most important contribution was beginning to disappear. In its place was a more sophisticated musical vision that owed as much to jazz-rock fusion as to fellow space rockers like Pink Floyd and Hawkwind. Ironically, this is Gong's most "spacy" album, full of extended, ethereal passages that would inspire future generations of space rockers. The sound was equally defined however, by the jazzy flights of saxophonist Didier Malherbe and the sinuous rhythms of bassist Mike Howlett and drummer Pierre Moerlen (the band would eventually become the fusion-oriented Pierre Moerlen's Gong). Allen's songs still provide a crucial link to the rest of the trilogy, though the conceptual/mythological aspect is less crucial to You.

by Rovi Staff, AMG
Gong - You (1974) [2015, Universal Music Japan, UICY-77297]


Gong - You (1974):

Gong - You (1974) [2015, Universal Music Japan, UICY-77297]

Tracklist:

01. Thought For Naught 01:33
02. A P.H.P. (A PHP's Advice) 01:45
03. Magick Mother Invocation 01:57
04. Master Builder 06:20
05. A Sprinkling Of Clouds 08:57
06. Perfect Mistery 02:28
07. The Isle Of Everywhere 10:21
08. You Never Blow Your Trip Forever 11:32

Bonus Track:
09. A P.H.P. (A PHP's Advice) (Alternate Version) 01:47

Exact Audio Copy V1.1 from 23. June 2015

EAC extraction logfile from 9. January 2016, 12:22

Gong / You SHM-CD

Used drive : PLEXTOR BD-R PX-B950SA Adapter: 1 ID: 1

Read mode : Secure
Utilize accurate stream : Yes
Defeat audio cache : Yes
Make use of C2 pointers : No

Read offset correction : 6
Overread into Lead-In and Lead-Out : No
Fill up missing offset samples with silence : Yes
Delete leading and trailing silent blocks : No
Null samples used in CRC calculations : Yes
Used interface : Native Win32 interface for Win NT & 2000

Used output format : Internal WAV Routines
Sample format : 44.100 Hz; 16 Bit; Stereo


TOC of the extracted CD

Track | Start | Length | Start sector | End sector
––––––––––––––––––––––––––––-
1 | 0:00.00 | 1:33.14 | 0 | 6988
2 | 1:33.14 | 1:45.28 | 6989 | 14891
3 | 3:18.42 | 1:57.17 | 14892 | 23683
4 | 5:15.59 | 6:20.36 | 23684 | 52219
5 | 11:36.20 | 8:57.43 | 52220 | 92537
6 | 20:33.63 | 2:28.74 | 92538 | 103711
7 | 23:02.62 | 10:21.43 | 103712 | 150329
8 | 33:24.30 | 11:32.27 | 150330 | 202256
9 | 44:56.57 | 1:47.53 | 202257 | 210334


Range status and errors

Selected range

Filename C:\Users\Meijin\Desktop\ALLexxess\Gong\1974 You (Mini LP SHM-CD Universal Japan 2015)\Gong - You SHM-CD.wav

Peak level 100.0 %
Extraction speed 5.6 X
Range quality 100.0 %
Test CRC D282A769
Copy CRC D282A769
Copy OK

No errors occurred


AccurateRip summary

Track 1 cannot be verified as accurate (confidence 37) [4A17D430], AccurateRip returned [451B24D6] (AR v2)
Track 2 cannot be verified as accurate (confidence 37) [B830FD95], AccurateRip returned [8643568C] (AR v2)
Track 3 cannot be verified as accurate (confidence 38) [85DAF50F], AccurateRip returned [5194892F] (AR v2)
Track 4 cannot be verified as accurate (confidence 38) [5C6905C2], AccurateRip returned [C0D568FB] (AR v2)
Track 5 cannot be verified as accurate (confidence 38) [86536D13], AccurateRip returned [EB5CB6CF] (AR v2)
Track 6 cannot be verified as accurate (confidence 38) [236A4C31], AccurateRip returned [09D0C1E1] (AR v2)
Track 7 cannot be verified as accurate (confidence 38) [5029135B], AccurateRip returned [61FDFFF1] (AR v2)
Track 8 cannot be verified as accurate (confidence 38) [11A56776], AccurateRip returned [E3DD9F73] (AR v2)
Track 9 cannot be verified as accurate (confidence 38) [4297D2EB], AccurateRip returned [9093B64B] (AR v2)

No tracks could be verified as accurate
You may have a different pressing from the one(s) in the database

End of status report

–– CUETools DB Plugin V2.1.6

[CTDB TOCID: rjBuX3RDYe0b_DK6x0RTXqCPRzY-] found
Submit result: rjBuX3RDYe0b_DK6x0RTXqCPRzY- has been confirmed
Track | CTDB Status
1 | ( 1/48) Accurately ripped
2 | ( 1/48) Accurately ripped
3 | ( 1/48) Accurately ripped
4 | ( 1/48) Accurately ripped
5 | ( 1/48) Accurately ripped
6 | ( 1/48) Accurately ripped
7 | ( 1/48) Accurately ripped
8 | ( 1/48) Accurately ripped
9 | ( 1/48) Accurately ripped


==== Log checksum C05F2D54753FB575DF40CBFA468D73C386AAA80564E6307C6FF19A80C46D34D2 ====

foobar2000 1.2.9 / Dynamic Range Meter 1.1.1
log date: 2016-01-25 13:48:12

––––––––––––––––––––––––––––––––––––––––
Analyzed: Gong / You SHM-CD
––––––––––––––––––––––––––––––––––––––––

DR Peak RMS Duration Track
––––––––––––––––––––––––––––––––––––––––
DR10 -4.54 dB -18.18 dB 1:33 01-Thoughts For Naught
DR11 0.00 dB -13.99 dB 1:45 02-A P.H.P. (A PHP's Advice)
DR10 -8.75 dB -24.69 dB 1:57 03-Magick Mother Invocation
DR10 0.00 dB -12.57 dB 6:20 04-Master Builder
DR10 0.00 dB -14.12 dB 8:58 05-A Sprinkling Of Clouds
DR12 0.00 dB -14.24 dB 2:29 06-Perfect Mystery
DR11 0.00 dB -13.49 dB 10:22 07-Isle Of Everywhere
DR10 0.00 dB -15.80 dB 11:32 08-You Never Blow Your Trip Forever
DR13 -1.09 dB -19.79 dB 1:48 09-A P.H.P. (A PHP's Advice) (Alternate Version) / Bonus Track
––––––––––––––––––––––––––––––––––––––––

Number of tracks: 9
Official DR value: DR11

Samplerate: 44100 Hz
Channels: 2
Bits per sample: 16
Bitrate: 771 kbps
Codec: FLAC

[CUETools log; Date: 23.01.2016 22:05:03; Version: 2.1.4]
[CTDB TOCID: rjBuX3RDYe0b_DK6x0RTXqCPRzY-] found.
Track | CTDB Status
1 | ( 2/49) Accurately ripped
2 | ( 2/49) Accurately ripped
3 | ( 2/49) Accurately ripped
4 | ( 2/49) Accurately ripped
5 | ( 2/49) Accurately ripped
6 | ( 2/49) Accurately ripped
7 | ( 2/49) Accurately ripped
8 | ( 2/49) Accurately ripped
9 | ( 2/49) Accurately ripped
[AccurateRip ID: 000d137d-00681876-700af409] found.
Track [ CRC | V2 ] Status
01 [1be39a26|4a17d430] (00+00/85) No match
02 [2fbc94a2|b830fd95] (00+00/85) No match
03 [83845850|85daf50f] (00+00/86) No match
04 [5ed465c9|5c6905c2] (00+00/85) No match
05 [72b6ad73|86536d13] (00+00/86) No match
06 [8c58331f|236a4c31] (00+00/86) No match
07 [51094c27|5029135b] (00+00/86) No match
08 [a502d3cb|11a56776] (00+00/85) No match
09 [ad5f5bc2|4297d2eb] (00+00/84) No match

Track Peak [ CRC32 ] [W/O NULL] [ LOG ]
– 100,0 [D282A769] [F3BC4E1E] CRC32
01 59,2 [331B9E67] [7962DB48]
02 99,9 [3FEE51F9] [F360EBA8]
03 36,5 [1C38D50D] [9C4314D2]
04 99,9 [4EF1B832] [744039F0]
05 99,9 [95620262] [DFF39479]
06 99,9 [6C947541] [04D1489D]
07 100,0 [C5815E7E] [319961C6]
08 99,9 [D0B98A6E] [C1CCED13]
09 88,2 [271F8726] [CC871899]

Gong - You (1974) [2015, Universal Music Japan, UICY-77297]

All thanks go to ALLexxess

Gong in my Blog

Download Gong - You (1974):