Subcategories

Grandmaster Flash & The Furious Five - The Message (1982) {Castle Records}

Posted By: tiburon
Grandmaster Flash & The Furious Five - The Message (1982) {Castle Records}

Grandmaster Flash & The Furious Five - The Message (1982) {Castle Records}
EAC 0.99pb3 | FLAC tracks level 8 | Cue+Log+M3U | Full Scans 300dpi | 283MB + 5% Recovery
MP3 CBR 320 Kbps | 108MB + 5% Recovery
Genre: Old-School Rap, Funk, Soul

1982's The Message has a good claim to being the greatest rap album of the old school years. It was the first politically radical rap album of its era exploring the various inequalities of 1980s America. No rap act at that point had channelled the mood and struggles of the streets onto record. Grandmaster Flash & the Furious Five became the first to address the reality of inner city life in New York's boroughs. Tracks such as the renowned "The Message" certified them as one of the most influential groups in hip-hop's history. This Expanded Edition of their classic album now includes additional bonus such as "The Message II", "New York New York", the instrumental of the "Message" plus "The Adventure Of Grandmaster Himself", a cut up of various classic breaks that only appeared 20 years after the original recording. Also included are new extended sleeve notes and brand new photos.
Track List
01. She's Fresh (4:58)
02. It's Nasty (4:20)
03. Scorpio (4:56)
04. It's a Shame (Mt. Airy Groove) (4:59)
05. Dreamin' (5:46)
06. You Are (4:50)
07. The Message (7:12)
08. The Adventure Of Grandmaster Flash On The Wheels Of Steel (7:08)


Exact Audio Copy V0.99 prebeta 3 from 28. July 2007

EAC extraction logfile from 13. December 2008, 3:38

Grandmaster Flash & The Furious / The Message

Used drive : HL-DT-STDVDRAM GSA-T30L Adapter: 2 ID: 0

Read mode : Secure
Utilize accurate stream : Yes
Defeat audio cache : Yes
Make use of C2 pointers : No

Read offset correction : 667
Overread into Lead-In and Lead-Out : No
Fill up missing offset samples with silence : Yes
Delete leading and trailing silent blocks : No
Null samples used in CRC calculations : Yes
Used interface : Native Win32 interface for Win NT & 2000
Gap handling : Appended to previous track

Used output format : User Defined Encoder
Selected bitrate : 128 kBit/s
Quality : High
Add ID3 tag : No
Command line compressor : C:\Program Files\Exact Audio Copy\Flac\flac.exe
Additional command line options : -V -8 -T "artist=%a" -T "title=%t" -T "album=%g" -T "date=%y" -T "tracknumber=%n" -T "genre=%m" %s


TOC of the extracted CD

Track | Start | Length | Start sector | End sector
––––––––––––––––––––––––––––-
1 | 0:00.00 | 4:57.02 | 0 | 22276
2 | 4:57.02 | 4:18.35 | 22277 | 41661
3 | 9:15.37 | 4:55.50 | 41662 | 63836
4 | 14:11.12 | 4:57.58 | 63837 | 86169
5 | 19:08.70 | 5:46.22 | 86170 | 112141
6 | 24:55.17 | 4:50.15 | 112142 | 133906
7 | 29:45.32 | 7:11.60 | 133907 | 166291
8 | 36:57.17 | 7:06.63 | 166292 | 198304


Track 1

Filename C:\01 - She's Fresh .wav

Pre-gap length 0:00:02.00

Peak level 95.9 %
Track quality 100.0 %
Test CRC 68AE2622
Copy CRC 68AE2622
Track not present in AccurateRip database
Copy OK

Track 2

Filename C:\02 - It's Nasty .wav

Pre-gap length 0:00:01.22

Peak level 88.3 %
Track quality 100.0 %
Test CRC C6AC2AFE
Copy CRC C6AC2AFE
Track not present in AccurateRip database
Copy OK

Track 3

Filename C:\03 - Scorpio .wav

Peak level 90.3 %
Track quality 100.0 %
Test CRC 3A6A66F2
Copy CRC 3A6A66F2
Track not present in AccurateRip database
Copy OK

Track 4

Filename C:\04 - It's A Shame (MT. Airy Groove) .wav

Pre-gap length 0:00:01.62

Peak level 96.1 %
Track quality 100.0 %
Test CRC 8070AFC0
Copy CRC 8070AFC0
Track not present in AccurateRip database
Copy OK

Track 5

Filename C:\05 - Dreamin' .wav

Pre-gap length 0:00:00.60

Peak level 97.7 %
Track quality 100.0 %
Test CRC CEB24132
Copy CRC CEB24132
Track not present in AccurateRip database
Copy OK

Track 6

Filename C:\06 - You Are .wav

Pre-gap length 0:00:01.62

Peak level 97.7 %
Track quality 99.9 %
Test CRC E291068A
Copy CRC E291068A
Track not present in AccurateRip database
Copy OK

Track 7

Filename C:\07 - The Message .wav

Pre-gap length 0:00:01.62

Peak level 95.3 %
Track quality 100.0 %
Test CRC 96773E92
Copy CRC 96773E92
Track not present in AccurateRip database
Copy OK

Track 8

Filename C:\08 - The Adventure Of Grandmaster Flash On The Wheels Of Steel .wav

Pre-gap length 0:00:01.62

Peak level 92.3 %
Track quality 100.0 %
Test CRC 1B55202A
Copy CRC 1B55202A
Track not present in AccurateRip database
Copy OK


None of the tracks are present in the AccurateRip database

No errors occurred

End of status report

Grandmaster Flash & The Furious Five - The Message (1982) {Castle Records}
Grandmaster Flash & The Furious Five - The Message (1982) {Castle Records}


Thanks to the original ripper