Tags
Language
Tags

Stephane Grappelli, Joe Pass, Niels-Henning Ørsted Pedersen - Tivoli Gardens, Copenhagen, Denmark (1980) [Reissue 1990]

Posted By: gribovar
Stephane Grappelli, Joe Pass, Niels-Henning Ørsted Pedersen - Tivoli Gardens, Copenhagen, Denmark (1980) [Reissue 1990]

Stephane Grappelli, Joe Pass, Niels-Henning Orsted Pedersen - Tivoli Gardens, Copenhagen, Denmark (1980) [Reissue 1990]
EAC Rip | FLAC (tracks+.cue+log) - 231 MB | Covers (14 MB) included
Genre: Jazz, Swing | RAR 3% Rec. | Label: Pablo (00025218644129)

By the time the 71-year-old Stephane Grappelli made this live trio recording with guitarist Joe Pass and bassist Niels-Henning Orsted Pedersen, his legacy as the greatest of all jazz violinists was firmly in place. Granted, that made him first in a fairly short line of colleagues - other than Joe Venuti and Stuff Smith, who else was there to consider? (Jean-Luc Ponty doesn't count.) But it's hard to imagine another player, regardless of virtuosity, ever conveying the same sense of swing and simple joie de vivre that Grappelli does with virtually every note. Nor does it hurt that his accompanists on this album are among the finest in their fields; Orsted Pedersen plays with a solidity and rhythmic power that are enough to make you forget the absence of a drummer, while Pass slides effortlessly between unobtrusive chordal backup and bravura soloing. The program itself is practically a Grapelli greatest-hits collection - "It's Only a Paper Moon," "Crazy Rhythm," "How Deep Is the Ocean," etc. - which makes this disc a perfect introduction to his art for anyone looking for a good place to begin.
Tracklist:
01. It's Only a Paper Moon
02. Time After Time
03. Let's Fall in Love
04. Crazy Rhythm
05. How Deep Is the Ocean
06. I'll Remember April
07. I Can't Get Started
08. I Get a Kick out of You

Total time: 44:38

Exact Audio Copy V1.0 beta 3 from 29. August 2011

EAC extraction logfile from 9. February 2014, 17:50

Grapelli, Pass, Pedersen / Tivoli Gardens

Used drive : HL-DT-STDVD-RAM GH22NP20 Adapter: 0 ID: 0

Read mode : Secure
Utilize accurate stream : Yes
Defeat audio cache : Yes
Make use of C2 pointers : No

Read offset correction : 102
Overread into Lead-In and Lead-Out : No
Fill up missing offset samples with silence : Yes
Delete leading and trailing silent blocks : No
Null samples used in CRC calculations : Yes
Used interface : Native Win32 interface for Win NT & 2000
Gap handling : Appended to previous track

Used output format : User Defined Encoder
Selected bitrate : 1024 kBit/s
Quality : High
Add ID3 tag : No
Command line compressor : C:\Program Files\Exact Audio Copy\Flac\flac.exe
Additional command line options : -V -8 -T "Genre=%genre%" -T "Artist=%artist%" -T "Title=%title%" -T "Album=%albumtitle%" -T "Date=%year%" -T "Tracknumber=%tracknr%" -T "Comment=%comment%" %source%


TOC of the extracted CD

Track | Start | Length | Start sector | End sector
––––––––––––––––––––––––––––-
1 | 0:00.00 | 3:59.17 | 0 | 17941
2 | 3:59.17 | 5:21.08 | 17942 | 42024
3 | 9:20.25 | 4:37.02 | 42025 | 62801
4 | 13:57.27 | 3:49.53 | 62802 | 80029
5 | 17:47.05 | 6:14.32 | 80030 | 108111
6 | 24:01.37 | 7:39.38 | 108112 | 142574
7 | 31:41.00 | 7:14.15 | 142575 | 175139
8 | 38:55.15 | 5:42.47 | 175140 | 200836


Track 1

Filename D:\music\Musicgate's rips\Grapelli, Pass, Pedersen - Tivoli Gardens, Copenhagen, Denmark - 1980 (1990 Pablo 00025218644129)\01 - It's Only a Paper Moon.wav

Pre-gap length 0:00:02.00

Peak level 93.8 %
Extraction speed 1.6 X
Track quality 100.0 %
Test CRC 1038156A
Copy CRC 1038156A
Cannot be verified as accurate (confidence 5) [DEF76CC0], AccurateRip returned [C18CB38E] (AR v2)
Copy OK

Track 2

Filename D:\music\Musicgate's rips\Grapelli, Pass, Pedersen - Tivoli Gardens, Copenhagen, Denmark - 1980 (1990 Pablo 00025218644129)\02 - Time After Time.wav

Peak level 57.9 %
Extraction speed 1.9 X
Track quality 100.0 %
Test CRC ADFC836C
Copy CRC ADFC836C
Cannot be verified as accurate (confidence 5) [E49C8D70], AccurateRip returned [E605B218] (AR v2)
Copy OK

Track 3

Filename D:\music\Musicgate's rips\Grapelli, Pass, Pedersen - Tivoli Gardens, Copenhagen, Denmark - 1980 (1990 Pablo 00025218644129)\03 - Let's Fall in Love.wav

Peak level 80.8 %
Extraction speed 2.0 X
Track quality 100.0 %
Test CRC EA3B67F0
Copy CRC EA3B67F0
Cannot be verified as accurate (confidence 5) [59FDDD33], AccurateRip returned [A19457DC] (AR v2)
Copy OK

Track 4

Filename D:\music\Musicgate's rips\Grapelli, Pass, Pedersen - Tivoli Gardens, Copenhagen, Denmark - 1980 (1990 Pablo 00025218644129)\04 - Crazy Rhythm.wav

Peak level 96.3 %
Extraction speed 1.9 X
Track quality 99.9 %
Test CRC F3A3DCE8
Copy CRC F3A3DCE8
Cannot be verified as accurate (confidence 5) [5ADFF903], AccurateRip returned [AAF612C7] (AR v2)
Copy OK

Track 5

Filename D:\music\Musicgate's rips\Grapelli, Pass, Pedersen - Tivoli Gardens, Copenhagen, Denmark - 1980 (1990 Pablo 00025218644129)\05 - How Deep Is the Ocean.wav

Peak level 96.7 %
Extraction speed 2.4 X
Track quality 100.0 %
Test CRC B351BB27
Copy CRC B351BB27
Cannot be verified as accurate (confidence 5) [184B5789], AccurateRip returned [A9731E0A] (AR v2)
Copy OK

Track 6

Filename D:\music\Musicgate's rips\Grapelli, Pass, Pedersen - Tivoli Gardens, Copenhagen, Denmark - 1980 (1990 Pablo 00025218644129)\06 - I'll Remember April.wav

Pre-gap length 0:00:00.07

Peak level 59.9 %
Extraction speed 2.7 X
Track quality 100.0 %
Test CRC 692E0990
Copy CRC 692E0990
Cannot be verified as accurate (confidence 5) [961F911E], AccurateRip returned [ED00A4B3] (AR v2)
Copy OK

Track 7

Filename D:\music\Musicgate's rips\Grapelli, Pass, Pedersen - Tivoli Gardens, Copenhagen, Denmark - 1980 (1990 Pablo 00025218644129)\07 - I Can't Get Started.wav

Peak level 42.4 %
Extraction speed 2.9 X
Track quality 100.0 %
Test CRC 49193E2B
Copy CRC 49193E2B
Cannot be verified as accurate (confidence 5) [28D311F5], AccurateRip returned [EA786559] (AR v2)
Copy OK

Track 8

Filename D:\music\Musicgate's rips\Grapelli, Pass, Pedersen - Tivoli Gardens, Copenhagen, Denmark - 1980 (1990 Pablo 00025218644129)\08 - I Get a Kick out of You.wav

Peak level 56.8 %
Extraction speed 2.7 X
Track quality 99.9 %
Test CRC 2C3DB4AB
Copy CRC 2C3DB4AB
Cannot be verified as accurate (confidence 5) [C8EB636F], AccurateRip returned [6BF7D3D3] (AR v2)
Copy OK


No tracks could be verified as accurate
You may have a different pressing from the one(s) in the database

No errors occurred

End of status report

==== Log checksum B31FA835299B912DA362DB5163C0030B49AB84725E049AFDF51F254DD927DD61 ====

[CUETools log; Date: 21.05.2019 23:39:37; Version: 2.1.4]
[CTDB TOCID: b2m7qmgZuF6WdFQiPcf7RcGk4Aw-] found.
Track | CTDB Status
1 | (39/39) Accurately ripped
2 | (39/39) Accurately ripped
3 | (39/39) Accurately ripped
4 | (38/39) Accurately ripped
5 | (38/39) Accurately ripped
6 | (39/39) Accurately ripped
7 | (39/39) Accurately ripped
8 | (39/39) Accurately ripped
[AccurateRip ID: 000ca817-00567f3c-620a7508] found.
Track [ CRC | V2 ] Status
01 [09b928d9|def76cc0] (00+02/43) Accurately ripped
02 [207ec19a|e49c8d70] (00+02/43) Accurately ripped
03 [53960240|59fddd33] (00+02/43) Accurately ripped
04 [2b779c1b|5adff903] (00+02/43) Accurately ripped
05 [bac9440c|184b5789] (00+02/42) Accurately ripped
06 [eb5cf280|961f911e] (00+02/43) Accurately ripped
07 [0b73da9d|28d311f5] (00+02/43) Accurately ripped
08 [a15d5878|c8eb636f] (00+02/41) Accurately ripped
Offsetted by 676:
01 [7ee110cf] (03/43) Accurately ripped
02 [508667eb] (03/43) Accurately ripped
03 [a974bc97] (03/43) Accurately ripped
04 [74c46a06] (03/43) Accurately ripped
05 [bf16b2c1] (02/42) Accurately ripped
06 [6841f396] (03/43) Accurately ripped
07 [48e2a6bd] (03/43) Accurately ripped
08 [51cb098b] (02/41) Accurately ripped
Offsetted by 973:
01 [d6ed0020] (02/43) Accurately ripped
02 [3ae6f2ed] (02/43) Accurately ripped
03 [f925d119] (02/43) Accurately ripped
04 [e281e5ef] (02/43) Accurately ripped
05 [9cb74ab2] (02/42) Accurately ripped
06 [11ba1748] (02/43) Accurately ripped
07 [db92c10a] (02/43) Accurately ripped
08 [d5fdef18] (02/41) Accurately ripped
Offsetted by 1091:
01 [c18cb38e] (05/43) Accurately ripped
02 [e605b218] (05/43) Accurately ripped
03 [a19457dc] (05/43) Accurately ripped
04 [aaf612c7] (05/43) Accurately ripped
05 [a9731e0a] (05/42) Accurately ripped
06 [ed00a4b3] (05/43) Accurately ripped
07 [ea786559] (05/43) Accurately ripped
08 [6bf7d3d3] (05/41) Accurately ripped
Offsetted by 1374:
01 [b90eaef9] (03/43) Accurately ripped
02 [46f8fa06] (03/43) Accurately ripped
03 [52367b8c] (03/43) Accurately ripped
04 [ff8664bc] (03/43) Accurately ripped
05 [ffe5396c] (03/42) Accurately ripped
06 [16772d7c] (03/43) Accurately ripped
07 [57fa864d] (03/43) Accurately ripped
08 [325c57da] (03/41) Accurately ripped
Offsetted by 1681:
01 [a22f7fec] (02/43) Accurately ripped
02 [f5ad77e3] (02/43) Accurately ripped
03 [312878d4] (02/43) Accurately ripped
04 [ffb89824] (02/43) Accurately ripped
05 [e6219bf5] (02/42) Accurately ripped
06 [4e821021] (02/43) Accurately ripped
07 [66061d58] (02/43) Accurately ripped
08 [bc5631fb] (02/41) Accurately ripped
Offsetted by 410:
01 [5bbd13ac] (00/43) No match (V2 was not tested)
02 [e650c993] (00/43) No match (V2 was not tested)
03 [2d17c169] (00/43) No match (V2 was not tested)
04 [a04ef4e4] (00/43) No match (V2 was not tested)
05 [d32499bd] (00/42) No match (V2 was not tested)
06 [e6c4f617] (00/43) No match (V2 was not tested)
07 [4968486a] (00/43) No match (V2 was not tested)
08 [9535a2bc] (00/41) No match (V2 was not tested)
Offsetted by 658:
01 [833313be] (00/43) No match (V2 was not tested)
02 [ea40d931] (00/43) No match (V2 was not tested)
03 [beb6bf1a] (00/43) No match (V2 was not tested)
04 [021c0b74] (00/43) No match (V2 was not tested)
05 [3b62b180] (00/42) No match (V2 was not tested)
06 [ac1b46c2] (00/43) No match (V2 was not tested)
07 [613844e7] (00/43) No match (V2 was not tested)
08 [44132018] (00/41) No match (V2 was not tested)
Offsetted by 664:
01 [39916aba] (00/43) No match (V2 was not tested)
02 [e64eee94] (00/43) No match (V2 was not tested)
03 [5ea77671] (00/43) No match (V2 was not tested)
04 [74ec62c8] (00/43) No match (V2 was not tested)
05 [3b10ea6c] (00/42) No match (V2 was not tested)
06 [99f7e5bc] (00/43) No match (V2 was not tested)
07 [fa59dd48] (00/43) No match (V2 was not tested)
08 [b7bf2286] (00/41) No match (V2 was not tested)
Offsetted by 834:
01 [a9285521] (00/43) No match (V2 was not tested)
02 [6fd46c56] (00/43) No match (V2 was not tested)
03 [133e55ce] (00/43) No match (V2 was not tested)
04 [e5e226c5] (00/43) No match (V2 was not tested)
05 [29c2c818] (00/42) No match (V2 was not tested)
06 [70a7a7f9] (00/43) No match (V2 was not tested)
07 [70405432] (00/43) No match (V2 was not tested)
08 [b1b8be46] (00/41) No match (V2 was not tested)

Track Peak [ CRC32 ] [W/O NULL] [ LOG ]
– 96,7 [97EEADDB] [78F70111]
01 93,8 [1038156A] [0663F4C2] CRC32
02 57,9 [ADFC836C] [DB4D899A] CRC32
03 80,8 [EA3B67F0] [0B4CB631] CRC32
04 96,3 [F3A3DCE8] [EBABB947] CRC32
05 96,7 [B351BB27] [E4C5DA0E] CRC32
06 59,9 [692E0990] [EF0B11CC] CRC32
07 42,4 [49193E2B] [9E4AF4D9] CRC32
08 56,8 [2C3DB4AB] [A46C7231] CRC32

Thanks to musicgate

See also: