Subcategories

Grayson Hugh ‎- Blind To Reason (1988)

Posted By: Designol
Grayson Hugh ‎- Blind To Reason (1988)

Grayson Hugh ‎- Blind To Reason (1988)
EAC | FLAC | Tracks (Cue&Log) ~ 276 Mb | Mp3 (CBR320) ~ 103 Mb | Scans included
Blue-Eyed Soul | Label: RCA | # 7661-2-R | Time: 00:44:54

This smash hit debut album by Grayson Hugh, featuring his soulful singing, poetic lyrics and masterful piano and Hammond B3 organ playing, quickly earned him the name "King Of Blue-Eyed Soul".

Blue-eyed Southern soul singer Grayson Hugh deviates from his strident tenor a couple of times on this album. The material is solid. Name-brand musicians (bassist Fernando Saunders and guitarist Rick Derringer) and vocalists (including Audrey Wheeler and Will Downing) accompany Hugh on highlights such as "Talk It Over" and "Hard Life".

Review by Andrew Hamilton, Allmusic.com

Grayson Hugh ‎- Blind To Reason (1988)



Tracklist:

01. Romantic Heart (3:46)
02. Tears Of Love (4:09)
03. Talk It Over (4:18)
04. Bring It All Back (4:04)
05. Two Hearts (4:06)
06. Blind To Reason (4:57)
07. Finally Found A Friend (5:28)
08. Hard Life (4:16)
09. That's Cool (3:58)
10. Empty As The Wind (4:30)
11. Blind Return (1:21)


Exact Audio Copy V1.0 beta 3 from 29. August 2011

Отчёт EAC об извлечении, выполненном 21. июня 2017, 17:08

Grayson Hugh / Blind To Reason

Дисковод: ASUS DRW-1814BLT Adapter: 4 ID: 0

Режим чтения : Достоверность
Использование точного потока : Да
Отключение кэша аудио : Да
Использование указателей C2 : Нет

Коррекция смещения при чтении : 6
Способность читать области Lead-in и Lead-out : Нет
Заполнение пропущенных сэмплов тишиной : Да
Удаление блоков с тишиной в начале и конце : Нет
При вычислениях CRC использовались нулевые сэмплы : Да
Интерфейс : Встроенный Win32-интерфейс для Win NT/2000
Обработка зазоров : Добавлено к предыдущему треку

Выходной формат : Пользовательский кодировщик
Выбранный битрейт : 128 kBit/s
Качество : Высокий
Добавление ID3-тега : Нет
Утилита сжатия : C:\Program Files\Exact Audio Copy\Flac\flac.exe
Дополнительные параметры : -V -8 -T "Genre=%genre%" -T "Artist=%artist%" -T "Title=%title%" -T "Album=%albumtitle%" -T "Date=%year%" -T "Tracknumber=%tracknr%" -T "Comment=EAC1.0b2 FLAC -8" %source%


TOC извлечённого CD

Трек | Старт | Длительность | Начальный сектор | Конечный сектор
––––––––––––––––––––––––––––––––––-
1 | 0:00.00 | 3:46.15 | 0 | 16964
2 | 3:46.15 | 4:09.22 | 16965 | 35661
3 | 7:55.37 | 4:18.30 | 35662 | 55041
4 | 12:13.67 | 4:04.05 | 55042 | 73346
5 | 16:17.72 | 4:06.33 | 73347 | 91829
6 | 20:24.30 | 4:56.47 | 91830 | 114076
7 | 25:21.02 | 5:28.33 | 114077 | 138709
8 | 30:49.35 | 4:15.62 | 138710 | 157896
9 | 35:05.22 | 3:57.43 | 157897 | 175714
10 | 39:02.65 | 4:30.07 | 175715 | 195971
11 | 43:32.72 | 1:20.60 | 195972 | 202031


Трек 1

Имя файла R:\Раздача 74\Grayson Hugh - 1988 - Blind To Reason\01 Romantic Heart .wav

Длина предзазора 0:00:02.00

Пиковый уровень 69.4 %
Скорость извлечения 2.5 X
Качество трека 100.0 %
CRC теста A0C63B3A
CRC копии A0C63B3A
Точное извлечение (достоверность 5) [FD9BBC93] (AR v2)
Копирование… OK

Трек 2

Имя файла R:\Раздача 74\Grayson Hugh - 1988 - Blind To Reason\02 Tears Of Love .wav

Пиковый уровень 100.0 %
Скорость извлечения 1.7 X
Качество трека 99.9 %
CRC теста 39079A04
CRC копии 39079A04
Точное извлечение (достоверность 5) [9AE2FE01] (AR v2)
Копирование… OK

Трек 3

Имя файла R:\Раздача 74\Grayson Hugh - 1988 - Blind To Reason\03 Talk It Over .wav

Пиковый уровень 87.6 %
Скорость извлечения 2.1 X
Качество трека 100.0 %
CRC теста CE35B735
CRC копии CE35B735
Точное извлечение (достоверность 5) [A24CB3ED] (AR v2)
Копирование… OK

Трек 4

Имя файла R:\Раздача 74\Grayson Hugh - 1988 - Blind To Reason\04 Bring It All Back .wav

Пиковый уровень 84.9 %
Скорость извлечения 3.4 X
Качество трека 100.0 %
CRC теста 79CCAC15
CRC копии 79CCAC15
Точное извлечение (достоверность 5) [CED4E170] (AR v2)
Копирование… OK

Трек 5

Имя файла R:\Раздача 74\Grayson Hugh - 1988 - Blind To Reason\05 Two Hearts .wav

Длина предзазора 0:00:01.22

Пиковый уровень 59.1 %
Скорость извлечения 3.6 X
Качество трека 100.0 %
CRC теста EF58C8C4
CRC копии EF58C8C4
Точное извлечение (достоверность 5) [492EF441] (AR v2)
Копирование… OK

Трек 6

Имя файла R:\Раздача 74\Grayson Hugh - 1988 - Blind To Reason\06 Blind To Reason .wav

Пиковый уровень 99.9 %
Скорость извлечения 3.9 X
Качество трека 100.0 %
CRC теста CE7A6287
CRC копии CE7A6287
Точное извлечение (достоверность 5) [F9CA7F60] (AR v2)
Копирование… OK

Трек 7

Имя файла R:\Раздача 74\Grayson Hugh - 1988 - Blind To Reason\07 Finally Found A Friend .wav

Пиковый уровень 81.4 %
Скорость извлечения 4.2 X
Качество трека 100.0 %
CRC теста 25EA6260
CRC копии 25EA6260
Точное извлечение (достоверность 5) [726803FB] (AR v2)
Копирование… OK

Трек 8

Имя файла R:\Раздача 74\Grayson Hugh - 1988 - Blind To Reason\08 Hard Life .wav

Пиковый уровень 91.8 %
Скорость извлечения 4.3 X
Качество трека 100.0 %
CRC теста 1EF916DE
CRC копии 1EF916DE
Точное извлечение (достоверность 5) [C8AB8FBA] (AR v2)
Копирование… OK

Трек 9

Имя файла R:\Раздача 74\Grayson Hugh - 1988 - Blind To Reason\09 That's Cool .wav

Пиковый уровень 79.9 %
Скорость извлечения 4.4 X
Качество трека 100.0 %
CRC теста 107B4648
CRC копии 107B4648
Точное извлечение (достоверность 5) [6E8BB8EF] (AR v2)
Копирование… OK

Трек 10

Имя файла R:\Раздача 74\Grayson Hugh - 1988 - Blind To Reason\10 Empty As The Wind .wav

Пиковый уровень 67.4 %
Скорость извлечения 4.7 X
Качество трека 100.0 %
CRC теста D0059BBA
CRC копии D0059BBA
Точное извлечение (достоверность 5) [F542D02F] (AR v2)
Копирование… OK

Трек 11

Имя файла R:\Раздача 74\Grayson Hugh - 1988 - Blind To Reason\11 Blind Return .wav

Пиковый уровень 47.2 %
Скорость извлечения 3.6 X
Качество трека 100.0 %
CRC теста 99176663
CRC копии 99176663
Точное извлечение (достоверность 5) [693678F5] (AR v2)
Копирование… OK


Все треки извлечены точно

Ошибок не произошло

Конец отчёта

==== Контрольная сумма отчёта BCC34D1DD0BFD1D8F48B5DF44AAD04E5F35FB3A0FE988E2F0FF444D9F71AF2F1 ====

foobar2000 1.2 / Dynamic Range Meter 1.1.1
log date: 2017-06-25 22:02:25

––––––––––––––––––––––––––––––––––––––––
Analyzed: Grayson Hugh / Blind To Reason
––––––––––––––––––––––––––––––––––––––––

DR Peak RMS Duration Track
––––––––––––––––––––––––––––––––––––––––
DR9 -3.17 dB -14.72 dB 3:46 01-Romantic Heart
DR12 0.00 dB -13.32 dB 4:09 02-Tears Of Love
DR12 -1.14 dB -16.72 dB 4:18 03-Talk It Over
DR12 -1.42 dB -16.79 dB 4:04 04-Bring It All Back
DR10 -4.56 dB -16.99 dB 4:06 05-Two Hearts
DR13 -0.01 dB -15.46 dB 4:57 06-Blind To Reason
DR12 -1.79 dB -16.56 dB 5:28 07-Finally Found A Friend
DR12 -0.74 dB -14.81 dB 4:16 08-Hard Life
DR12 -1.95 dB -16.47 dB 3:58 09-That's Cool
DR11 -3.42 dB -16.92 dB 4:30 10-Empty As The Wind
DR11 -6.52 dB -24.08 dB 1:21 11-Blind Return
––––––––––––––––––––––––––––––––––––––––

Number of tracks: 11
Official DR value: DR12

Samplerate: 44100 Hz
Channels: 2
Bits per sample: 16
Bitrate: 603 kbps
Codec: FLAC
================================================================================

Grayson Hugh ‎- Blind To Reason (1988)

Grayson Hugh ‎- Blind To Reason (1988)

All thanks to original releaser - clusert

More interesting music in My Blog