Tags
Language
Tags
February 2024
Su Mo Tu We Th Fr Sa
28 29 30 31 1 2 3
4 5 6 7 8 9 10
11 12 13 14 15 16 17
18 19 20 21 22 23 24
25 26 27 28 29 1 2
Attention❗ To save your time, in order to download anything on this site, you must be registered 👉 HERE. If you do not have a registration yet, it is better to do it right away. ✌

( • )( • ) ( ͡⚆ ͜ʖ ͡⚆ ) (‿ˠ‿)
SpicyMags.xyz

Grdina, Houle, Loewen, Delbecq - Ghost Lights (2017) {Songlines}

Posted By: tiburon
Grdina, Houle, Loewen, Delbecq - Ghost Lights (2017) {Songlines}

Grdina, Houle, Loewen, Delbecq - Ghost Lights (2017) {Songlines}
EAC 1.3 | FLAC tracks level 8 | Cue+Log+M3u | Full Scans 300dpi | 328MB + 5% Recovery
MP3 CBR 320 Kbps | 173MB + 5% Recovery
Genre: Ethnic Fusion, Avant-Garde Jazz

But when they added Benoît Delbecq the music became something else again. François Houle explains: “As Benoît and I were looking at opportunities for the duo [established in 1996], Ken Pickering [Vancouver jazz festival artistic director] suggested we merge this with the trio collective [formed in 2014, though its members have been performing in different Grdina groups since around 2004]. Knowing how Benoît’s playing fits into so many different configurations, I thought this would work nicely. I suggested he bring his bass station to augment the lower end of the quartet.” Two performances at the 2015 festival led to a return engagement in 2016 followed by a day in the studio. “The whole session unfolded quite spontaneously, with hardly any discussion between takes. Gord suggested we play my piece ‘Soro’ as he knew Benoît’s affinity for African rhythms in his piano approach. Benoît brought out “Broken World”, written shortly after the terrorist attack at the Bataclan in Paris. We tried it and found it to be a beautiful, haunting piece. The rest was completely improvised, and took us into the most unexpected musical spaces, with generous room for all to participate in the music making.” The longest take (not on the record) went on for 31 minutes!
Track List
1 Soro
2 Ley Land
3 Gold Spheres
4 Broken World
5 Ghost Lights
6 Soft Shadows
7 Waraba

musicians
Gordon Grdina - guitar, oud, electronics
François Houle - clarinet, electronics, loopers
Kenton Loewen - drums & percussion
Benoît Delbecq - piano & bass station


Exact Audio Copy V1.3 from 2. September 2016

EAC extraction logfile from 9. March 2018, 13:35

Grdina, Houle, Loewen, Delbecq / Ghost Lights

Used drive : ATAPI iHBS112 2 Adapter: 1 ID: 1

Read mode : Secure
Utilize accurate stream : Yes
Defeat audio cache : Yes
Make use of C2 pointers : No

Read offset correction : 6
Overread into Lead-In and Lead-Out : No
Fill up missing offset samples with silence : Yes
Delete leading and trailing silent blocks : No
Null samples used in CRC calculations : Yes
Used interface : Native Win32 interface for Win NT & 2000
Gap handling : Appended to previous track

Used output format : User Defined Encoder
Selected bitrate : 128 kBit/s
Quality : High
Add ID3 tag : No
Command line compressor : C:\Program Files (x86)\Exact Audio Copy\Flac\flac.exe
Additional command line options : -8 -V -T "ARTIST=%artist%" -T "TITLE=%title%" -T "ALBUM=%albumtitle%" -T "DATE=%year%" -T "TRACKNUMBER=%tracknr%" -T "GENRE=%genre%" -T "PERFORMER=%albuminterpret%" -T "COMPOSER=%composer%" -T "ALBUMARTIST=%albumartist%" -T "DISCNUMBER=%cdnumber%" -T "TOTALDISCS=%totalcds%" -T "TOTALTRACKS=%numtracks%" -T "COMMENT=EAC Secure Mode, Test & Copy, AccurateRip, FLAC -8" %source% -o %dest%


TOC of the extracted CD

Track | Start | Length | Start sector | End sector
––––––––––––––––––––––––––––-
1 | 0:00.00 | 8:13.40 | 0 | 37014
2 | 8:13.40 | 8:10.46 | 37015 | 73810
3 | 16:24.11 | 11:07.05 | 73811 | 123840
4 | 27:31.16 | 3:54.52 | 123841 | 141442
5 | 31:25.68 | 15:51.58 | 141443 | 212825
6 | 47:17.51 | 14:27.31 | 212826 | 277881
7 | 61:45.07 | 9:00.10 | 277882 | 318391


Track 1

Filename G:\DL\Grdina, Houle, Loewen, Delbecq - Ghost Lights (2017) [FLAC]\01 - Soro.wav

Pre-gap length 0:00:02.00

Peak level 97.1 %
Extraction speed 5.7 X
Track quality 100.0 %
Test CRC 4CA3B107
Copy CRC 4CA3B107
Track not present in AccurateRip database
Copy OK

Track 2

Filename G:\DL\Grdina, Houle, Loewen, Delbecq - Ghost Lights (2017) [FLAC]\02 - Ley Land.wav

Pre-gap length 0:00:07.00

Peak level 80.5 %
Extraction speed 6.8 X
Track quality 100.0 %
Test CRC 53675A2F
Copy CRC 53675A2F
Track not present in AccurateRip database
Copy OK

Track 3

Filename G:\DL\Grdina, Houle, Loewen, Delbecq - Ghost Lights (2017) [FLAC]\03 - Gold Sphere.wav

Pre-gap length 0:00:02.00

Peak level 95.4 %
Extraction speed 7.9 X
Track quality 100.0 %
Test CRC FFDF406B
Copy CRC FFDF406B
Track not present in AccurateRip database
Copy OK

Track 4

Filename G:\DL\Grdina, Houle, Loewen, Delbecq - Ghost Lights (2017) [FLAC]\04 - Broken World.wav

Pre-gap length 0:00:02.00

Peak level 95.5 %
Extraction speed 6.5 X
Track quality 99.9 %
Test CRC 5159C620
Copy CRC 5159C620
Track not present in AccurateRip database
Copy OK

Track 5

Filename G:\DL\Grdina, Houle, Loewen, Delbecq - Ghost Lights (2017) [FLAC]\05 - Ghost Lights.wav

Pre-gap length 0:00:04.00

Peak level 95.6 %
Extraction speed 9.6 X
Track quality 100.0 %
Test CRC C4DF20E1
Copy CRC C4DF20E1
Track not present in AccurateRip database
Copy OK

Track 6

Filename G:\DL\Grdina, Houle, Loewen, Delbecq - Ghost Lights (2017) [FLAC]\06 - Soft Shadows.wav

Pre-gap length 0:00:02.00

Peak level 99.0 %
Extraction speed 10.5 X
Track quality 100.0 %
Test CRC 81670378
Copy CRC 81670378
Track not present in AccurateRip database
Copy OK

Track 7

Filename G:\DL\Grdina, Houle, Loewen, Delbecq - Ghost Lights (2017) [FLAC]\07 - Waraba.wav

Pre-gap length 0:00:03.00

Peak level 96.1 %
Extraction speed 9.9 X
Track quality 99.9 %
Test CRC 339BCBE0
Copy CRC 339BCBE0
Track not present in AccurateRip database
Copy OK


None of the tracks are present in the AccurateRip database

No errors occurred

End of status report

–– CUETools DB Plugin V2.1.6

[CTDB TOCID: Xcj4Euyifs5IlHCkcaOv1TZ9wiQ-] found
Submit result: Xcj4Euyifs5IlHCkcaOv1TZ9wiQ- has been confirmed
Track | CTDB Status
1 | (2/2) Accurately ripped
2 | (2/2) Accurately ripped
3 | (2/2) Accurately ripped
4 | (2/2) Accurately ripped
5 | (2/2) Accurately ripped
6 | (2/2) Accurately ripped
7 | (2/2) Accurately ripped


==== Log checksum CCD74338129C9FA5BF284C41D7E8295E25AD7E4BB980BD5540958998C025604B ====

Grdina, Houle, Loewen, Delbecq - Ghost Lights (2017) {Songlines}


Thanks to the original ripper