Tags
Language
Tags

Great White - Elation (2012)

Posted By: popsakov
Great White - Elation (2012)

Great White - Elation (2012)
EAC Rip | FLAC (Tracks) + Cue + m3u + Log ~ 490 Mb | MP3 CBR320 ~ 165 Mb
Full Scans | 01:00:58 | RAR 5% Recovery
Hard Rock, Classic Rock, Glam | Frontiers Records #FR CD 555

Elation is the twelfth studio album by the American hard rock band Great White, released in May 2012. It is the first Great White studio album to feature vocalist Terry Ilous. Additionally, it is the first one without original vocalist Jack Russell. Elation was produced, recorded and mixed by Michael Lardie and Mark Kendall, the band's two guitarists. Since its release, the album has been met with mixed to positive responses. Jon Hotten reviewed the album positively for Classic Rock magazine, writing that "it shows some of the qualities that took (Great White) in their substantial heyday", when the band "made hard rockin' sound easy". He praises Ilous "rasping-throat role" and concludes that, despite the lack of killer hooks "of the kind that Great White had in abundance" the band still shows its musicianship. William Clark of Guitar International wrote: "Those memorable blues rock riffs that scatter Great White’s biggest hits are in excess with Elation." Sleaze Roxx gave a mixed review, saying "With Mark Kendall on guitar you really can't go wrong, but without his longtime partner Jack Russell, Elation isn't all it could be".

***************

Great White - Elation (2012)

Track List:

01. (I've Got) Something For You [4:31]
02. Feelin' So Much Better [5:04]
03. Love Train [4:46]
04. Heart Of A Man [4:27]
05. Hard To Say Goodbye [5:19]
06. Resolution [5:07]
07. Shotgun Willie's [5:07]
08. Promise Land [5:46]
09. Lowdown [5:56]
10. Just For Tonight [4:33]
11. Love Is Enough [6:05]
12. Complicated [4:16]

Personnel:
Bass Guitar - Scott Snyder
Drums - Audie Desbrow
Guitar, Keyboards - Michael Lardie
Lead Guitar - Mark Kendall
Lead Vocals - Terry Ilous

Exact Audio Copy V1.0 beta 3 from 29. August 2011

EAC extraction logfile from 26. September 2012, 14:42

Great White / Elation

Used drive : TSSTcorpCDDVDW SH-S223Q Adapter: 6 ID: 0

Read mode : Secure
Utilize accurate stream : Yes
Defeat audio cache : Yes
Make use of C2 pointers : No

Read offset correction : 6
Overread into Lead-In and Lead-Out : No
Fill up missing offset samples with silence : Yes
Delete leading and trailing silent blocks : No
Null samples used in CRC calculations : Yes
Used interface : Native Win32 interface for Win NT & 2000
Gap handling : Appended to previous track

Used output format : User Defined Encoder
Selected bitrate : 128 kBit/s
Quality : High
Add ID3 tag : No
Command line compressor : C:\Program Files (x86)\Exact Audio Copy\Flac\flac.exe
Additional command line options : –best –picture="C:\FLAC\folder.jpg" -P 4096 -V -T "ARTIST=%artist%" -T "TITLE=%title%" -T "ALBUM=%albumtitle%" -T "TRACKNUMBER=%tracknr%" %source% -o %dest%


TOC of the extracted CD

Track | Start | Length | Start sector | End sector
––––––––––––––––––––––––––––-
1 | 0:00.00 | 4:31.20 | 0 | 20344
2 | 4:31.20 | 5:04.19 | 20345 | 43163
3 | 9:35.39 | 4:46.17 | 43164 | 64630
4 | 14:21.56 | 4:27.15 | 64631 | 84670
5 | 18:48.71 | 5:18.59 | 84671 | 108579
6 | 24:07.55 | 5:06.46 | 108580 | 131575
7 | 29:14.26 | 5:07.25 | 131576 | 154625
8 | 34:21.51 | 5:45.63 | 154626 | 180563
9 | 40:07.39 | 5:56.21 | 180564 | 207284
10 | 46:03.60 | 4:33.28 | 207285 | 227787
11 | 50:37.13 | 6:04.69 | 227788 | 255156
12 | 56:42.07 | 4:15.53 | 255157 | 274334


Track 1

Filename C:\FLAC\Great White\Elation\01 - (I've Got) Something For You.wav

Pre-gap length 0:00:02.00

Peak level 89.9 %
Extraction speed 3.9 X
Track quality 99.9 %
Test CRC 670A5825
Copy CRC 670A5825
Track not present in AccurateRip database
Copy OK

Track 2

Filename C:\FLAC\Great White\Elation\02 - Feelin' So Much Better.wav

Peak level 97.7 %
Extraction speed 5.3 X
Track quality 100.0 %
Test CRC E61CB4C8
Copy CRC E61CB4C8
Track not present in AccurateRip database
Copy OK

Track 3

Filename C:\FLAC\Great White\Elation\03 - Love Train.wav

Peak level 97.7 %
Extraction speed 5.8 X
Track quality 100.0 %
Test CRC B33C2B04
Copy CRC B33C2B04
Track not present in AccurateRip database
Copy OK

Track 4

Filename C:\FLAC\Great White\Elation\04 - Heart Of A Man.wav

Peak level 97.7 %
Extraction speed 6.2 X
Track quality 100.0 %
Test CRC CB360F26
Copy CRC CB360F26
Track not present in AccurateRip database
Copy OK

Track 5

Filename C:\FLAC\Great White\Elation\05 - Hard To Say Goodbye.wav

Peak level 97.7 %
Extraction speed 6.8 X
Track quality 100.0 %
Test CRC 02C357BD
Copy CRC 02C357BD
Track not present in AccurateRip database
Copy OK

Track 6

Filename C:\FLAC\Great White\Elation\06 - Resolution.wav

Peak level 97.7 %
Extraction speed 7.2 X
Track quality 100.0 %
Test CRC 20ED79D6
Copy CRC 20ED79D6
Track not present in AccurateRip database
Copy OK

Track 7

Filename C:\FLAC\Great White\Elation\07 - Shotgun Willie's.wav

Peak level 97.7 %
Extraction speed 7.5 X
Track quality 100.0 %
Test CRC 44CA69E4
Copy CRC 44CA69E4
Track not present in AccurateRip database
Copy OK

Track 8

Filename C:\FLAC\Great White\Elation\08 - Promise Land.wav

Peak level 97.7 %
Extraction speed 8.0 X
Track quality 100.0 %
Test CRC 1A26B534
Copy CRC 1A26B534
Track not present in AccurateRip database
Copy OK

Track 9

Filename C:\FLAC\Great White\Elation\09 - Lowdown.wav

Peak level 97.7 %
Extraction speed 8.5 X
Track quality 100.0 %
Test CRC B2AB9404
Copy CRC B2AB9404
Track not present in AccurateRip database
Copy OK

Track 10

Filename C:\FLAC\Great White\Elation\10 - Just For Tonight.wav

Peak level 97.7 %
Extraction speed 8.5 X
Track quality 100.0 %
Test CRC BF013C05
Copy CRC BF013C05
Track not present in AccurateRip database
Copy OK

Track 11

Filename C:\FLAC\Great White\Elation\11 - Love Is Enough.wav

Peak level 97.7 %
Extraction speed 9.2 X
Track quality 100.0 %
Test CRC 7E828169
Copy CRC 7E828169
Track not present in AccurateRip database
Copy OK

Track 12

Filename C:\FLAC\Great White\Elation\12 - Complicated.wav

Peak level 97.7 %
Extraction speed 9.3 X
Track quality 100.0 %
Test CRC EE8293CC
Copy CRC EE8293CC
Track not present in AccurateRip database
Copy OK


None of the tracks are present in the AccurateRip database

No errors occurred

End of status report

==== Log checksum C215DB49E3ACFF667F258B6F24A50124D2380E661A3446F975A505E7FAEEB437 ====

foobar2000 1.3.16 / Dynamic Range Meter 1.1.1
log date: 2018-03-16 09:21:43

––––––––––––––––––––––––––––––––––––––––
Analyzed: Great White / Elation
––––––––––––––––––––––––––––––––––––––––

DR Peak RMS Duration Track
––––––––––––––––––––––––––––––––––––––––
DR8 -0.92 dB -9.77 dB 4:31 01-(I've Got) Something For You
DR8 -0.20 dB -9.43 dB 5:04 02-Feelin' So Much Better
DR9 -0.20 dB -10.55 dB 4:46 03-Love Train
DR9 -0.20 dB -10.25 dB 4:27 04-Heart Of A Man
DR9 -0.20 dB -11.46 dB 5:19 05-Hard To Say Goodbye
DR8 -0.20 dB -9.43 dB 5:07 06-Resolution
DR8 -0.20 dB -9.85 dB 5:07 07-Shotgun Willie's
DR9 -0.20 dB -11.08 dB 5:46 08-Promise Land
DR9 -0.20 dB -10.03 dB 5:56 09-Lowdown
DR8 -0.20 dB -8.82 dB 4:33 10-Just For Tonight
DR8 -0.20 dB -10.76 dB 6:05 11-Love Is Enough
DR10 -0.20 dB -10.81 dB 4:16 12-Complicated
––––––––––––––––––––––––––––––––––––––––

Number of tracks: 12
Official DR value: DR9

Samplerate: 44100 Hz
Channels: 2
Bits per sample: 16
Bitrate: 1055 kbps
Codec: FLAC
================================================================================

[CUETools log; Date: 16.03.2018 9:00:47; Version: 2.1.6]
[CTDB TOCID: fvzB9zS07.j0Do.dXqCnnhnX.iM-] found.
Track | CTDB Status
1 | (16/16) Accurately ripped
2 | (16/16) Accurately ripped
3 | (16/16) Accurately ripped
4 | (16/16) Accurately ripped
5 | (16/16) Accurately ripped
6 | (16/16) Accurately ripped
7 | (16/16) Accurately ripped
8 | (16/16) Accurately ripped
9 | (16/16) Accurately ripped
10 | (16/16) Accurately ripped
11 | (16/16) Accurately ripped
12 | (16/16) Accurately ripped
[AccurateRip ID: 001abe92-00fbab67-a40e490c] found.
Track [ CRC | V2 ] Status
01 [bcb7bc1c|d98c4b13] (00+00/16) No match
02 [6624e4e7|17ccb089] (00+00/16) No match
03 [99a71cc4|1844b17d] (00+00/16) No match
04 [345ede7d|1e373e20] (00+00/16) No match
05 [649244c0|ce3e9bc8] (00+00/16) No match
06 [5e9e407a|2ec635ae] (00+00/16) No match
07 [1dbebe5c|bcd460fc] (00+00/16) No match
08 [68b7ddc1|fc8ca11d] (00+00/16) No match
09 [2b175c9e|e5364849] (00+00/16) No match
10 [384277f6|7e3a7642] (00+00/16) No match
11 [f5efd2cb|6a47aa45] (00+00/16) No match
12 [f3dd1829|77477829] (00+00/15) No match
Offsetted by 36:
01 [19cb59c2] (00/16) No match (V2 was not tested)
02 [84b0db5c] (00/16) No match (V2 was not tested)
03 [23c6567d] (00/16) No match (V2 was not tested)
04 [86e49d62] (00/16) No match (V2 was not tested)
05 [dafce066] (00/16) No match (V2 was not tested)
06 [71d678e5] (00/16) No match (V2 was not tested)
07 [4731ffb4] (00/16) No match (V2 was not tested)
08 [8237342e] (00/16) No match (V2 was not tested)
09 [5ac48937] (00/16) No match (V2 was not tested)
10 [2130134e] (00/16) No match (V2 was not tested)
11 [6441d3b0] (00/16) No match (V2 was not tested)
12 [3583b3ef] (00/15) No match (V2 was not tested)

Track Peak [ CRC32 ] [W/O NULL] [ LOG ]
– 97,7 [3E8BC28E] [86AE0404]
01 89,9 [670A5825] [7081C1CE] CRC32
02 97,7 [E61CB4C8] [888E23AC] CRC32
03 97,7 [B33C2B04] [CE9BCF50] CRC32
04 97,7 [CB360F26] [4369A882] CRC32
05 97,7 [02C357BD] [764F3D38] CRC32
06 97,7 [20ED79D6] [2DDF8734] CRC32
07 97,7 [44CA69E4] [482FA3EA] CRC32
08 97,7 [1A26B534] [ED549E6C] CRC32
09 97,7 [B2AB9404] [1E96BD3E] CRC32
10 97,7 [BF013C05] [33BC7AB8] CRC32
11 97,7 [7E828169] [950A6D47] CRC32
12 97,7 [EE8293CC] [078C5947] CRC32

Great White - Elation (2012)


All thanks go to Marino13

>>> Great White in my Blog <<<

>>> My Blog <<<

DOWNLOAD: