Subcategories
Tags
Language
Tags

Gregorian - Masters of Chant X: The Final Chapter (2015) [2CD Limited Tour Edition]

Posted By: gribovar
Gregorian - Masters of Chant X: The Final Chapter (2015) [2CD Limited Tour Edition]

Gregorian - Masters of Chant X: The Final Chapter (2015) [2CD Limited Tour Edition]
EAC Rip | FLAC (image+.cue+log) - 538 MB | MP3 CBR 320 kbps (LAME 3.93) - 203 MB | Covers - 300 MB
Genre: New Age, Enigmatic, Ambientpop | RAR 3% Rec. | Label: Ear Music (0210964EMU)

After the impressive list of awards, sales results and chart positions all over the world, Gregorian certainly need no introduction. It is in fact a project that long has become a music genre itself.
For one more time, the interpretations of iconic pop and rock songs in monk s cowl take the listeners on a fantastic journey across all genres and decades and offer a balanced mix of classic pop and rock from the past and present. Ranging from the melancholic Angel, originally performed by Sarah McLaughlin, to recent chart success by the young British alternative trio London Grammar (Strong) to maybe the most recognizable songs from the 80s, Tears For Fears Shout, Gregorian constantly perform at a high level. With two original compositions the hymn Masters Of Chant featuring the stunning Amelia Brightman who also showcases her impressive vocal range on Rihanna's Farewell and one of the album s highlights, the heartwarming ballad Gentle , as well as songs originally performed by Lionel Richie, Bob Dylan, The Beatles and Tracy Chapman, The Final Chapter leaves a mark on the world.
Ending with two songs which couldn't fit better to the occasion - Sarah Brightman's and Andrea Bocelli's hymn Time To Say Goodbye, here performed in a very special Gregorian version, and the last song on the album, Reinhard Mey's Good Night, Companions.
CD 1 Tracklist:
01. Masters of Chant (feat. Amelia Brightman)
02. Cry Softly (feat. Narcis)
03. Angel
04. Strong
05. In My Life
06. Farewell (feat. Amelia Brightman)
07. Living Years
08. Just for You
09. Gentle
10. I Shall Be Released
11. Shout
12. Baby, Can I Hold You
13. Time To Say Goodbye
14. Good Night, Companions

Total time: 01:04:21

CD 2 Tracklist:
01. Master of Chant (feat. Narcis) (Euroversion)
02. Wonderful Life
03. Song of the Siren
04. Never Let You Go (feat. Amelia Brightman)
05. Life is for Living (feat. Amelia Brightman)
06. Master of Chant (feat. Narcis) (Alan Meyerson Orchestral Mix)

Total time: 22:15

Exact Audio Copy V1.1 from 23. June 2015

EAC extraction logfile from 17. April 2016, 11:13

Gregorian / Masters of Chant X: The Final Chapter (Tour-Edition)

Used drive : ASUS DRW-24F1ST a Adapter: 1 ID: 1

Read mode : Secure
Utilize accurate stream : Yes
Defeat audio cache : Yes
Make use of C2 pointers : No

Read offset correction : 6
Overread into Lead-In and Lead-Out : No
Fill up missing offset samples with silence : Yes
Delete leading and trailing silent blocks : No
Null samples used in CRC calculations : Yes
Used interface : Native Win32 interface for Win NT & 2000
Gap handling : Appended to previous track

Used output format : User Defined Encoder
Selected bitrate : 896 kBit/s
Quality : High
Add ID3 tag : No
Command line compressor : C:\Program Files (x86)\Exact Audio Copy\Flac\flac.exe
Additional command line options : -8 -V -T "COMMENT=ripped by DrStandBy special for new-team.org" -T "ARTIST=%artist%" -T "TITLE=%title%" -T "ALBUM=%albumtitle%" -T "DATE=%year%" -T "TRACKNUMBER=%tracknr%" -T "GENRE=%genre%" %source%


TOC of the extracted CD

Track | Start | Length | Start sector | End sector
––––––––––––––––––––––––––––-
1 | 0:00.00 | 3:46.28 | 0 | 16977
2 | 3:46.28 | 4:47.44 | 16978 | 38546
3 | 8:33.72 | 5:29.42 | 38547 | 63263
4 | 14:03.39 | 4:07.56 | 63264 | 81844
5 | 18:11.20 | 3:18.54 | 81845 | 96748
6 | 21:29.74 | 4:57.44 | 96749 | 119067
7 | 26:27.43 | 6:58.25 | 119068 | 150442
8 | 33:25.68 | 4:39.00 | 150443 | 171367
9 | 38:04.68 | 3:57.48 | 171368 | 189190
10 | 42:02.41 | 5:19.11 | 189191 | 213126
11 | 47:21.52 | 5:44.31 | 213127 | 238957
12 | 53:06.08 | 3:56.47 | 238958 | 256704
13 | 57:02.55 | 4:14.68 | 256705 | 275822
14 | 61:17.48 | 3:03.64 | 275823 | 289611


Track 1

Filename I:\2016 - Gregorian - Masters of Chant X- The Final Chapter (Tour-Edition) (0210964EMU)\1-01. Gregorian feat. Amelia Brightman - Masters of Chant.wav

Pre-gap length 0:00:02.00

Peak level 98.8 %
Extraction speed 1.5 X
Track quality 99.9 %
Test CRC 61677506
Copy CRC 61677506
Accurately ripped (confidence 8) [EE15C919] (AR v2)
Copy OK

Track 2

Filename I:\2016 - Gregorian - Masters of Chant X- The Final Chapter (Tour-Edition) (0210964EMU)\1-02. Gregorian feat. Narcis - Cry Softly.wav

Peak level 98.5 %
Extraction speed 2.0 X
Track quality 100.0 %
Test CRC 7FF9B5BA
Copy CRC 7FF9B5BA
Accurately ripped (confidence 8) [DB670DF7] (AR v2)
Copy OK

Track 3

Filename I:\2016 - Gregorian - Masters of Chant X- The Final Chapter (Tour-Edition) (0210964EMU)\1-03. Gregorian - Angel.wav

Peak level 98.5 %
Extraction speed 2.3 X
Track quality 100.0 %
Test CRC C174908F
Copy CRC C174908F
Accurately ripped (confidence 8) [6FE99538] (AR v2)
Copy OK

Track 4

Filename I:\2016 - Gregorian - Masters of Chant X- The Final Chapter (Tour-Edition) (0210964EMU)\1-04. Gregorian - Strong.wav

Peak level 98.5 %
Extraction speed 2.4 X
Track quality 100.0 %
Test CRC F888183A
Copy CRC F888183A
Accurately ripped (confidence 8) [2C046B4D] (AR v2)
Copy OK

Track 5

Filename I:\2016 - Gregorian - Masters of Chant X- The Final Chapter (Tour-Edition) (0210964EMU)\1-05. Gregorian - In My Life.wav

Peak level 98.8 %
Extraction speed 2.4 X
Track quality 100.0 %
Test CRC 6B65F6FA
Copy CRC 6B65F6FA
Accurately ripped (confidence 8) [289E75F6] (AR v2)
Copy OK

Track 6

Filename I:\2016 - Gregorian - Masters of Chant X- The Final Chapter (Tour-Edition) (0210964EMU)\1-06. Gregorian feat. Amelia Brightman - Farewell.wav

Peak level 98.5 %
Extraction speed 2.7 X
Track quality 100.0 %
Test CRC 621D8631
Copy CRC 621D8631
Accurately ripped (confidence 8) [BEA26919] (AR v2)
Copy OK

Track 7

Filename I:\2016 - Gregorian - Masters of Chant X- The Final Chapter (Tour-Edition) (0210964EMU)\1-07. Gregorian - Living Years.wav

Peak level 98.5 %
Extraction speed 2.6 X
Track quality 99.9 %
Test CRC 71D41DBD
Copy CRC 71D41DBD
Accurately ripped (confidence 8) [A920FBC2] (AR v2)
Copy OK

Track 8

Filename I:\2016 - Gregorian - Masters of Chant X- The Final Chapter (Tour-Edition) (0210964EMU)\1-08. Gregorian - Just for You.wav

Peak level 98.5 %
Extraction speed 3.1 X
Track quality 100.0 %
Test CRC 1D9DB262
Copy CRC 1D9DB262
Accurately ripped (confidence 8) [89C94A46] (AR v2)
Copy OK

Track 9

Filename I:\2016 - Gregorian - Masters of Chant X- The Final Chapter (Tour-Edition) (0210964EMU)\1-09. Gregorian - Gentle.wav

Peak level 98.5 %
Extraction speed 3.1 X
Track quality 100.0 %
Test CRC 54F51452
Copy CRC 54F51452
Accurately ripped (confidence 8) [4A742F3C] (AR v2)
Copy OK

Track 10

Filename I:\2016 - Gregorian - Masters of Chant X- The Final Chapter (Tour-Edition) (0210964EMU)\1-10. Gregorian - I Shall Be Released.wav

Peak level 98.5 %
Extraction speed 3.4 X
Track quality 100.0 %
Test CRC 9E1AD08A
Copy CRC 9E1AD08A
Accurately ripped (confidence 8) [155B00BA] (AR v2)
Copy OK

Track 11

Filename I:\2016 - Gregorian - Masters of Chant X- The Final Chapter (Tour-Edition) (0210964EMU)\1-11. Gregorian - Shout.wav

Peak level 99.4 %
Extraction speed 3.6 X
Track quality 100.0 %
Test CRC B702CC09
Copy CRC B702CC09
Accurately ripped (confidence 8) [420866AA] (AR v2)
Copy OK

Track 12

Filename I:\2016 - Gregorian - Masters of Chant X- The Final Chapter (Tour-Edition) (0210964EMU)\1-12. Gregorian - Baby, Can I Hold You.wav

Peak level 98.8 %
Extraction speed 3.5 X
Track quality 100.0 %
Test CRC B1C2D8A0
Copy CRC B1C2D8A0
Accurately ripped (confidence 8) [B64C6B32] (AR v2)
Copy OK

Track 13

Filename I:\2016 - Gregorian - Masters of Chant X- The Final Chapter (Tour-Edition) (0210964EMU)\1-13. Gregorian - Time To Say Goodbye.wav

Peak level 98.8 %
Extraction speed 3.6 X
Track quality 100.0 %
Test CRC 3ACFC967
Copy CRC 3ACFC967
Accurately ripped (confidence 8) [3D0BC0CD] (AR v2)
Copy OK

Track 14

Filename I:\2016 - Gregorian - Masters of Chant X- The Final Chapter (Tour-Edition) (0210964EMU)\1-14. Gregorian - Good Night, Companions.wav

Peak level 98.5 %
Extraction speed 3.5 X
Track quality 100.0 %
Test CRC 5CB414C7
Copy CRC 5CB414C7
Accurately ripped (confidence 8) [47138028] (AR v2)
Copy OK


All tracks accurately ripped

No errors occurred

End of status report

–– CUETools DB Plugin V2.1.6

[CTDB TOCID: JA_QF1od9qtZKgbbd6145l3r8Zg-] found
Submit result: already submitted
Track | CTDB Status
1 | (72/72) Accurately ripped
2 | (72/72) Accurately ripped
3 | (72/72) Accurately ripped
4 | (72/72) Accurately ripped
5 | (72/72) Accurately ripped
6 | (72/72) Accurately ripped
7 | (72/72) Accurately ripped
8 | (72/72) Accurately ripped
9 | (72/72) Accurately ripped
10 | (72/72) Accurately ripped
11 | (72/72) Accurately ripped
12 | (72/72) Accurately ripped
13 | (71/72) Accurately ripped
14 | (71/72) Accurately ripped


==== Log checksum 7871AF1024800FF0B18570476D573B5ACC11694D6A1445CE7FC23838B746707E ====

[CUETools log; Date: 12.06.2021 10:03:41; Version: 2.1.4]
[CTDB TOCID: JA_QF1od9qtZKgbbd6145l3r8Zg-] found.
Track | CTDB Status
1 | (231/231) Accurately ripped
2 | (231/231) Accurately ripped
3 | (231/231) Accurately ripped
4 | (231/231) Accurately ripped
5 | (231/231) Accurately ripped
6 | (231/231) Accurately ripped
7 | (231/231) Accurately ripped
8 | (231/231) Accurately ripped
9 | (231/231) Accurately ripped
10 | (231/231) Accurately ripped
11 | (229/231) Accurately ripped
12 | (229/231) Accurately ripped
13 | (227/231) Accurately ripped
14 | (227/231) Accurately ripped
[AccurateRip ID: 0021984e-01686347-ce0f150e] found.
Track [ CRC | V2 ] Status
01 [10f7e53a|ee15c919] (00+45/47) Accurately ripped
02 [c6af110d|db670df7] (00+45/47) Accurately ripped
03 [5a15f58d|6fe99538] (00+45/47) Accurately ripped
04 [be6ad878|2c046b4d] (00+45/47) Accurately ripped
05 [55ae7b2b|289e75f6] (00+46/48) Accurately ripped
06 [45adda75|bea26919] (00+45/47) Accurately ripped
07 [6e767b72|a920fbc2] (00+45/47) Accurately ripped
08 [c253167e|89c94a46] (00+46/48) Accurately ripped
09 [bd6d7adc|4a742f3c] (00+46/48) Accurately ripped
10 [4bc306f0|155b00ba] (00+46/48) Accurately ripped
11 [944e1ce5|420866aa] (00+45/47) Accurately ripped
12 [85c417c9|b64c6b32] (00+45/47) Accurately ripped
13 [d1c3656a|3d0bc0cd] (00+45/47) Accurately ripped
14 [7e41fa43|47138028] (00+45/47) Accurately ripped
Offsetted by -102:
01 [6863eb84] (00/47) No match (V2 was not tested)
02 [291e8127] (00/47) No match (V2 was not tested)
03 [72379ea6] (00/47) No match (V2 was not tested)
04 [4ae521cc] (00/47) No match (V2 was not tested)
05 [9aa652d5] (00/48) No match (V2 was not tested)
06 [b3b43b7d] (00/47) No match (V2 was not tested)
07 [13bd6b40] (00/47) No match (V2 was not tested)
08 [15de8897] (00/48) No match (V2 was not tested)
09 [8bf54397] (00/48) No match (V2 was not tested)
10 [190d26dd] (00/48) No match (V2 was not tested)
11 [dc5567f1] (00/47) No match (V2 was not tested)
12 [50bf159f] (00/47) No match (V2 was not tested)
13 [b2ffaa8f] (00/47) No match (V2 was not tested)
14 [23cd85d8] (00/47) No match (V2 was not tested)
Offsetted by 6:
01 [0d4d15ad] (00/47) No match (V2 was not tested)
02 [682732c4] (00/47) No match (V2 was not tested)
03 [98e8fb06] (00/47) No match (V2 was not tested)
04 [d49ddba2] (00/47) No match (V2 was not tested)
05 [311dc240] (00/48) No match (V2 was not tested)
06 [4dd3838b] (00/47) No match (V2 was not tested)
07 [cfbef1fa] (00/47) No match (V2 was not tested)
08 [863f354c] (00/48) No match (V2 was not tested)
09 [9ce478a8] (00/48) No match (V2 was not tested)
10 [44243660] (00/48) No match (V2 was not tested)
11 [ec8e5fec] (00/47) No match (V2 was not tested)
12 [4ff8db50] (00/47) No match (V2 was not tested)
13 [77eed813] (00/47) No match (V2 was not tested)
14 [11b022c8] (00/47) No match (V2 was not tested)

Track Peak [ CRC32 ] [W/O NULL] [ LOG ]
– 99,4 [5B049DC5] [D665E6DF]
01 98,8 [61677506] [BB614C9D] CRC32
02 98,5 [7FF9B5BA] [28791BC4] CRC32
03 98,5 [C174908F] [7AA0B906] CRC32
04 98,5 [F888183A] [CCB72A84] CRC32
05 98,8 [6B65F6FA] [10523147] CRC32
06 98,5 [621D8631] [F7CE8CD8] CRC32
07 98,5 [71D41DBD] [9ACF1D96] CRC32
08 98,5 [1D9DB262] [346540FB] CRC32
09 98,5 [54F51452] [6991B202] CRC32
10 98,5 [9E1AD08A] [267E8366] CRC32
11 99,4 [B702CC09] [D163A5E4] CRC32
12 98,8 [B1C2D8A0] [2624C21F] CRC32
13 98,8 [3ACFC967] [2808538F] CRC32
14 98,5 [5CB414C7] [9B4551CB] CRC32

Exact Audio Copy V1.1 from 23. June 2015

EAC extraction logfile from 17. April 2016, 0:31

Gregorian / Masters of Chant X: The Final Chapter (Tour-Edition)

Used drive : ASUS DRW-24F1ST a Adapter: 1 ID: 1

Read mode : Secure
Utilize accurate stream : Yes
Defeat audio cache : Yes
Make use of C2 pointers : No

Read offset correction : 6
Overread into Lead-In and Lead-Out : No
Fill up missing offset samples with silence : Yes
Delete leading and trailing silent blocks : No
Null samples used in CRC calculations : Yes
Used interface : Native Win32 interface for Win NT & 2000
Gap handling : Appended to previous track

Used output format : User Defined Encoder
Selected bitrate : 896 kBit/s
Quality : High
Add ID3 tag : No
Command line compressor : C:\Program Files (x86)\Exact Audio Copy\Flac\flac.exe
Additional command line options : -8 -V -T "COMMENT=ripped by DrStandBy special for new-team.org" -T "ARTIST=%artist%" -T "TITLE=%title%" -T "ALBUM=%albumtitle%" -T "DATE=%year%" -T "TRACKNUMBER=%tracknr%" -T "GENRE=%genre%" %source%


TOC of the extracted CD

Track | Start | Length | Start sector | End sector
––––––––––––––––––––––––––––-
1 | 0:00.00 | 3:01.18 | 0 | 13592
2 | 3:01.18 | 4:55.34 | 13593 | 35751
3 | 7:56.52 | 3:47.00 | 35752 | 52776
4 | 11:43.52 | 3:56.15 | 52777 | 70491
5 | 15:39.67 | 3:35.03 | 70492 | 86619
6 | 19:14.70 | 3:00.43 | 86620 | 100162


Track 1

Filename I:\2016 - Gregorian - Masters of Chant X- The Final Chapter (Tour-Edition) (0210964EMU)\2-01. Gregorian feat. Narcis - Master of Chant (Euroversion).wav

Pre-gap length 0:00:02.00

Peak level 98.7 %
Extraction speed 1.7 X
Track quality 99.9 %
Test CRC 87D5D261
Copy CRC 87D5D261
Track not present in AccurateRip database
Copy OK

Track 2

Filename I:\2016 - Gregorian - Masters of Chant X- The Final Chapter (Tour-Edition) (0210964EMU)\2-02. Gregorian - Wonderful Life.wav

Pre-gap length 0:00:01.00

Peak level 98.5 %
Extraction speed 1.9 X
Track quality 99.9 %
Test CRC 688B9D66
Copy CRC 688B9D66
Track not present in AccurateRip database
Copy OK

Track 3

Filename I:\2016 - Gregorian - Masters of Chant X- The Final Chapter (Tour-Edition) (0210964EMU)\2-03. Gregorian - Song of the Siren.wav

Peak level 98.2 %
Extraction speed 2.0 X
Track quality 100.0 %
Test CRC B1A7C1EF
Copy CRC B1A7C1EF
Track not present in AccurateRip database
Copy OK

Track 4

Filename I:\2016 - Gregorian - Masters of Chant X- The Final Chapter (Tour-Edition) (0210964EMU)\2-04. Gregorian feat. Amelia Brightman - Never Let You Go.wav

Pre-gap length 0:00:01.00

Peak level 98.5 %
Extraction speed 2.1 X
Track quality 100.0 %
Test CRC BBD50D60
Copy CRC BBD50D60
Track not present in AccurateRip database
Copy OK

Track 5

Filename I:\2016 - Gregorian - Masters of Chant X- The Final Chapter (Tour-Edition) (0210964EMU)\2-05. Gregorian feat. Amelia Brightman - Life is for Living.wav

Pre-gap length 0:00:01.00

Peak level 98.5 %
Extraction speed 2.0 X
Track quality 100.0 %
Test CRC DDB7001C
Copy CRC DDB7001C
Track not present in AccurateRip database
Copy OK

Track 6

Filename I:\2016 - Gregorian - Masters of Chant X- The Final Chapter (Tour-Edition) (0210964EMU)\2-06. Gregorian feat. Narcis - Master of Chant (Alan Meyerson Orchestral Mix).wav

Pre-gap length 0:00:01.00

Peak level 98.9 %
Extraction speed 1.7 X
Track quality 99.9 %
Test CRC 1EFB3FAE
Copy CRC 1EFB3FAE
Track not present in AccurateRip database
Copy OK


None of the tracks are present in the AccurateRip database

No errors occurred

End of status report

–– CUETools DB Plugin V2.1.6

[CTDB TOCID: s9r4v4eWOT5On1RP1GwAoVgyXpo-] found
Submit result: already submitted
Track | CTDB Status
1 | (13/13) Accurately ripped
2 | (13/13) Accurately ripped
3 | (13/13) Accurately ripped
4 | (13/13) Accurately ripped
5 | (13/13) Accurately ripped
6 | (13/13) Accurately ripped


==== Log checksum 123315EF6F75ACCD5BA15CABCB0185ADCF88D21BE43CD8EC22FC1CC03F2805BE ====

[CUETools log; Date: 12.06.2021 10:04:05; Version: 2.1.4]
[CTDB TOCID: s9r4v4eWOT5On1RP1GwAoVgyXpo-] found.
Track | CTDB Status
1 | (45/45) Accurately ripped
2 | (45/45) Accurately ripped
3 | (45/45) Accurately ripped
4 | (45/45) Accurately ripped
5 | (45/45) Accurately ripped
6 | (45/45) Accurately ripped
[AccurateRip ID: 00057be5-001d4798-48053706] found.
Track [ CRC | V2 ] Status
01 [8b28eb28|d24cdae6] (0+6/6) Accurately ripped
02 [81ef01cf|969025a7] (0+5/5) Accurately ripped
03 [0f3d007e|6d6b7027] (0+5/5) Accurately ripped
04 [c7f76914|a9ecc5b6] (0+6/6) Accurately ripped
05 [4d61f53e|83a3c71c] (0+6/6) Accurately ripped
06 [68c2e96b|5f4611f0] (0+5/5) Accurately ripped

Track Peak [ CRC32 ] [W/O NULL] [ LOG ]
– 98,9 [E55AA72A] [9138A944]
01 98,7 [87D5D261] [59DE63DB] CRC32
02 98,5 [688B9D66] [F1B6F6AC] CRC32
03 98,2 [B1A7C1EF] [7C7D901A] CRC32
04 98,5 [BBD50D60] [77CBF62F] CRC32
05 98,5 [DDB7001C] [9A6D1DBF] CRC32
06 98,9 [1EFB3FAE] [F9708A93] CRC32

Thanks to DrStandBy

See also:
Gregorian - Masters Of Chant Chapter II (2001) [Japanese Edition]
Gregorian - The Dark Side (2004) [Special Rock Edition]
Gregorian - Masters Of Chant Chapter V (2006) [Japanese Edition]
Gregorian - Masters of Chant: ...ollection [5CD Box Set] (2017)