Tags
Language
Tags

Guns N' Roses - Appetite For Destruction (1987) [2018, 4CD + Blu-ray Super Deluxe Box Set]

Posted By: v3122
Guns N' Roses - Appetite For Destruction (1987) [2018, 4CD + Blu-ray Super Deluxe Box Set]

Guns N' Roses - Appetite For Destruction (1987)
EAC | Flac(Image) + Cue + Log & MP3 CBR 320Kbps
Universal Music, 6752375 | ~ 1623 or 510 Mb | Scans(jpg) -> 3.31 Gb
Blu-ray: MPEG-4 AVC 1080p, 23,976 fps, 16:9, High Profile 4.1
MPEG-4 AVC 480p, 23,976 fps, 16:9, High Profile 3.2
DTS-HD MA 5.1, 96 kHz, 24-bit / LPCM 2.0, 96 kHz, 24-bit
Dolby TrueHD Audio 5.1, 96 kHz, 8224 kbps, 24-bit -> 23.34 Gb
Hard Rock

The Appetite For Destruction: Super Deluxe Edition features 4CDs including the album newly remastered for the first time ever; B-sides N’ EPs newly remastered; the previously unreleased 1986 Sound City Session N’ More recordings; a Blu-ray Audio disc with the album, bonus tracks and music videos in brand new 5.1 surround sound along with the unearthed music video for “It’s So Easy” originally shot in 1989 but never finished; and a 96-page hardcover book showcasing unseen photos from Axl Rose’s personal archive and wealth of memorabilia. In addition, the Super Deluxe Edition contains collectables like never-before-seen band lithos, replica concert tickets, a wall poster, temporary band member tattoos , a Robert Williams painting litho, and a replica “Welcome To The Jungle” video shoot invite flyer originally drawn by Slash.

96-page Hardcover Book with Unreleased Photos from Axl’s Personal Archive and a Bombardment of Memorabilia
Simulated-Leather Wrapped Slipcase and Book Cover with Embossed GN’R Logos

4 CDs:
73 Total Tracks – 49 Tracks Previously Unreleased
First Ever Album Remaster from Original Analog Tapes
12 Tracks from B-SIDES N’ EPS Newly Remastered from Original Analog Tapes
25 Unreleased Recordings from 1986 SOUND CITY SESSION
2 Unreleased Recordings from Mike Clink Sessions:
“Shadow Of Your Love” – from December 1986 Mike Clink tryout session
“Move To The City (1988 Acoustic Version)” – from GN’R LIES sessions

1 Blu-ray Audio Disc:
New 96kHz 24-bit 5.1 Surround Sound Mixes from Original Analog Multi-tracks
Original Album Mixed by Elliot Scheiner
5 Bonus Tracks Mixed by Elliot Scheiner & Frank Filipetti
All songs feature brand new animations
4 Original Music Videos in 5.1
Unreleased 1989 “It’s So Easy” Video in 5.1

5 Previously Unseen Band Member Lithos
“Welcome To The Jungle” Video Invite Flyer – Originally Drawn by Slash
Robert Williams Painting Litho 12”x24”
Temporary Band Member Tattoos
3 Replica Ticket Stubs
1 Wall Poster 24”x36”

~ amazon
Guns N' Roses - Appetite For Destruction (1987) [2018, 4CD + Blu-ray Super Deluxe Box Set]

Guns N' Roses - Appetite For Destruction (1987):

Guns N' Roses - Appetite For Destruction (1987) [2018, 4CD + Blu-ray Super Deluxe Box Set]

Tracklist CD1 - Appetite For Destruction: Remastered:

01 Welcome To The Jungle
02 It's So Easy
03 Nightrain
04 Out Ta Get Me
05 Mr. Brownstone
06 Paradise City
07 My Michelle
08 Think About You
09 Sweet Child O' Mine
10 You're Crazy
11 Anything Goes
12 Rocket Queen

Exact Audio Copy V1.3 from 2. September 2016

EAC extraction logfile from 15. July 2018, 7:38

Guns N' Roses / Appetite For Destruction CD1

Used drive : PLEXTOR BD-R PX-B950SA Adapter: 1 ID: 1

Read mode : Secure
Utilize accurate stream : Yes
Defeat audio cache : Yes
Make use of C2 pointers : No

Read offset correction : 6
Overread into Lead-In and Lead-Out : No
Fill up missing offset samples with silence : Yes
Delete leading and trailing silent blocks : No
Null samples used in CRC calculations : Yes
Used interface : Native Win32 interface for Win NT & 2000

Used output format : Internal WAV Routines
Sample format : 44.100 Hz; 16 Bit; Stereo


TOC of the extracted CD

Track | Start | Length | Start sector | End sector
––––––––––––––––––––––––––––-
1 | 0:00.00 | 4:33.36 | 0 | 20510
2 | 4:33.36 | 3:22.52 | 20511 | 35712
3 | 7:56.13 | 4:28.16 | 35713 | 55828
4 | 12:24.29 | 4:23.43 | 55829 | 75596
5 | 16:47.72 | 3:48.44 | 75597 | 92740
6 | 20:36.41 | 6:45.45 | 92741 | 123160
7 | 27:22.11 | 3:39.70 | 123161 | 139655
8 | 31:02.06 | 3:51.42 | 139656 | 157022
9 | 34:53.48 | 5:56.05 | 157023 | 183727
10 | 40:49.53 | 3:17.01 | 183728 | 198503
11 | 44:06.54 | 3:26.13 | 198504 | 213966
12 | 47:32.67 | 6:13.20 | 213967 | 241961


Range status and errors

Selected range

Filename C:\Users\Alex\Desktop\ALLexxess\Guns N' Roses\1987 Appetite For Destruction (5-Disc Box Set Universal Music 2018)\CD1\Guns N' Roses - Appetite For Destruction CD1.wav

Peak level 100.0 %
Extraction speed 7.2 X
Range quality 100.0 %
Test CRC DEF04194
Copy CRC DEF04194
Copy OK

No errors occurred


AccurateRip summary

Track 1 accurately ripped (confidence 3) [6C30F5A1] (AR v2)
Track 2 accurately ripped (confidence 3) [351F1914] (AR v2)
Track 3 accurately ripped (confidence 3) [446590DA] (AR v2)
Track 4 accurately ripped (confidence 3) [411287D8] (AR v2)
Track 5 accurately ripped (confidence 3) [0760A210] (AR v2)
Track 6 accurately ripped (confidence 3) [3CA460FF] (AR v2)
Track 7 accurately ripped (confidence 3) [F7F5E6A3] (AR v2)
Track 8 accurately ripped (confidence 3) [0175354C] (AR v2)
Track 9 accurately ripped (confidence 3) [01C4C2D6] (AR v2)
Track 10 accurately ripped (confidence 3) [E959B73C] (AR v2)
Track 11 accurately ripped (confidence 3) [4E0B52EA] (AR v2)
Track 12 accurately ripped (confidence 3) [66A05942] (AR v2)

All tracks accurately ripped

End of status report

–– CUETools DB Plugin V2.1.6

[CTDB TOCID: dPh4r0PYpidUWoAyVQMRfLjaah8-] found
Submit result: dPh4r0PYpidUWoAyVQMRfLjaah8- has been confirmed
Track | CTDB Status
1 | (178/178) Accurately ripped
2 | (178/178) Accurately ripped
3 | (178/178) Accurately ripped
4 | (178/178) Accurately ripped
5 | (178/178) Accurately ripped
6 | (178/178) Accurately ripped
7 | (178/178) Accurately ripped
8 | (178/178) Accurately ripped
9 | (177/178) Accurately ripped
10 | (177/178) Accurately ripped
11 | (178/178) Accurately ripped
12 | (177/178) Accurately ripped


==== Log checksum 82BD078697A8DFB39BEDC020E5D7A53E8E122B473EA6A0B60C53053542F4B394 ====


[CUETools log; Date: 20.07.2018 0:31:42; Version: 2.1.5]
[CTDB TOCID: dPh4r0PYpidUWoAyVQMRfLjaah8-] found.
Track | CTDB Status
1 | (207/207) Accurately ripped
2 | (207/207) Accurately ripped
3 | (207/207) Accurately ripped
4 | (207/207) Accurately ripped
5 | (207/207) Accurately ripped
6 | (207/207) Accurately ripped
7 | (207/207) Accurately ripped
8 | (207/207) Accurately ripped
9 | (206/207) Accurately ripped
10 | (206/207) Accurately ripped
11 | (207/207) Accurately ripped
12 | (206/207) Accurately ripped
[AccurateRip ID: 00177958-00dc38a9-b10c9a0c] found.
Track [ CRC | V2 ] Status
01 [988b6fb1|6c30f5a1] (0+3/3) Accurately ripped
02 [e2a3f3d4|351f1914] (0+3/3) Accurately ripped
03 [d3092050|446590da] (0+3/3) Accurately ripped
04 [76902208|411287d8] (0+3/3) Accurately ripped
05 [35eccdfb|0760a210] (0+3/3) Accurately ripped
06 [8a7cf833|3ca460ff] (0+3/3) Accurately ripped
07 [d9114309|f7f5e6a3] (0+3/3) Accurately ripped
08 [b3019ac4|0175354c] (0+3/3) Accurately ripped
09 [ffc8c354|01c4c2d6] (0+3/3) Accurately ripped
10 [8a8e8040|e959b73c] (0+3/3) Accurately ripped
11 [dab5452d|4e0b52ea] (0+3/3) Accurately ripped
12 [e133421a|66a05942] (0+3/3) Accurately ripped

Track Peak [ CRC32 ] [W/O NULL] [ LOG ]
– 100,0 [DEF04194] [3F159F02] CRC32
01 99,7 [278D0F64] [5DE036F3]
02 98,4 [BF844587] [3C31BF92]
03 97,1 [7923DB0E] [95F5F6AE]
04 98,2 [827EB14C] [E7A752E2]
05 100,0 [9F0AEDAC] [29461DFC]
06 97,4 [822EDD9A] [1E4E21C7]
07 99,0 [008F2EED] [562C7432]
08 97,5 [A2A1013A] [47D8204F]
09 97,8 [E8A6C3D4] [F7F7D4D0]
10 97,6 [4D6DD983] [333E5011]
11 97,6 [3BC7EE09] [B3A6803C]
12 97,6 [B318E2E3] [38607C19]


Guns N' Roses - Appetite For Destruction (1987) [2018, 4CD + Blu-ray Super Deluxe Box Set]

Tracklist CD2 - B-Sides N’ EPs: Remastered:

01 Reckless Life
02 Nice Boys
03 Move To The City (Live)
04 Mama Kin
05 Shadow Of Your Love (Live)
09 You’re Crazy (Acoustic Version)
07 Patience
08 Used To Love Her
09 You’re Crazy
10 It’s So Easy (Live)
11 Knockin’ On Heaven’s Door (Live)
12 Whole Lotta Rosie (Live)

Exact Audio Copy V1.3 from 2. September 2016

EAC extraction logfile from 15. July 2018, 7:14

Guns N' Roses / Appetite For Destruction CD2

Used drive : PLEXTOR BD-R PX-B950SA Adapter: 1 ID: 1

Read mode : Secure
Utilize accurate stream : Yes
Defeat audio cache : Yes
Make use of C2 pointers : No

Read offset correction : 6
Overread into Lead-In and Lead-Out : No
Fill up missing offset samples with silence : Yes
Delete leading and trailing silent blocks : No
Null samples used in CRC calculations : Yes
Used interface : Native Win32 interface for Win NT & 2000

Used output format : Internal WAV Routines
Sample format : 44.100 Hz; 16 Bit; Stereo


TOC of the extracted CD

Track | Start | Length | Start sector | End sector
––––––––––––––––––––––––––––-
1 | 0:00.00 | 3:21.46 | 0 | 15120
2 | 3:21.46 | 3:02.44 | 15121 | 28814
3 | 6:24.15 | 3:34.18 | 28815 | 44882
4 | 9:58.33 | 3:41.13 | 44883 | 61470
5 | 13:39.46 | 3:03.51 | 61471 | 75246
6 | 16:43.22 | 4:25.52 | 75247 | 95173
7 | 21:08.74 | 5:54.66 | 95174 | 121789
8 | 27:03.65 | 3:12.50 | 121790 | 136239
9 | 30:16.40 | 4:10.34 | 136240 | 155023
10 | 34:26.74 | 3:54.26 | 155024 | 172599
11 | 38:21.25 | 4:59.32 | 172600 | 195056
12 | 43:20.57 | 4:06.19 | 195057 | 213525


Range status and errors

Selected range

Filename C:\Users\Alex\Desktop\ALLexxess\Guns N' Roses\1987 Appetite For Destruction (5-Disc Box Set Universal Music 2018)\CD2\Guns N' Roses - Appetite For Destruction CD2.wav

Peak level 100.0 %
Extraction speed 7.0 X
Range quality 100.0 %
Test CRC 1CB5F68A
Copy CRC 1CB5F68A
Copy OK

No errors occurred


AccurateRip summary

Track 1 accurately ripped (confidence 1) [088A288B] (AR v2)
Track 2 accurately ripped (confidence 1) [44AC64C9] (AR v2)
Track 3 accurately ripped (confidence 1) [66CB0A69] (AR v2)
Track 4 accurately ripped (confidence 1) [5451CECF] (AR v2)
Track 5 accurately ripped (confidence 1) [5975F8AF] (AR v2)
Track 6 accurately ripped (confidence 1) [8E4C9062] (AR v2)
Track 7 accurately ripped (confidence 1) [E27184B6] (AR v2)
Track 8 accurately ripped (confidence 1) [5F7A6547] (AR v2)
Track 9 accurately ripped (confidence 1) [435A3701] (AR v2)
Track 10 accurately ripped (confidence 1) [328D67C4] (AR v2)
Track 11 accurately ripped (confidence 1) [DF71BC74] (AR v2)
Track 12 accurately ripped (confidence 1) [99A52022] (AR v2)

All tracks accurately ripped

End of status report

–– CUETools DB Plugin V2.1.6

[CTDB TOCID: lpyigolVWuUebZHTACSIdFD_O0I-] found
Submit result: lpyigolVWuUebZHTACSIdFD_O0I- has been confirmed
Track | CTDB Status
1 | (41/41) Accurately ripped
2 | (41/41) Accurately ripped
3 | (41/41) Accurately ripped
4 | (41/41) Accurately ripped
5 | (41/41) Accurately ripped
6 | (41/41) Accurately ripped
7 | (41/41) Accurately ripped
8 | (41/41) Accurately ripped
9 | (41/41) Accurately ripped
10 | (41/41) Accurately ripped
11 | (41/41) Accurately ripped
12 | (41/41) Accurately ripped


==== Log checksum 4410E781754AA0EF16CD8A88F0EAED5EEF5A9701B0737280A4893C9C34D063F5 ====


[CUETools log; Date: 20.07.2018 0:32:14; Version: 2.1.5]
[CTDB TOCID: lpyigolVWuUebZHTACSIdFD_O0I-] found.
Track | CTDB Status
1 | (48/48) Accurately ripped
2 | (48/48) Accurately ripped
3 | (48/48) Accurately ripped
4 | (48/48) Accurately ripped
5 | (48/48) Accurately ripped
6 | (48/48) Accurately ripped
7 | (48/48) Accurately ripped
8 | (48/48) Accurately ripped
9 | (48/48) Accurately ripped
10 | (48/48) Accurately ripped
11 | (48/48) Accurately ripped
12 | (48/48) Accurately ripped
[AccurateRip ID: 00141084-00be89cd-7b0b1f0c] found.
Track [ CRC | V2 ] Status
01 [9276e6f6|088a288b] (0+1/1) Accurately ripped
02 [ab983831|44ac64c9] (0+1/1) Accurately ripped
03 [f8bf8aec|66cb0a69] (0+1/1) Accurately ripped
04 [bd9ebe21|5451cecf] (0+1/1) Accurately ripped
05 [83bd3ca9|5975f8af] (0+1/1) Accurately ripped
06 [a5379a11|8e4c9062] (0+1/1) Accurately ripped
07 [bb4667e0|e27184b6] (0+1/1) Accurately ripped
08 [d5b365ce|5f7a6547] (0+1/1) Accurately ripped
09 [dc7aa9b9|435a3701] (0+1/1) Accurately ripped
10 [b1c184dd|328d67c4] (0+1/1) Accurately ripped
11 [bb9aa906|df71bc74] (0+1/1) Accurately ripped
12 [6ad060e8|99a52022] (0+1/1) Accurately ripped

Track Peak [ CRC32 ] [W/O NULL] [ LOG ]
– 100,0 [1CB5F68A] [1B6296DA] CRC32
01 96,9 [EF1F53B7] [DFB4A5D8]
02 97,3 [FB6826AB] [85239543]
03 96,8 [72692303] [AF32D7B0]
04 96,5 [F1EA037F] [476DD67E]
05 96,7 [E4F89A4C] [561ADB5C]
06 100,0 [3D5339A8] [0390CD9A]
07 98,5 [E8B4E071] [AD211EBC]
08 97,9 [545FE314] [145201D2]
09 98,1 [EA5D982B] [5A6DACF4]
10 96,7 [BDD74893] [15772BE5]
11 97,0 [62800F03] [1931CB56]
12 96,9 [4FA8BC57] [11B82A04]


Guns N' Roses - Appetite For Destruction (1987) [2018, 4CD + Blu-ray Super Deluxe Box Set]

Tracklist CD3 - 1986 Sound City Session:

01 Welcome To The Jungle
02 Nightrain
03 Out Ta Get Me
04 Paradise City
05 My Michelle
06 Think About You
07 You’re Crazy
08 Anything Goes
09 Rocket Queen
10 Shadow Of Your Love
11 Heartbreak Hotel
12 Jumpin’ Jack Flash

Exact Audio Copy V1.3 from 2. September 2016

EAC extraction logfile from 15. July 2018, 6:50

Guns N' Roses / Appetite For Destruction CD3

Used drive : PLEXTOR BD-R PX-B950SA Adapter: 1 ID: 1

Read mode : Secure
Utilize accurate stream : Yes
Defeat audio cache : Yes
Make use of C2 pointers : No

Read offset correction : 6
Overread into Lead-In and Lead-Out : No
Fill up missing offset samples with silence : Yes
Delete leading and trailing silent blocks : No
Null samples used in CRC calculations : Yes
Used interface : Native Win32 interface for Win NT & 2000

Used output format : Internal WAV Routines
Sample format : 44.100 Hz; 16 Bit; Stereo


TOC of the extracted CD

Track | Start | Length | Start sector | End sector
––––––––––––––––––––––––––––-
1 | 0:00.00 | 4:59.56 | 0 | 22480
2 | 4:59.56 | 4:49.55 | 22481 | 44210
3 | 9:49.36 | 4:01.24 | 44211 | 62309
4 | 13:50.60 | 5:34.27 | 62310 | 87386
5 | 19:25.12 | 4:21.00 | 87387 | 106961
6 | 23:46.12 | 3:50.20 | 106962 | 124231
7 | 27:36.32 | 3:21.63 | 124232 | 139369
8 | 30:58.20 | 4:35.14 | 139370 | 160008
9 | 35:33.34 | 6:06.20 | 160009 | 187478
10 | 41:39.54 | 2:38.42 | 187479 | 199370
11 | 44:18.21 | 4:36.28 | 199371 | 220098
12 | 48:54.49 | 3:21.04 | 220099 | 235177


Range status and errors

Selected range

Filename C:\Users\Alex\Desktop\ALLexxess\Guns N' Roses\1987 Appetite For Destruction (5-Disc Box Set Universal Music 2018)\CD3\Guns N' Roses - Appetite For Destruction CD3.wav

Peak level 100.0 %
Extraction speed 7.0 X
Range quality 99.9 %
Test CRC 30243E50
Copy CRC 30243E50
Copy OK

No errors occurred


AccurateRip summary

Track 1 accurately ripped (confidence 1) [9F5738CC] (AR v2)
Track 2 accurately ripped (confidence 1) [0DCA4CFF] (AR v2)
Track 3 accurately ripped (confidence 1) [D4F29AE4] (AR v2)
Track 4 accurately ripped (confidence 1) [518C8850] (AR v2)
Track 5 accurately ripped (confidence 1) [D1D29178] (AR v2)
Track 6 accurately ripped (confidence 1) [9C5ECE40] (AR v2)
Track 7 accurately ripped (confidence 1) [4FB70EE0] (AR v2)
Track 8 accurately ripped (confidence 1) [FC0F18E4] (AR v2)
Track 9 accurately ripped (confidence 1) [6730F0CA] (AR v2)
Track 10 accurately ripped (confidence 1) [52615783] (AR v2)
Track 11 accurately ripped (confidence 1) [736BD657] (AR v2)
Track 12 accurately ripped (confidence 1) [B13D9245] (AR v2)

All tracks accurately ripped

End of status report

–– CUETools DB Plugin V2.1.6

[CTDB TOCID: dpqiAMOMfHqhx2eJOxDGyU63HbM-] found
Submit result: dpqiAMOMfHqhx2eJOxDGyU63HbM- has been confirmed
Track | CTDB Status
1 | (40/40) Accurately ripped
2 | (40/40) Accurately ripped
3 | (40/40) Accurately ripped
4 | (40/40) Accurately ripped
5 | (40/40) Accurately ripped
6 | (40/40) Accurately ripped
7 | (40/40) Accurately ripped
8 | (40/40) Accurately ripped
9 | (40/40) Accurately ripped
10 | (40/40) Accurately ripped
11 | (40/40) Accurately ripped
12 | (40/40) Accurately ripped


==== Log checksum F8D2BAF485C389BEE91FD1D8117EDB6BB6EF30FBD7631932AC5F1E72B4A8B6E1 ====


[CUETools log; Date: 20.07.2018 0:32:44; Version: 2.1.5]
[CTDB TOCID: dpqiAMOMfHqhx2eJOxDGyU63HbM-] found.
Track | CTDB Status
1 | (48/48) Accurately ripped
2 | (48/48) Accurately ripped
3 | (48/48) Accurately ripped
4 | (48/48) Accurately ripped
5 | (48/48) Accurately ripped
6 | (48/48) Accurately ripped
7 | (48/48) Accurately ripped
8 | (48/48) Accurately ripped
9 | (48/48) Accurately ripped
10 | (48/48) Accurately ripped
11 | (48/48) Accurately ripped
12 | (48/48) Accurately ripped
[AccurateRip ID: 00183f61-00e04085-980c3f0c] found.
Track [ CRC | V2 ] Status
01 [d89dfa32|9f5738cc] (0+1/1) Accurately ripped
02 [a32a3c05|0dca4cff] (0+1/1) Accurately ripped
03 [5e4b2da0|d4f29ae4] (0+1/1) Accurately ripped
04 [85dd9603|518c8850] (0+1/1) Accurately ripped
05 [76e65be6|d1d29178] (0+1/1) Accurately ripped
06 [3d3a8d25|9c5ece40] (0+1/1) Accurately ripped
07 [fd3675fb|4fb70ee0] (0+1/1) Accurately ripped
08 [d5089913|fc0f18e4] (0+1/1) Accurately ripped
09 [d7c934ba|6730f0ca] (0+1/1) Accurately ripped
10 [5e77d561|52615783] (0+1/1) Accurately ripped
11 [95a03850|736bd657] (0+1/1) Accurately ripped
12 [621ac4cb|b13d9245] (0+1/1) Accurately ripped

Track Peak [ CRC32 ] [W/O NULL] [ LOG ]
– 100,0 [30243E50] [A4311BCD] CRC32
01 100,0 [84AF3861] [7C457519]
02 100,0 [BB02688B] [B8D4E559]
03 98,6 [7ECC67A3] [9FEDD35E]
04 100,0 [F5F932FE] [ABBC0A5F]
05 98,8 [56098DE0] [5D97EC9A]
06 100,0 [F834D9E8] [9B3C6408]
07 98,3 [1D2D6711] [52AC47E4]
08 100,0 [24F62812] [6D0F7FA1]
09 99,0 [4DB6B31E] [0F9CF691]
10 100,0 [B1DD3644] [2815E0C3]
11 99,7 [BDB53A09] [9A71399A]
12 98,9 [4EFA52B4] [F5071490]


Guns N' Roses - Appetite For Destruction (1987) [2018, 4CD + Blu-ray Super Deluxe Box Set]

Tracklist CD4 - 1986 Sound City Session More:

01 Shadow Of Your Love
02 Move To The City
03 Ain’t Goin’ Down No More (Instrumental Version)
04 The Plague
05 Nice Boys
07 Back Off Bitch
08 Reckless Life
09 Mama Kin
10 New Work Tune
11 November Rain (Piano Version)
12 Move To The City (Acoustic Version)
13 You’re Crazy (Acoustic Version)
14 November Rain (Acoustic Version)
15 Jumpin’ Jack Flash (Acoustic Version)
16 Move To The City (1988 Acoustic Version)

Exact Audio Copy V1.3 from 2. September 2016

EAC extraction logfile from 15. July 2018, 6:16

Guns N' Roses / Appetite For Destruction CD4

Used drive : PLEXTOR BD-R PX-B950SA Adapter: 1 ID: 1

Read mode : Secure
Utilize accurate stream : Yes
Defeat audio cache : Yes
Make use of C2 pointers : No

Read offset correction : 6
Overread into Lead-In and Lead-Out : No
Fill up missing offset samples with silence : Yes
Delete leading and trailing silent blocks : No
Null samples used in CRC calculations : Yes
Used interface : Native Win32 interface for Win NT & 2000

Used output format : Internal WAV Routines
Sample format : 44.100 Hz; 16 Bit; Stereo


TOC of the extracted CD

Track | Start | Length | Start sector | End sector
––––––––––––––––––––––––––––-
1 | 0:00.00 | 3:05.43 | 0 | 13917
2 | 3:05.43 | 3:16.45 | 13918 | 28662
3 | 6:22.13 | 3:30.50 | 28663 | 44462
4 | 9:52.63 | 0:54.18 | 44463 | 48530
5 | 10:47.06 | 2:58.14 | 48531 | 61894
6 | 13:45.20 | 4:39.57 | 61895 | 82876
7 | 18:25.02 | 2:45.67 | 82877 | 95318
8 | 21:10.69 | 3:26.34 | 95319 | 110802
9 | 24:37.28 | 3:25.41 | 110803 | 126218
10 | 28:02.69 | 10:18.22 | 126219 | 172590
11 | 38:21.16 | 3:41.66 | 172591 | 189231
12 | 42:03.07 | 4:06.20 | 189232 | 207701
13 | 46:09.27 | 5:00.44 | 207702 | 230245
14 | 51:09.71 | 3:52.63 | 230246 | 247708
15 | 55:02.59 | 3:26.59 | 247709 | 263217


Range status and errors

Selected range

Filename C:\Users\Alex\Desktop\ ALLexxess\Guns N' Roses\1987 Appetite For Destruction (5-Disc Box Set Universal Music 2018)\CD4\Guns N' Roses - Appetite For Destruction CD4.wav

Peak level 100.0 %
Extraction speed 7.3 X
Range quality 99.9 %
Test CRC A2D26B72
Copy CRC A2D26B72
Copy OK

No errors occurred


AccurateRip summary

Track 1 accurately ripped (confidence 1) [A3B83138] (AR v2)
Track 2 accurately ripped (confidence 1) [64704CD1] (AR v2)
Track 3 accurately ripped (confidence 1) [05318207] (AR v2)
Track 4 accurately ripped (confidence 1) [E7AD6B5F] (AR v2)
Track 5 accurately ripped (confidence 1) [C9F4FA69] (AR v2)
Track 6 accurately ripped (confidence 1) [EF6988F0] (AR v2)
Track 7 accurately ripped (confidence 1) [FABB65CC] (AR v2)
Track 8 accurately ripped (confidence 1) [41C5200F] (AR v2)
Track 9 accurately ripped (confidence 1) [40D60FD2] (AR v2)
Track 10 accurately ripped (confidence 1) [A1ADD6B8] (AR v2)
Track 11 accurately ripped (confidence 1) [2AE5AA6D] (AR v2)
Track 12 accurately ripped (confidence 1) [6CA971FA] (AR v2)
Track 13 accurately ripped (confidence 1) [0BA3E0FE] (AR v2)
Track 14 accurately ripped (confidence 1) [0DBEA6FB] (AR v2)
Track 15 accurately ripped (confidence 1) [7837A893] (AR v2)

All tracks accurately ripped

End of status report

–– CUETools DB Plugin V2.1.6

[CTDB TOCID: pHjqdvywpbJDC45.jMx_CqdTSNI-] found
Submit result: pHjqdvywpbJDC45.jMx_CqdTSNI- has been confirmed
Track | CTDB Status
1 | (38/38) Accurately ripped
2 | (38/38) Accurately ripped
3 | (38/38) Accurately ripped
4 | (38/38) Accurately ripped
5 | (38/38) Accurately ripped
6 | (38/38) Accurately ripped
7 | (38/38) Accurately ripped
8 | (38/38) Accurately ripped
9 | (38/38) Accurately ripped
10 | (38/38) Accurately ripped
11 | (38/38) Accurately ripped
12 | (38/38) Accurately ripped
13 | (36/38) Accurately ripped
14 | (38/38) Accurately ripped
15 | (37/38) Accurately ripped


==== Log checksum D207969D83B672BC97F166D993F4D8088D99FE74A2BC9490DAE0C5D10B993C59 ====


[CUETools log; Date: 20.07.2018 0:33:14; Version: 2.1.5]
[CTDB TOCID: pHjqdvywpbJDC45.jMx_CqdTSNI-] found.
Track | CTDB Status
1 | (45/45) Accurately ripped
2 | (45/45) Accurately ripped
3 | (45/45) Accurately ripped
4 | (45/45) Accurately ripped
5 | (45/45) Accurately ripped
6 | (45/45) Accurately ripped
7 | (45/45) Accurately ripped
8 | (45/45) Accurately ripped
9 | (45/45) Accurately ripped
10 | (45/45) Accurately ripped
11 | (45/45) Accurately ripped
12 | (45/45) Accurately ripped
13 | (43/45) Accurately ripped
14 | (45/45) Accurately ripped
15 | (44/45) Accurately ripped
[AccurateRip ID: 001d593a-0157bf2d-d00db50f] found.
Track [ CRC | V2 ] Status
01 [38f6ee6d|a3b83138] (0+1/1) Accurately ripped
02 [47645cfc|64704cd1] (0+1/1) Accurately ripped
03 [12cb0e47|05318207] (0+1/1) Accurately ripped
04 [50f0ee18|e7ad6b5f] (0+1/1) Accurately ripped
05 [858f1d62|c9f4fa69] (0+1/1) Accurately ripped
06 [0a252be5|ef6988f0] (0+1/1) Accurately ripped
07 [5621b7e7|fabb65cc] (0+1/1) Accurately ripped
08 [33da2573|41c5200f] (0+1/1) Accurately ripped
09 [4bb6acd3|40d60fd2] (0+1/1) Accurately ripped
10 [0ce54de7|a1add6b8] (0+1/1) Accurately ripped
11 [4700f013|2ae5aa6d] (0+1/1) Accurately ripped
12 [80ac82da|6ca971fa] (0+1/1) Accurately ripped
13 [840b2b28|0ba3e0fe] (0+1/1) Accurately ripped
14 [ff8d301c|0dbea6fb] (0+1/1) Accurately ripped
15 [1ed77aeb|7837a893] (0+1/1) Accurately ripped

Track Peak [ CRC32 ] [W/O NULL] [ LOG ]
– 100,0 [A2D26B72] [4DEB3177] CRC32
01 100,0 [F9140D7C] [50CEA108]
02 99,6 [FE578D62] [BF875F6C]
03 100,0 [4E660A21] [0B5C4E70]
04 96,8 [9FCE7BCA] [C550923A]
05 100,0 [F08EF5EB] [532E63BE]
06 100,0 [DAE49587] [14FBBFCD]
07 100,0 [3B92C4D2] [C81EE7DD]
08 100,0 [5167CA6B] [C40885FD]
09 100,0 [D1E5DFFB] [B0009995]
10 96,6 [03157B6F] [0F2BEE5D]
11 97,8 [3B80CA40] [6C6CFA25]
12 100,0 [8F87966F] [349D3AEC]
13 97,7 [F082F156] [1486EC45]
14 100,0 [FC8A29BC] [D9472BFE]
15 100,0 [836BF4B5] [070A1314]


Guns N' Roses - Appetite For Destruction (1987) [2018, 4CD + Blu-ray Super Deluxe Box Set]

Tracklist BD:

01 Welcome To The Jungle
02 It‘s So Easy
03 Nightrain
04 Out Ta Get Me
05 Mr Brownstone
06 Paradise City
07 My Michelle
08 Think About You
09 Sweet Child O‘ Mine
10 You‘re Crazy
11 Anything Goes
12 Rocket Queen
13 Shadow Of Your Love (Bonus Track)
14 Patience (Bonus Track)
15 Used To Love Her (Bonus Track)
16 You‘re Crazy (Bonus Track)
17 Move To The City (1988 Acoustic Version) (Bonus Track)
18 Welcome To The Jungle (Music Video)
19 Sweet Child O‘Mine (Music Video)
20 Paradise City (Music Video)
21 Patience (Music Video)
22 It‘s So Easy - BRAND NEW VIDEO FROM 1989

New 96kHz 24-bit 5.1 Surround Sound Mixes from Original Analog Multi-tracks
Original Album Mixed by Elliot Scheiner
5 Bonus Tracks Mixed by Elliot Scheiner & Frank Filipetti
All songs feature brand new animations
4 Original Music Videos in 5.1
Unreleased 1989 “It’s So Easy” Video in 5.1


Disc Title: Guns N' Roses
Disc Size: 23 887 810 725 bytes
Protection: AACS
BD-Java: Yes
BDInfo: 0.5.8

Notes:

BDINFO HOME:
Cinema Squid
http://www.cinemasquid.com/blu-ray/tools/bdinfo

INCLUDES FORUMS REPORT FOR:
AVS Forum Blu-ray Audio and Video Specifications Thread
http://www.avsforum.com/avs-vb/showthread.php?t=1155731

WARNING: Report is incomplete because: Scan has not been run.

********************
PLAYLIST: 00002.MPLS
********************

<–- BEGIN FORUMS PASTE –->
                                                                                                                Total   Video                                             
Title                                                           Codec   Length  Movie Size      Disc Size       Bitrate Bitrate Main Audio Track                          Secondary Audio Track
-----                                                           ------  ------- --------------  --------------  ------- ------- ------------------                        ---------------------
00002.MPLS                                                      AVC     0:53:39 0               23 887 810 725  0,00    0,00    DTS-HD Master 5.1 (96kHz/24-bit)          Dolby TrueHD 5.1 (96kHz/24-bit)


DISC INFO:

Disc Title:     Guns N' Roses
Disc Size:      23 887 810 725 bytes
Protection:     AACS
BD-Java:        Yes
BDInfo:         0.5.8

PLAYLIST REPORT:

Name:                   00002.MPLS
Length:                 0:53:39.674 (h:m:s.ms)
Size:                   0 bytes
Total Bitrate:          0,00 Mbps

VIDEO:

Codec                   Bitrate             Description     
-----                   -------             -----------     
MPEG-4 AVC Video        0 kbps              1080p / 23,976 fps / 16:9 / High Profile 4.1
MPEG-4 AVC Video        0 kbps              480p / 23,976 fps / 16:9 / High Profile 3.2

AUDIO:

Codec                           Language        Bitrate         Description     
-----                           --------        -------         -----------     
DTS-HD Master Audio             English         0 kbps          5.1 / 96 kHz / 24-bit (DTS Core: 6.1 / 48 kHz / 1509 kbps / 24-bit)
Dolby TrueHD Audio              English         0 kbps          5.1 / 96 kHz / 24-bit (AC3 Embedded: 5.1 / 48 kHz / 640 kbps)
LPCM Audio                      English         4608 kbps       2.0 / 96 kHz / 4608 kbps / 24-bit

FILES:

Name            Time In         Length          Size            Total Bitrate   
----            -------         ------          ----            -------------   
00002.M2TS      0:00:00.000     0:53:39.674     0               0               

CHAPTERS:

Number          Time In         Length          Avg Video Rate  Max 1-Sec Rate  Max 1-Sec Time  Max 5-Sec Rate  Max 5-Sec Time  Max 10Sec Rate  Max 10Sec Time  Avg Frame Size  Max Frame Size  Max Frame Time  
------          -------         ------          --------------  --------------  --------------  --------------  --------------  --------------  --------------  --------------  --------------  --------------  
1               0:00:00.000     0:53:39.674     0 kbps          0 kbps          00:00:00.000    0 kbps          00:00:00.000    0 kbps          00:00:00.000    0 bytes         0 bytes         00:00:00.000    

STREAM DIAGNOSTICS:

File            PID             Type            Codec           Language                Seconds                 Bitrate                 Bytes           Packets         
----            ---             ----            -----           --------                --------------          --------------          -------------   -----           
00002.M2TS      4113 (0x1011)   0x1B            AVC                                     0,709                   0                       0               0               
00002.M2TS      4352 (0x1100)   0x86            DTS-HD MA       eng (English)           0,709                   0                       0               0               
00002.M2TS      4353 (0x1101)   0x83            TrueHD          eng (English)           0,709                   0                       0               0               
00002.M2TS      4354 (0x1102)   0x80            LPCM            eng (English)           0,709                   0                       0               0               
00002.M2TS      6912 (0x1B00)   0x1B            AVC                                     0,709                   0                       0               0               

<–– END FORUMS PASTE ––>

QUICK SUMMARY:

Disc Title: Guns N' Roses
Disc Size: 23 887 810 725 bytes
Protection: AACS
BD-Java: Yes
Playlist: 00002.MPLS
Size: 0 bytes
Length: 0:53:39.674
Total Bitrate: 0,00 Mbps
Video: MPEG-4 AVC Video / 0 kbps / 1080p / 23,976 fps / 16:9 / High Profile 4.1
Video: MPEG-4 AVC Video / 0 kbps / 480p / 23,976 fps / 16:9 / High Profile 3.2
Audio: English / DTS-HD Master Audio / 5.1 / 96 kHz / 24-bit (DTS Core: 6.1 / 48 kHz / 1509 kbps / 24-bit)
Audio: English / Dolby TrueHD Audio / 5.1 / 96 kHz / 24-bit (AC3 Embedded: 5.1 / 48 kHz / 640 kbps)
Audio: English / LPCM Audio / 2.0 / 96 kHz / 4608 kbps / 24-bit


********************
PLAYLIST: 01002.MPLS
********************

<–- BEGIN FORUMS PASTE –->
                                                                                                                Total   Video                                             
Title                                                           Codec   Length  Movie Size      Disc Size       Bitrate Bitrate Main Audio Track                          Secondary Audio Track
-----                                                           ------  ------- --------------  --------------  ------- ------- ------------------                        ---------------------
01002.MPLS                                                      AVC     0:53:39 0               23 887 810 725  0,00    0,00    DTS-HD Master 5.1 (96kHz/24-bit)          Dolby TrueHD 5.1 (96kHz/24-bit)


DISC INFO:

Disc Title:     Guns N' Roses
Disc Size:      23 887 810 725 bytes
Protection:     AACS
BD-Java:        Yes
BDInfo:         0.5.8

PLAYLIST REPORT:

Name:                   01002.MPLS
Length:                 0:53:39.674 (h:m:s.ms)
Size:                   0 bytes
Total Bitrate:          0,00 Mbps

VIDEO:

Codec                   Bitrate             Description     
-----                   -------             -----------     
MPEG-4 AVC Video        0 kbps              1080p / 23,976 fps / 16:9 / High Profile 4.1
MPEG-4 AVC Video        0 kbps              480p / 23,976 fps / 16:9 / High Profile 3.2

AUDIO:

Codec                           Language        Bitrate         Description     
-----                           --------        -------         -----------     
DTS-HD Master Audio             English         0 kbps          5.1 / 96 kHz / 24-bit (DTS Core: 6.1 / 48 kHz / 1509 kbps / 24-bit)
Dolby TrueHD Audio              English         0 kbps          5.1 / 96 kHz / 24-bit (AC3 Embedded: 5.1 / 48 kHz / 640 kbps)
LPCM Audio                      English         4608 kbps       2.0 / 96 kHz / 4608 kbps / 24-bit

FILES:

Name            Time In         Length          Size            Total Bitrate   
----            -------         ------          ----            -------------   
00002.M2TS      0:00:00.000     0:53:39.674     0               0               

CHAPTERS:

Number          Time In         Length          Avg Video Rate  Max 1-Sec Rate  Max 1-Sec Time  Max 5-Sec Rate  Max 5-Sec Time  Max 10Sec Rate  Max 10Sec Time  Avg Frame Size  Max Frame Size  Max Frame Time  
------          -------         ------          --------------  --------------  --------------  --------------  --------------  --------------  --------------  --------------  --------------  --------------  
1               0:00:00.000     0:04:34.315     0 kbps          0 kbps          00:00:00.000    0 kbps          00:00:00.000    0 kbps          00:00:00.000    0 bytes         0 bytes         00:00:00.000    
2               0:04:34.315     0:03:20.533     0 kbps          0 kbps          00:00:00.000    0 kbps          00:00:00.000    0 kbps          00:00:00.000    0 bytes         0 bytes         00:00:00.000    
3               0:07:54.849     0:04:25.974     0 kbps          0 kbps          00:00:00.000    0 kbps          00:00:00.000    0 kbps          00:00:00.000    0 bytes         0 bytes         00:00:00.000    
4               0:12:20.823     0:04:18.174     0 kbps          0 kbps          00:00:00.000    0 kbps          00:00:00.000    0 kbps          00:00:00.000    0 bytes         0 bytes         00:00:00.000    
5               0:16:38.998     0:03:50.730     0 kbps          0 kbps          00:00:00.000    0 kbps          00:00:00.000    0 kbps          00:00:00.000    0 bytes         0 bytes         00:00:00.000    
6               0:20:29.728     0:06:45.404     0 kbps          0 kbps          00:00:00.000    0 kbps          00:00:00.000    0 kbps          00:00:00.000    0 bytes         0 bytes         00:00:00.000    
7               0:27:15.133     0:03:39.135     0 kbps          0 kbps          00:00:00.000    0 kbps          00:00:00.000    0 kbps          00:00:00.000    0 bytes         0 bytes         00:00:00.000    
8               0:30:54.269     0:03:49.938     0 kbps          0 kbps          00:00:00.000    0 kbps          00:00:00.000    0 kbps          00:00:00.000    0 bytes         0 bytes         00:00:00.000    
9               0:34:44.207     0:05:56.606     0 kbps          0 kbps          00:00:00.000    0 kbps          00:00:00.000    0 kbps          00:00:00.000    0 bytes         0 bytes         00:00:00.000    
10              0:40:40.813     0:03:16.487     0 kbps          0 kbps          00:00:00.000    0 kbps          00:00:00.000    0 kbps          00:00:00.000    0 bytes         0 bytes         00:00:00.000    
11              0:43:57.301     0:03:26.372     0 kbps          0 kbps          00:00:00.000    0 kbps          00:00:00.000    0 kbps          00:00:00.000    0 bytes         0 bytes         00:00:00.000    
12              0:47:23.674     0:06:14.540     0 kbps          0 kbps          00:00:00.000    0 kbps          00:00:00.000    0 kbps          00:00:00.000    0 bytes         0 bytes         00:00:00.000    
13              0:53:38.214     0:00:01.459     0 kbps          0 kbps          00:00:00.000    0 kbps          00:00:00.000    0 kbps          00:00:00.000    0 bytes         0 bytes         00:00:00.000    

STREAM DIAGNOSTICS:

File            PID             Type            Codec           Language                Seconds                 Bitrate                 Bytes           Packets         
----            ---             ----            -----           --------                --------------          --------------          -------------   -----           
00002.M2TS      4113 (0x1011)   0x1B            AVC                                     0,709                   0                       0               0               
00002.M2TS      4352 (0x1100)   0x86            DTS-HD MA       eng (English)           0,709                   0                       0               0               
00002.M2TS      4353 (0x1101)   0x83            TrueHD          eng (English)           0,709                   0                       0               0               
00002.M2TS      4354 (0x1102)   0x80            LPCM            eng (English)           0,709                   0                       0               0               
00002.M2TS      6912 (0x1B00)   0x1B            AVC                                     0,709                   0                       0               0               

<–– END FORUMS PASTE ––>

QUICK SUMMARY:

Disc Title: Guns N' Roses
Disc Size: 23 887 810 725 bytes
Protection: AACS
BD-Java: Yes
Playlist: 01002.MPLS
Size: 0 bytes
Length: 0:53:39.674
Total Bitrate: 0,00 Mbps
Video: MPEG-4 AVC Video / 0 kbps / 1080p / 23,976 fps / 16:9 / High Profile 4.1
Video: MPEG-4 AVC Video / 0 kbps / 480p / 23,976 fps / 16:9 / High Profile 3.2
Audio: English / DTS-HD Master Audio / 5.1 / 96 kHz / 24-bit (DTS Core: 6.1 / 48 kHz / 1509 kbps / 24-bit)
Audio: English / Dolby TrueHD Audio / 5.1 / 96 kHz / 24-bit (AC3 Embedded: 5.1 / 48 kHz / 640 kbps)
Audio: English / LPCM Audio / 2.0 / 96 kHz / 4608 kbps / 24-bit


********************
PLAYLIST: 00004.MPLS
********************

<–- BEGIN FORUMS PASTE –->
                                                                                                                Total   Video                                             
Title                                                           Codec   Length  Movie Size      Disc Size       Bitrate Bitrate Main Audio Track                          Secondary Audio Track
-----                                                           ------  ------- --------------  --------------  ------- ------- ------------------                        ---------------------
00004.MPLS                                                      AVC     0:22:40 0               23 887 810 725  0,00    0,00    DTS-HD Master 5.1 (96kHz/24-bit)          


DISC INFO:

Disc Title:     Guns N' Roses
Disc Size:      23 887 810 725 bytes
Protection:     AACS
BD-Java:        Yes
BDInfo:         0.5.8

PLAYLIST REPORT:

Name:                   00004.MPLS
Length:                 0:22:40.826 (h:m:s.ms)
Size:                   0 bytes
Total Bitrate:          0,00 Mbps

VIDEO:

Codec                   Bitrate             Description     
-----                   -------             -----------     
MPEG-4 AVC Video        0 kbps              480i / 29,970 fps / 16:9 / High Profile 4.1

AUDIO:

Codec                           Language        Bitrate         Description     
-----                           --------        -------         -----------     
DTS-HD Master Audio             Undetermined    0 kbps          5.1 / 96 kHz / 24-bit (DTS Core: 6.1 / 48 kHz / 1509 kbps / 24-bit)
Dolby TrueHD Audio              English         0 kbps          5.1 / 96 kHz / 24-bit (AC3 Embedded: 5.1 / 48 kHz / 640 kbps)
LPCM Audio                      English         4608 kbps       2.0 / 96 kHz / 4608 kbps / 24-bit

FILES:

Name            Time In         Length          Size            Total Bitrate   
----            -------         ------          ----            -------------   
00004.M2TS      0:00:00.000     0:22:40.826     0               0               

CHAPTERS:

Number          Time In         Length          Avg Video Rate  Max 1-Sec Rate  Max 1-Sec Time  Max 5-Sec Rate  Max 5-Sec Time  Max 10Sec Rate  Max 10Sec Time  Avg Frame Size  Max Frame Size  Max Frame Time  
------          -------         ------          --------------  --------------  --------------  --------------  --------------  --------------  --------------  --------------  --------------  --------------  
1               0:00:00.000     0:22:40.826     0 kbps          0 kbps          00:00:00.000    0 kbps          00:00:00.000    0 kbps          00:00:00.000    0 bytes         0 bytes         00:00:00.000    

STREAM DIAGNOSTICS:

File            PID             Type            Codec           Language                Seconds                 Bitrate                 Bytes           Packets         
----            ---             ----            -----           --------                --------------          --------------          -------------   -----           
00004.M2TS      4113 (0x1011)   0x1B            AVC                                     0,701                   0                       0               0               
00004.M2TS      4352 (0x1100)   0x86            DTS-HD MA       und (Undetermined)      0,701                   0                       0               0               
00004.M2TS      4353 (0x1101)   0x83            TrueHD          eng (English)           0,701                   0                       0               0               
00004.M2TS      4354 (0x1102)   0x80            LPCM            eng (English)           0,701                   0                       0               0               

<–– END FORUMS PASTE ––>

QUICK SUMMARY:

Disc Title: Guns N' Roses
Disc Size: 23 887 810 725 bytes
Protection: AACS
BD-Java: Yes
Playlist: 00004.MPLS
Size: 0 bytes
Length: 0:22:40.826
Total Bitrate: 0,00 Mbps
Video: MPEG-4 AVC Video / 0 kbps / 480i / 29,970 fps / 16:9 / High Profile 4.1
Audio: Undetermined / DTS-HD Master Audio / 5.1 / 96 kHz / 24-bit (DTS Core: 6.1 / 48 kHz / 1509 kbps / 24-bit)
Audio: English / Dolby TrueHD Audio / 5.1 / 96 kHz / 24-bit (AC3 Embedded: 5.1 / 48 kHz / 640 kbps)
Audio: English / LPCM Audio / 2.0 / 96 kHz / 4608 kbps / 24-bit


********************
PLAYLIST: 01006.MPLS
********************

<–- BEGIN FORUMS PASTE –->
                                                                                                                Total   Video                                             
Title                                                           Codec   Length  Movie Size      Disc Size       Bitrate Bitrate Main Audio Track                          Secondary Audio Track
-----                                                           ------  ------- --------------  --------------  ------- ------- ------------------                        ---------------------
01006.MPLS                                                      AVC     0:22:40 0               23 887 810 725  0,00    0,00    DTS-HD Master 5.1 (96kHz/24-bit)          


DISC INFO:

Disc Title:     Guns N' Roses
Disc Size:      23 887 810 725 bytes
Protection:     AACS
BD-Java:        Yes
BDInfo:         0.5.8

PLAYLIST REPORT:

Name:                   01006.MPLS
Length:                 0:22:40.826 (h:m:s.ms)
Size:                   0 bytes
Total Bitrate:          0,00 Mbps

VIDEO:

Codec                   Bitrate             Description     
-----                   -------             -----------     
MPEG-4 AVC Video        0 kbps              480i / 29,970 fps / 16:9 / High Profile 4.1

AUDIO:

Codec                           Language        Bitrate         Description     
-----                           --------        -------         -----------     
DTS-HD Master Audio             Undetermined    0 kbps          5.1 / 96 kHz / 24-bit (DTS Core: 6.1 / 48 kHz / 1509 kbps / 24-bit)
Dolby TrueHD Audio              English         0 kbps          5.1 / 96 kHz / 24-bit (AC3 Embedded: 5.1 / 48 kHz / 640 kbps)
LPCM Audio                      English         4608 kbps       2.0 / 96 kHz / 4608 kbps / 24-bit

FILES:

Name            Time In         Length          Size            Total Bitrate   
----            -------         ------          ----            -------------   
00004.M2TS      0:00:00.000     0:22:40.826     0               0               

CHAPTERS:

Number          Time In         Length          Avg Video Rate  Max 1-Sec Rate  Max 1-Sec Time  Max 5-Sec Rate  Max 5-Sec Time  Max 10Sec Rate  Max 10Sec Time  Avg Frame Size  Max Frame Size  Max Frame Time  
------          -------         ------          --------------  --------------  --------------  --------------  --------------  --------------  --------------  --------------  --------------  --------------  
1               0:00:00.000     0:04:37.477     0 kbps          0 kbps          00:00:00.000    0 kbps          00:00:00.000    0 kbps          00:00:00.000    0 bytes         0 bytes         00:00:00.000    
2               0:04:37.477     0:05:15.581     0 kbps          0 kbps          00:00:00.000    0 kbps          00:00:00.000    0 kbps          00:00:00.000    0 bytes         0 bytes         00:00:00.000    
3               0:09:53.059     0:06:49.041     0 kbps          0 kbps          00:00:00.000    0 kbps          00:00:00.000    0 kbps          00:00:00.000    0 bytes         0 bytes         00:00:00.000    
4               0:16:42.101     0:05:58.725     0 kbps          0 kbps          00:00:00.000    0 kbps          00:00:00.000    0 kbps          00:00:00.000    0 bytes         0 bytes         00:00:00.000    

STREAM DIAGNOSTICS:

File            PID             Type            Codec           Language                Seconds                 Bitrate                 Bytes           Packets         
----            ---             ----            -----           --------                --------------          --------------          -------------   -----           
00004.M2TS      4113 (0x1011)   0x1B            AVC                                     0,701                   0                       0               0               
00004.M2TS      4352 (0x1100)   0x86            DTS-HD MA       und (Undetermined)      0,701                   0                       0               0               
00004.M2TS      4353 (0x1101)   0x83            TrueHD          eng (English)           0,701                   0                       0               0               
00004.M2TS      4354 (0x1102)   0x80            LPCM            eng (English)           0,701                   0                       0               0               

<–– END FORUMS PASTE ––>

QUICK SUMMARY:

Disc Title: Guns N' Roses
Disc Size: 23 887 810 725 bytes
Protection: AACS
BD-Java: Yes
Playlist: 01006.MPLS
Size: 0 bytes
Length: 0:22:40.826
Total Bitrate: 0,00 Mbps
Video: MPEG-4 AVC Video / 0 kbps / 480i / 29,970 fps / 16:9 / High Profile 4.1
Audio: Undetermined / DTS-HD Master Audio / 5.1 / 96 kHz / 24-bit (DTS Core: 6.1 / 48 kHz / 1509 kbps / 24-bit)
Audio: English / Dolby TrueHD Audio / 5.1 / 96 kHz / 24-bit (AC3 Embedded: 5.1 / 48 kHz / 640 kbps)
Audio: English / LPCM Audio / 2.0 / 96 kHz / 4608 kbps / 24-bit


********************
PLAYLIST: 00003.MPLS
********************

<–- BEGIN FORUMS PASTE –->
                                                                                                                Total   Video                                             
Title                                                           Codec   Length  Movie Size      Disc Size       Bitrate Bitrate Main Audio Track                          Secondary Audio Track
-----                                                           ------  ------- --------------  --------------  ------- ------- ------------------                        ---------------------
00003.MPLS                                                      AVC     0:19:54 0               23 887 810 725  0,00    0,00    DTS-HD Master 5.1 (96kHz/24-bit)          Dolby TrueHD 5.1 (96kHz/24-bit)


DISC INFO:

Disc Title:     Guns N' Roses
Disc Size:      23 887 810 725 bytes
Protection:     AACS
BD-Java:        Yes
BDInfo:         0.5.8

PLAYLIST REPORT:

Name:                   00003.MPLS
Length:                 0:19:54.610 (h:m:s.ms)
Size:                   0 bytes
Total Bitrate:          0,00 Mbps

VIDEO:

Codec                   Bitrate             Description     
-----                   -------             -----------     
MPEG-4 AVC Video        0 kbps              1080p / 23,976 fps / 16:9 / High Profile 4.1
MPEG-4 AVC Video        0 kbps              480p / 23,976 fps / 16:9 / High Profile 3.2

AUDIO:

Codec                           Language        Bitrate         Description     
-----                           --------        -------         -----------     
DTS-HD Master Audio             English         0 kbps          5.1 / 96 kHz / 24-bit (DTS Core: 6.1 / 48 kHz / 1509 kbps / 24-bit)
Dolby TrueHD Audio              English         0 kbps          5.1 / 96 kHz / 24-bit (AC3 Embedded: 5.1 / 48 kHz / 640 kbps)
LPCM Audio                      English         4608 kbps       2.0 / 96 kHz / 4608 kbps / 24-bit

FILES:

Name            Time In         Length          Size            Total Bitrate   
----            -------         ------          ----            -------------   
00003.M2TS      0:00:00.000     0:19:54.610     0               0               

CHAPTERS:

Number          Time In         Length          Avg Video Rate  Max 1-Sec Rate  Max 1-Sec Time  Max 5-Sec Rate  Max 5-Sec Time  Max 10Sec Rate  Max 10Sec Time  Avg Frame Size  Max Frame Size  Max Frame Time  
------          -------         ------          --------------  --------------  --------------  --------------  --------------  --------------  --------------  --------------  --------------  --------------  
1               0:00:00.000     0:19:54.610     0 kbps          0 kbps          00:00:00.000    0 kbps          00:00:00.000    0 kbps          00:00:00.000    0 bytes         0 bytes         00:00:00.000    

STREAM DIAGNOSTICS:

File            PID             Type            Codec           Language                Seconds                 Bitrate                 Bytes           Packets         
----            ---             ----            -----           --------                --------------          --------------          -------------   -----           
00003.M2TS      4113 (0x1011)   0x1B            AVC                                     0,709                   0                       0               0               
00003.M2TS      4352 (0x1100)   0x86            DTS-HD MA       eng (English)           0,709                   0                       0               0               
00003.M2TS      4353 (0x1101)   0x83            TrueHD          eng (English)           0,709                   0                       0               0               
00003.M2TS      4354 (0x1102)   0x80            LPCM            eng (English)           0,709                   0                       0               0               
00003.M2TS      6912 (0x1B00)   0x1B            AVC                                     0,709                   0                       0               0               

<–– END FORUMS PASTE ––>

QUICK SUMMARY:

Disc Title: Guns N' Roses
Disc Size: 23 887 810 725 bytes
Protection: AACS
BD-Java: Yes
Playlist: 00003.MPLS
Size: 0 bytes
Length: 0:19:54.610
Total Bitrate: 0,00 Mbps
Video: MPEG-4 AVC Video / 0 kbps / 1080p / 23,976 fps / 16:9 / High Profile 4.1
Video: MPEG-4 AVC Video / 0 kbps / 480p / 23,976 fps / 16:9 / High Profile 3.2
Audio: English / DTS-HD Master Audio / 5.1 / 96 kHz / 24-bit (DTS Core: 6.1 / 48 kHz / 1509 kbps / 24-bit)
Audio: English / Dolby TrueHD Audio / 5.1 / 96 kHz / 24-bit (AC3 Embedded: 5.1 / 48 kHz / 640 kbps)
Audio: English / LPCM Audio / 2.0 / 96 kHz / 4608 kbps / 24-bit


********************
PLAYLIST: 01003.MPLS
********************

<–- BEGIN FORUMS PASTE –->
                                                                                                                Total   Video                                             
Title                                                           Codec   Length  Movie Size      Disc Size       Bitrate Bitrate Main Audio Track                          Secondary Audio Track
-----                                                           ------  ------- --------------  --------------  ------- ------- ------------------                        ---------------------
01003.MPLS                                                      AVC     0:19:54 0               23 887 810 725  0,00    0,00    DTS-HD Master 5.1 (96kHz/24-bit)          Dolby TrueHD 5.1 (96kHz/24-bit)


DISC INFO:

Disc Title:     Guns N' Roses
Disc Size:      23 887 810 725 bytes
Protection:     AACS
BD-Java:        Yes
BDInfo:         0.5.8

PLAYLIST REPORT:

Name:                   01003.MPLS
Length:                 0:19:54.610 (h:m:s.ms)
Size:                   0 bytes
Total Bitrate:          0,00 Mbps

VIDEO:

Codec                   Bitrate             Description     
-----                   -------             -----------     
MPEG-4 AVC Video        0 kbps              1080p / 23,976 fps / 16:9 / High Profile 4.1
MPEG-4 AVC Video        0 kbps              480p / 23,976 fps / 16:9 / High Profile 3.2

AUDIO:

Codec                           Language        Bitrate         Description     
-----                           --------        -------         -----------     
DTS-HD Master Audio             English         0 kbps          5.1 / 96 kHz / 24-bit (DTS Core: 6.1 / 48 kHz / 1509 kbps / 24-bit)
Dolby TrueHD Audio              English         0 kbps          5.1 / 96 kHz / 24-bit (AC3 Embedded: 5.1 / 48 kHz / 640 kbps)
LPCM Audio                      English         4608 kbps       2.0 / 96 kHz / 4608 kbps / 24-bit

FILES:

Name            Time In         Length          Size            Total Bitrate   
----            -------         ------          ----            -------------   
00003.M2TS      0:00:00.000     0:19:54.610     0               0               

CHAPTERS:

Number          Time In         Length          Avg Video Rate  Max 1-Sec Rate  Max 1-Sec Time  Max 5-Sec Rate  Max 5-Sec Time  Max 10Sec Rate  Max 10Sec Time  Avg Frame Size  Max Frame Size  Max Frame Time  
------          -------         ------          --------------  --------------  --------------  --------------  --------------  --------------  --------------  --------------  --------------  --------------  
1               0:00:00.000     0:03:07.312     0 kbps          0 kbps          00:00:00.000    0 kbps          00:00:00.000    0 kbps          00:00:00.000    0 bytes         0 bytes         00:00:00.000    
2               0:03:07.312     0:05:54.354     0 kbps          0 kbps          00:00:00.000    0 kbps          00:00:00.000    0 kbps          00:00:00.000    0 bytes         0 bytes         00:00:00.000    
3               0:09:01.666     0:03:15.945     0 kbps          0 kbps          00:00:00.000    0 kbps          00:00:00.000    0 kbps          00:00:00.000    0 bytes         0 bytes         00:00:00.000    
4               0:12:17.611     0:04:10.208     0 kbps          0 kbps          00:00:00.000    0 kbps          00:00:00.000    0 kbps          00:00:00.000    0 bytes         0 bytes         00:00:00.000    
5               0:16:27.820     0:03:25.121     0 kbps          0 kbps          00:00:00.000    0 kbps          00:00:00.000    0 kbps          00:00:00.000    0 bytes         0 bytes         00:00:00.000    
6               0:19:52.941     0:00:01.668     0 kbps          0 kbps          00:00:00.000    0 kbps          00:00:00.000    0 kbps          00:00:00.000    0 bytes         0 bytes         00:00:00.000    

STREAM DIAGNOSTICS:

File            PID             Type            Codec           Language                Seconds                 Bitrate                 Bytes           Packets         
----            ---             ----            -----           --------                --------------          --------------          -------------   -----           
00003.M2TS      4113 (0x1011)   0x1B            AVC                                     0,709                   0                       0               0               
00003.M2TS      4352 (0x1100)   0x86            DTS-HD MA       eng (English)           0,709                   0                       0               0               
00003.M2TS      4353 (0x1101)   0x83            TrueHD          eng (English)           0,709                   0                       0               0               
00003.M2TS      4354 (0x1102)   0x80            LPCM            eng (English)           0,709                   0                       0               0               
00003.M2TS      6912 (0x1B00)   0x1B            AVC                                     0,709                   0                       0               0               

<–– END FORUMS PASTE ––>

QUICK SUMMARY:

Disc Title: Guns N' Roses
Disc Size: 23 887 810 725 bytes
Protection: AACS
BD-Java: Yes
Playlist: 01003.MPLS
Size: 0 bytes
Length: 0:19:54.610
Total Bitrate: 0,00 Mbps
Video: MPEG-4 AVC Video / 0 kbps / 1080p / 23,976 fps / 16:9 / High Profile 4.1
Video: MPEG-4 AVC Video / 0 kbps / 480p / 23,976 fps / 16:9 / High Profile 3.2
Audio: English / DTS-HD Master Audio / 5.1 / 96 kHz / 24-bit (DTS Core: 6.1 / 48 kHz / 1509 kbps / 24-bit)
Audio: English / Dolby TrueHD Audio / 5.1 / 96 kHz / 24-bit (AC3 Embedded: 5.1 / 48 kHz / 640 kbps)
Audio: English / LPCM Audio / 2.0 / 96 kHz / 4608 kbps / 24-bit


********************
PLAYLIST: 00005.MPLS
********************

<–- BEGIN FORUMS PASTE –->
                                                                                                                Total   Video                                             
Title                                                           Codec   Length  Movie Size      Disc Size       Bitrate Bitrate Main Audio Track                          Secondary Audio Track
-----                                                           ------  ------- --------------  --------------  ------- ------- ------------------                        ---------------------
00005.MPLS                                                      AVC     0:03:57 0               23 887 810 725  0,00    0,00    DTS-HD Master 5.1 (96kHz/24-bit)          Dolby TrueHD 5.1 (96kHz/24-bit)


DISC INFO:

Disc Title:     Guns N' Roses
Disc Size:      23 887 810 725 bytes
Protection:     AACS
BD-Java:        Yes
BDInfo:         0.5.8

PLAYLIST REPORT:

Name:                   00005.MPLS
Length:                 0:03:57.278 (h:m:s.ms)
Size:                   0 bytes
Total Bitrate:          0,00 Mbps

VIDEO:

Codec     			  		 	 	  		  	   	 			   		  	   		      		  		  	 			   		   	  			     	 			   		 		   		 	 				               Bitrate             Description     
-----                   -------             -----------     
MPEG-4 AVC Video        0 kbps              1080p / 23,976 fps / 16:9 / High Profile 4.1

AUDIO:

Codec                           Language        Bitrate         Description     
-----                           --------        -------         -----------     
DTS-HD Master Audio             English         0 kbps          5.1 / 96 kHz / 24-bit (DTS Core: 6.1 / 48 kHz / 1509 kbps / 24-bit)
Dolby TrueHD Audio              English         0 kbps          5.1 / 96 kHz / 24-bit (AC3 Embedded: 5.1 / 48 kHz / 640 kbps)
LPCM Audio                      English         4608 kbps       2.0 / 96 kHz / 4608 kbps / 24-bit

FILES:

Name            Time In         Length          Size            Total Bitrate   
----            -------         ------          ----            -------------   
00005.M2TS      0:00:00.000     0:03:57.278     0               0               

CHAPTERS:

Number          Time In         Length          Avg Video Rate  Max 1-Sec Rate  Max 1-Sec Time  Max 5-Sec Rate  Max 5-Sec Time  Max 10Sec Rate  Max 10Sec Time  Avg Frame Size  Max Frame Size  Max Frame Time  
------          -------         ------          --------------  --------------  --------------  --------------  --------------  --------------  --------------  --------------  --------------  --------------  
1               0:00:00.000     0:03:57.278     0 kbps          0 kbps          00:00:00.000    0 kbps          00:00:00.000    0 kbps          00:00:00.000    0 bytes         0 bytes         00:00:00.000    

STREAM DIAGNOSTICS:

File            PID             Type            Codec           Language                Seconds                 Bitrate                 Bytes           Packets         
----            ---             ----            -----           --------                --------------          --------------          -------------   -----           
00005.M2TS      4113 (0x1011)   0x1B            AVC                                     0,709                   0                       0               0               
00005.M2TS      4352 (0x1100)   0x86            DTS-HD MA       eng (English)           0,709                   0                       0               0               
00005.M2TS      4353 (0x1101)   0x83            TrueHD          eng (English)           0,709                   0                       0               0               
00005.M2TS      4354 (0x1102)   0x80            LPCM            eng (English)           0,709                   0                       0               0               

<–– END FORUMS PASTE ––>

QUICK SUMMARY:

Disc Title: Guns N' Roses
Disc Size: 23 887 810 725 bytes
Protection: AACS
BD-Java: Yes
Playlist: 00005.MPLS
Size: 0 bytes
Length: 0:03:57.278
Total Bitrate: 0,00 Mbps
Video: MPEG-4 AVC Video / 0 kbps / 1080p / 23,976 fps / 16:9 / High Profile 4.1
Audio: English / DTS-HD Master Audio / 5.1 / 96 kHz / 24-bit (DTS Core: 6.1 / 48 kHz / 1509 kbps / 24-bit)
Audio: English / Dolby TrueHD Audio / 5.1 / 96 kHz / 24-bit (AC3 Embedded: 5.1 / 48 kHz / 640 kbps)
Audio: English / LPCM Audio / 2.0 / 96 kHz / 4608 kbps / 24-bit


********************
PLAYLIST: 01007.MPLS
********************

<–- BEGIN FORUMS PASTE –->
                                                                                                                Total   Video                                             
Title                                                           Codec   Length  Movie Size      Disc Size       Bitrate Bitrate Main Audio Track                          Secondary Audio Track
-----                                                           ------  ------- --------------  --------------  ------- ------- ------------------                        ---------------------
01007.MPLS                                                      AVC     0:03:57 0               23 887 810 725  0,00    0,00    DTS-HD Master 5.1 (96kHz/24-bit)          Dolby TrueHD 5.1 (96kHz/24-bit)


DISC INFO:

Disc Title:     Guns N' Roses
Disc Size:      23 887 810 725 bytes
Protection:     AACS
BD-Java:        Yes
BDInfo:         0.5.8

PLAYLIST REPORT:

Name:                   01007.MPLS
Length:                 0:03:57.278 (h:m:s.ms)
Size:                   0 bytes
Total Bitrate:          0,00 Mbps

VIDEO:

Codec                   Bitrate             Description     
-----                   -------             -----------     
MPEG-4 AVC Video        0 kbps              1080p / 23,976 fps / 16:9 / High Profile 4.1

AUDIO:

Codec                           Language        Bitrate         Description     
-----                           --------        -------         -----------     
DTS-HD Master Audio             English         0 kbps          5.1 / 96 kHz / 24-bit (DTS Core: 6.1 / 48 kHz / 1509 kbps / 24-bit)
Dolby TrueHD Audio              English         0 kbps          5.1 / 96 kHz / 24-bit (AC3 Embedded: 5.1 / 48 kHz / 640 kbps)
LPCM Audio                      English         4608 kbps       2.0 / 96 kHz / 4608 kbps / 24-bit

FILES:

Name            Time In         Length          Size            Total Bitrate   
----            -------         ------          ----            -------------   
00005.M2TS      0:00:00.000     0:03:57.278     0               0               

CHAPTERS:

Number          Time In         Length          Avg Video Rate  Max 1-Sec Rate  Max 1-Sec Time  Max 5-Sec Rate  Max 5-Sec Time  Max 10Sec Rate  Max 10Sec Time  Avg Frame Size  Max Frame Size  Max Frame Time  
------          -------         ------          --------------  --------------  --------------  --------------  --------------  --------------  --------------  --------------  --------------  --------------  
1               0:00:00.000     0:03:56.236     0 kbps          0 kbps          00:00:00.000    0 kbps          00:00:00.000    0 kbps          00:00:00.000    0 bytes         0 bytes         00:00:00.000    
2               0:03:56.236     0:00:01.042     0 kbps          0 kbps          00:00:00.000    0 kbps          00:00:00.000    0 kbps          00:00:00.000    0 bytes         0 bytes         00:00:00.000    

STREAM DIAGNOSTICS:

File            PID             Type            Codec           Language                Seconds                 Bitrate                 Bytes           Packets         
----            ---             ----            -----           --------                --------------          --------------          -------------   -----           
00005.M2TS      4113 (0x1011)   0x1B            AVC                                     0,709                   0                       0               0               
00005.M2TS      4352 (0x1100)   0x86            DTS-HD MA       eng (English)           0,709                   0                       0               0               
00005.M2TS      4353 (0x1101)   0x83            TrueHD          eng (English)           0,709                   0                       0               0               
00005.M2TS      4354 (0x1102)   0x80            LPCM            eng (English)           0,709                   0                       0               0               

<–– END FORUMS PASTE ––>

QUICK SUMMARY:

Disc Title: Guns N' Roses
Disc Size: 23 887 810 725 bytes
Protection: AACS
BD-Java: Yes
Playlist: 01007.MPLS
Size: 0 bytes
Length: 0:03:57.278
Total Bitrate: 0,00 Mbps
Video: MPEG-4 AVC Video / 0 kbps / 1080p / 23,976 fps / 16:9 / High Profile 4.1
Audio: English / DTS-HD Master Audio / 5.1 / 96 kHz / 24-bit (DTS Core: 6.1 / 48 kHz / 1509 kbps / 24-bit)
Audio: English / Dolby TrueHD Audio / 5.1 / 96 kHz / 24-bit (AC3 Embedded: 5.1 / 48 kHz / 640 kbps)
Audio: English / LPCM Audio / 2.0 / 96 kHz / 4608 kbps / 24-bit


********************
PLAYLIST: 00001.MPLS
********************

<–- BEGIN FORUMS PASTE –->
                                                                                                                Total   Video                                             
Title                                                           Codec   Length  Movie Size      Disc Size       Bitrate Bitrate Main Audio Track                          Secondary Audio Track
-----                                                           ------  ------- --------------  --------------  ------- ------- ------------------                        ---------------------
00001.MPLS                                                      AVC     0:03:13 0               23 887 810 725  0,00    0,00    DTS-HD Master 5.1 (96kHz/24-bit)          Dolby TrueHD 5.1 (96kHz/24-bit)


DISC INFO:

Disc Title:     Guns N' Roses
Disc Size:      23 887 810 725 bytes
Protection:     AACS
BD-Java:        Yes
BDInfo:         0.5.8

PLAYLIST REPORT:

Name:                   00001.MPLS
Length:                 0:03:13.234 (h:m:s.ms)
Size:                   0 bytes
Total Bitrate:          0,00 Mbps

VIDEO:

Codec                   Bitrate             Description     
-----                   -------             -----------     
MPEG-4 AVC Video        0 kbps              1080p / 23,976 fps / 16:9 / High Profile 4.1

AUDIO:

Codec                           Language        Bitrate         Description     
-----                           --------        -------         -----------     
DTS-HD Master Audio             English         0 kbps          5.1 / 96 kHz / 24-bit (DTS Core: 6.1 / 48 kHz / 1509 kbps / 24-bit)
Dolby TrueHD Audio              English         0 kbps          5.1 / 96 kHz / 24-bit (AC3 Embedded: 5.1 / 48 kHz / 640 kbps)
LPCM Audio                      English         4608 kbps       2.0 / 96 kHz / 4608 kbps / 24-bit

FILES:

Name            Time In         Length          Size            Total Bitrate   
----            -------         ------          ----            -------------   
00001.M2TS      0:00:00.000     0:03:13.234     0               0               

CHAPTERS:

Number          Time In         Length          Avg Video Rate  Max 1-Sec Rate  Max 1-Sec Time  Max 5-Sec Rate  Max 5-Sec Time  Max 10Sec Rate  Max 10Sec Time  Avg Frame Size  Max Frame Size  Max Frame Time  
------          -------         ------          --------------  --------------  --------------  --------------  --------------  --------------  --------------  --------------  --------------  --------------  
1               0:00:00.000     0:03:13.234     0 kbps          0 kbps          00:00:00.000    0 kbps          00:00:00.000    0 kbps          00:00:00.000    0 bytes         0 bytes         00:00:00.000    

STREAM DIAGNOSTICS:

File            PID             Type            Codec           Language                Seconds                 Bitrate                 Bytes           Packets         
----            ---             ----            -----           --------                --------------          --------------          -------------   -----           
00001.M2TS      4113 (0x1011)   0x1B            AVC                                     0,709                   0                       0               0               
00001.M2TS      4352 (0x1100)   0x86            DTS-HD MA       eng (English)           0,709                   0                       0               0               
00001.M2TS      4353 (0x1101)   0x83            TrueHD          eng (English)           0,709                   0                       0               0               
00001.M2TS      4354 (0x1102)   0x80            LPCM            eng (English)           0,709                   0                       0               0               

<–– END FORUMS PASTE ––>

QUICK SUMMARY:

Disc Title: Guns N' Roses
Disc Size: 23 887 810 725 bytes
Protection: AACS
BD-Java: Yes
Playlist: 00001.MPLS
Size: 0 bytes
Length: 0:03:13.234
Total Bitrate: 0,00 Mbps
Video: MPEG-4 AVC Video / 0 kbps / 1080p / 23,976 fps / 16:9 / High Profile 4.1
Audio: English / DTS-HD Master Audio / 5.1 / 96 kHz / 24-bit (DTS Core: 6.1 / 48 kHz / 1509 kbps / 24-bit)
Audio: English / Dolby TrueHD Audio / 5.1 / 96 kHz / 24-bit (AC3 Embedded: 5.1 / 48 kHz / 640 kbps)
Audio: English / LPCM Audio / 2.0 / 96 kHz / 4608 kbps / 24-bit


********************
PLAYLIST: 01001.MPLS
********************

<–- BEGIN FORUMS PASTE –->
                                                                                                                Total   Video                                             
Title                                                           Codec   Length  Movie Size      Disc Size       Bitrate Bitrate Main Audio Track                          Secondary Audio Track
-----                                                           ------  ------- --------------  --------------  ------- ------- ------------------                        ---------------------
01001.MPLS                                                      AVC     0:03:13 0               23 887 810 725  0,00    0,00    DTS-HD Master 5.1 (96kHz/24-bit)          Dolby TrueHD 5.1 (96kHz/24-bit)


DISC INFO:

Disc Title:     Guns N' Roses
Disc Size:      23 887 810 725 bytes
Protection:     AACS
BD-Java:        Yes
BDInfo:         0.5.8

PLAYLIST REPORT:

Name:                   01001.MPLS
Length:                 0:03:13.234 (h:m:s.ms)
Size:                   0 bytes
Total Bitrate:          0,00 Mbps

VIDEO:

Codec                   Bitrate             Description     
-----                   -------             -----------     
MPEG-4 AVC Video        0 kbps              1080p / 23,976 fps / 16:9 / High Profile 4.1

AUDIO:

Codec                           Language        Bitrate         Description     
-----                           --------        -------         -----------     
DTS-HD Master Audio             English         0 kbps          5.1 / 96 kHz / 24-bit (DTS Core: 6.1 / 48 kHz / 1509 kbps / 24-bit)
Dolby TrueHD Audio              English         0 kbps          5.1 / 96 kHz / 24-bit (AC3 Embedded: 5.1 / 48 kHz / 640 kbps)
LPCM Audio                      English         4608 kbps       2.0 / 96 kHz / 4608 kbps / 24-bit

FILES:

Name            Time In         Length          Size            Total Bitrate   
----            -------         ------          ----            -------------   
00001.M2TS      0:00:00.000     0:03:13.234     0               0               

CHAPTERS:

Number          Time In         Length          Avg Video Rate  Max 1-Sec Rate  Max 1-Sec Time  Max 5-Sec Rate  Max 5-Sec Time  Max 10Sec Rate  Max 10Sec Time  Avg Frame Size  Max Frame Size  Max Frame Time  
------          -------         ------          --------------  --------------  --------------  --------------  --------------  --------------  --------------  --------------  --------------  --------------  
1               0:00:00.000     0:00:06.965     0 kbps          0 kbps          00:00:00.000    0 kbps          00:00:00.000    0 kbps          00:00:00.000    0 bytes         0 bytes         00:00:00.000    
2               0:00:06.965     0:00:00.250     0 kbps          0 kbps          00:00:00.000    0 kbps          00:00:00.000    0 kbps          00:00:00.000    0 bytes         0 bytes         00:00:00.000    
3               0:00:07.215     0:00:59.851     0 kbps          0 kbps          00:00:00.000    0 kbps          00:00:00.000    0 kbps          00:00:00.000    0 bytes         0 bytes         00:00:00.000    
4               0:01:07.066     0:00:01.084     0 kbps          0 kbps          00:00:00.000    0 kbps          00:00:00.000    0 kbps          00:00:00.000    0 bytes         0 bytes         00:00:00.000    
5               0:01:08.151     0:00:00.417     0 kbps          0 kbps          00:00:00.000    0 kbps          00:00:00.000    0 kbps          00:00:00.000    0 bytes         0 bytes         00:00:00.000    
6               0:01:08.568     0:01:00.560     0 kbps          0 kbps          00:00:00.000    0 kbps          00:00:00.000    0 kbps          00:00:00.000    0 bytes         0 bytes         00:00:00.000    
7               0:02:09.129     0:00:01.126     0 kbps          0 kbps          00:00:00.000    0 kbps          00:00:00.000    0 kbps          00:00:00.000    0 bytes         0 bytes         00:00:00.000    
8               0:02:10.255     0:00:00.417     0 kbps          0 kbps          00:00:00.000    0 kbps          00:00:00.000    0 kbps          00:00:00.000    0 bytes         0 bytes         00:00:00.000    
9               0:02:10.672     0:01:01.561     0 kbps          0 kbps          00:00:00.000    0 kbps          00:00:00.000    0 kbps          00:00:00.000    0 bytes         0 bytes         00:00:00.000    
10              0:03:12.233     0:00:01.001     0 kbps          0 kbps          00:00:00.000    0 kbps          00:00:00.000    0 kbps          00:00:00.000    0 bytes         0 bytes         00:00:00.000    

STREAM DIAGNOSTICS:

File            PID             Type            Codec           Language                Seconds                 Bitrate                 Bytes           Packets         
----            ---             ----            -----           --------                --------------          --------------          -------------   -----           
00001.M2TS      4113 (0x1011)   0x1B            AVC                                     0,709                   0                       0               0               
00001.M2TS      4352 (0x1100)   0x86            DTS-HD MA       eng (English)           0,709                   0                       0               0               
00001.M2TS      4353 (0x1101)   0x83            TrueHD          eng (English)           0,709                   0                       0               0               
00001.M2TS      4354 (0x1102)   0x80            LPCM            eng (English)           0,709                   0                       0               0               

<–– END FORUMS PASTE ––>

QUICK SUMMARY:

Disc Title: Guns N' Roses
Disc Size: 23 887 810 725 bytes
Protection: AACS
BD-Java: Yes
Playlist: 01001.MPLS
Size: 0 bytes
Length: 0:03:13.234
Total Bitrate: 0,00 Mbps
Video: MPEG-4 AVC Video / 0 kbps / 1080p / 23,976 fps / 16:9 / High Profile 4.1
Audio: English / DTS-HD Master Audio / 5.1 / 96 kHz / 24-bit (DTS Core: 6.1 / 48 kHz / 1509 kbps / 24-bit)
Audio: English / Dolby TrueHD Audio / 5.1 / 96 kHz / 24-bit (AC3 Embedded: 5.1 / 48 kHz / 640 kbps)
Audio: English / LPCM Audio / 2.0 / 96 kHz / 4608 kbps / 24-bit



Guns N' Roses - Appetite For Destruction (1987) [2018, 4CD + Blu-ray Super Deluxe Box Set]

Guns N' Roses - Appetite For Destruction (1987) [2018, 4CD + Blu-ray Super Deluxe Box Set]

Guns N' Roses - Appetite For Destruction (1987) [2018, 4CD + Blu-ray Super Deluxe Box Set]

Guns N' Roses - Appetite For Destruction (1987) [2018, 4CD + Blu-ray Super Deluxe Box Set]

Guns N' Roses - Appetite For Destruction (1987) [2018, 4CD + Blu-ray Super Deluxe Box Set]

Guns N' Roses - Appetite For Destruction (1987) [2018, 4CD + Blu-ray Super Deluxe Box Set]

All thanks go to ALLexxess

Guns N' Roses in my Blog

Download Guns N' Roses - Appetite For Destruction (1987):