Subcategories

Guy Fletcher (ex Dire Straits) - Albums Collection 2008-2010 (3CD) [Re-Up]

Posted By: Designol
Guy Fletcher (ex Dire Straits) - Albums Collection 2008-2010 (3CD) [Re-Up]

Guy Fletcher (ex Dire Straits) - Albums Collection 2008-2010 (3CD)
EAC | FLAC | Image (Cue&Log) ~ 822 Mb | Mp3 (CBR320) ~ 335 Mb
Folk Rock, Pop Rock, Folk | Time: 02:26:24 | Scans ~ 242 Mb

Guy Edward Fletcher is an English multi-instrumentalist, best known for his position as the keyboardist in the rock band Dire Straits from 1984 until the group's dissolution, and his involvement in many parts of Mark Knopfler's solo work. Fletcher's first solo album, Inamorata, was released on 28 January 2008. Mark Knopfler guests as lead guitarist for two tracks, and various musicians who have been associated with Knopfler's band also make appearances. On 24 May 2010, Fletcher released his second solo album, titled Natural Selection.

Guy Fletcher (ex Dire Straits) - Albums Collection 2008-2010 (3CD) [Re-Up]





Guy Fletcher (ex Dire Straits) - Albums Collection 2008-2010 (3CD) [Re-Up]

Guy Fletcher - Inamorata (2008)
EAC | FLAC | Image (Cue&Log) ~ 264 Mb | Mp3 (CBR320) ~ 110 Mb
Label: Inamorecords | # GFIR-01 | Time: 00:48:07 | Scans ~ 93 Mb


Tracklist:

01. Love Is Coming Round (04:06)
02. Broken Wing (04:43)
03. Different World (04:42)
04. Stone (04:41)
05. Inamorata (02:51)
06. High In The Hills (05:03)
07. Cup Of Tea (02:53)
08. Life's Taste (04:13)
09. Cold Water (03:48)
10. The Logistics Of Intimacy (03:46)
11. See Myself In You (03:52)
12. Black Sand Theme (03:24)


Exact Audio Copy V1.0 beta 3 from 29. August 2011

EAC extraction logfile from 19. September 2014, 20:30

Guy Fletcher / Inamorata

Used drive : ASUS DRW-24B1ST Adapter: 2 ID: 1

Read mode : Secure
Utilize accurate stream : Yes
Defeat audio cache : Yes
Make use of C2 pointers : No

Read offset correction : 6
Overread into Lead-In and Lead-Out : No
Fill up missing offset samples with silence : Yes
Delete leading and trailing silent blocks : No
Null samples used in CRC calculations : Yes
Used interface : Native Win32 interface for Win NT & 2000

Used output format : User Defined Encoder
Selected bitrate : 768 kBit/s
Quality : High
Add ID3 tag : No
Command line compressor : C:\Program Files\FLAC Frontend\tools\flac.exe
Additional command line options : -V -8 -T "Date=%year%" -T "Genre=%genre%" %source%


TOC of the extracted CD

Track | Start | Length | Start sector | End sector
––––––––––––––––––––––––––––-
1 | 0:00.00 | 4:06.16 | 0 | 18465
2 | 4:06.16 | 4:43.29 | 18466 | 39719
3 | 8:49.45 | 4:42.02 | 39720 | 60871
4 | 13:31.47 | 4:41.11 | 60872 | 81957
5 | 18:12.58 | 2:51.12 | 81958 | 94794
6 | 21:03.70 | 5:03.57 | 94795 | 117576
7 | 26:07.52 | 2:53.57 | 117577 | 130608
8 | 29:01.34 | 4:13.73 | 130609 | 149656
9 | 33:15.32 | 3:48.37 | 149657 | 166793
10 | 37:03.69 | 3:46.07 | 166794 | 183750
11 | 40:50.01 | 3:52.15 | 183751 | 201165
12 | 44:42.16 | 3:24.33 | 201166 | 216498


Range status and errors

Selected range

Filename H:\Guy Fletcher - Inamorata.wav

Peak level 100.0 %
Extraction speed 8.4 X
Range quality 100.0 %
Test CRC 508E2BE4
Copy CRC 508E2BE4
Copy OK

No errors occurred


AccurateRip summary

Track 1 accurately ripped (confidence 3) [1696C485] (AR v2)
Track 2 accurately ripped (confidence 3) [E1814AB2] (AR v2)
Track 3 accurately ripped (confidence 3) [35B81583] (AR v2)
Track 4 accurately ripped (confidence 3) [AD5DE035] (AR v2)
Track 5 accurately ripped (confidence 3) [C40C49F1] (AR v2)
Track 6 accurately ripped (confidence 3) [68535332] (AR v2)
Track 7 accurately ripped (confidence 3) [5C4AEE03] (AR v2)
Track 8 accurately ripped (confidence 3) [9E42E276] (AR v2)
Track 9 accurately ripped (confidence 3) [80083AB1] (AR v2)
Track 10 accurately ripped (confidence 3) [AC8B8CCC] (AR v2)
Track 11 accurately ripped (confidence 3) [3A9FBCB5] (AR v2)
Track 12 accurately ripped (confidence 3) [D59795E6] (AR v2)

All tracks accurately ripped

End of status report

==== Log checksum 89F4869547254D75AD214D140C9663463C8039A785134E6D6B8DFA554BCA58A8 ====

foobar2000 1.2 / Dynamic Range Meter 1.1.1
log date: 2015-01-20 17:25:19

––––––––––––––––––––––––––––––––––––––––
Analyzed: Guy Fletcher / Inamorata
––––––––––––––––––––––––––––––––––––––––

DR Peak RMS Duration Track
––––––––––––––––––––––––––––––––––––––––
DR8 0.00 dB -10.22 dB 4:06 01-Love Is Coming Round
DR8 0.00 dB -9.62 dB 4:43 02-Broken Wing
DR9 -0.50 dB -11.03 dB 4:42 03-Different World
DR9 0.00 dB -10.82 dB 4:41 04-Stone
DR8 -0.02 dB -10.65 dB 2:51 05-Inamorata
DR8 0.00 dB -10.97 dB 5:04 06-High In The Hills
DR10 0.00 dB -12.58 dB 2:54 07-Cup Of Tea
DR8 0.00 dB -9.09 dB 4:14 08-Life's Taste
DR8 0.00 dB -9.85 dB 3:48 09-Cold Water
DR10 -0.02 dB -12.37 dB 3:46 10-The Logistics Of Intimacy
DR10 0.00 dB -12.48 dB 3:52 11-See Myself In You
DR12 -2.18 dB -18.57 dB 3:24 12-Black Sand Theme
––––––––––––––––––––––––––––––––––––––––

Number of tracks: 12
Official DR value: DR9

Samplerate: 44100 Hz
Channels: 2
Bits per sample: 16
Bitrate: 768 kbps
Codec: FLAC
================================================================================




Guy Fletcher (ex Dire Straits) - Albums Collection 2008-2010 (3CD) [Re-Up]

Guy Fletcher - Stone EP (2009)
EAC | FLAC | Image (Cue&Log) ~ 230 Mb | Mp3 (CBR320) ~ 97 Mb
Label: Inamorecords | # GFIR-02 | Time: 00:42:27 | Scans ~ 43 Mb


Tracklist:

01. Stone (Remix) (06:43)
02. Without You (04:22)
03. Inamorata (Remix) (06:22)
04. Ocean Song (03:50)
05. Steel Guitar Rag (04:09)
06. Broken Wing (Hamish Sandys-Renton Remix) (05:56)
07. Love Is Coming Round (Remix) (05:52)
08. Devil's Slide (05:09)


Exact Audio Copy V1.0 beta 3 from 29. August 2011

EAC extraction logfile from 19. September 2014, 20:50

Guy Fletcher / Stone EP

Used drive : ASUS DRW-24B1ST Adapter: 2 ID: 1

Read mode : Secure
Utilize accurate stream : Yes
Defeat audio cache : Yes
Make use of C2 pointers : No

Read offset correction : 6
Overread into Lead-In and Lead-Out : No
Fill up missing offset samples with silence : Yes
Delete leading and trailing silent blocks : No
Null samples used in CRC calculations : Yes
Used interface : Native Win32 interface for Win NT & 2000

Used output format : User Defined Encoder
Selected bitrate : 768 kBit/s
Quality : High
Add ID3 tag : No
Command line compressor : C:\Program Files\FLAC Frontend\tools\flac.exe
Additional command line options : -V -8 -T "Date=%year%" -T "Genre=%genre%" %source%


TOC of the extracted CD

Track | Start | Length | Start sector | End sector
––––––––––––––––––––––––––––-
1 | 0:00.00 | 6:43.31 | 0 | 30255
2 | 6:43.31 | 4:22.65 | 30256 | 49970
3 | 11:06.21 | 6:22.02 | 49971 | 78622
4 | 17:28.23 | 3:50.08 | 78623 | 95880
5 | 21:18.31 | 4:09.56 | 95881 | 114611
6 | 25:28.12 | 5:56.47 | 114612 | 141358
7 | 31:24.59 | 5:52.70 | 141359 | 167828
8 | 37:17.54 | 5:09.21 | 167829 | 191024


Range status and errors

Selected range

Filename H:\Guy Fletcher - Stone EP.wav

Peak level 100.0 %
Extraction speed 8.1 X
Range quality 100.0 %
Test CRC 6952C802
Copy CRC 6952C802
Copy OK

No errors occurred


AccurateRip summary

Track 1 not present in database
Track 2 not present in database
Track 3 not present in database
Track 4 not present in database
Track 5 not present in database
Track 6 not present in database
Track 7 not present in database
Track 8 not present in database

None of the tracks are present in the AccurateRip database

End of status report

==== Log checksum B553E526ACE72DCBD40ED49A868DB03B07910BA662F5656C59438A0138EAAD2F ====

foobar2000 1.2 / Dynamic Range Meter 1.1.1
log date: 2015-01-20 17:25:37

––––––––––––––––––––––––––––––––––––––––
Analyzed: Guy Fletcher / Stone EP
––––––––––––––––––––––––––––––––––––––––

DR Peak RMS Duration Track
––––––––––––––––––––––––––––––––––––––––
DR6 0.00 dB -8.33 dB 6:43 01-Stone (Remix)
DR8 0.00 dB -9.88 dB 4:23 02-Without You
DR9 0.00 dB -10.83 dB 6:22 03-Inamorata (Remix)
DR10 0.00 dB -12.30 dB 3:50 04-Ocean Song
DR8 0.00 dB -9.93 dB 4:10 05-Steel Guitar Rag
DR7 0.00 dB -8.82 dB 5:57 06-Broken Wing (Hamish Sandys-Renton Remix)
DR6 -0.63 dB -10.10 dB 5:53 07-Love Is Coming Round (Remix)
DR9 0.00 dB -11.64 dB 5:09 08-Devil's Slide
––––––––––––––––––––––––––––––––––––––––

Number of tracks: 8
Official DR value: DR8

Samplerate: 44100 Hz
Channels: 2
Bits per sample: 16
Bitrate: 758 kbps
Codec: FLAC
================================================================================




Guy Fletcher (ex Dire Straits) - Albums Collection 2008-2010 (3CD) [Re-Up]

Guy Fletcher - Natural Selection (2010)
EAC | FLAC | Image (Cue&Log) ~ 328 Mb | Mp3 (CBR320) ~ 128 Mb
Label: Inamorecords | # GFIR-03 | Time: 00:55:50 | Scans ~ 113 Mb


Tracklist:

01. Flame Of Blue (04:17)
02. After The Mission (05:41)
03. In The Beginning (04:48)
04. Natural Selection (06:45)
05. Lover's Harmony (03:01)
06. Man In Front Of Me (05:28)
07. Falling Tide (06:06)
08. Little Light (04:55)
09. The Forum (05:00)
10. Said And Done (04:14)
11. Last Farewell (05:30)


Exact Audio Copy V1.0 beta 3 from 29. August 2011

EAC extraction logfile from 19. September 2014, 21:30

Guy Fletcher / Natural Selection

Used drive : ASUS DRW-24B1ST Adapter: 2 ID: 1

Read mode : Secure
Utilize accurate stream : Yes
Defeat audio cache : Yes
Make use of C2 pointers : No

Read offset correction : 6
Overread into Lead-In and Lead-Out : No
Fill up missing offset samples with silence : Yes
Delete leading and trailing silent blocks : No
Null samples used in CRC calculations : Yes
Used interface : Native Win32 interface for Win NT & 2000

Used output format : User Defined Encoder
Selected bitrate : 768 kBit/s
Quality : High
Add ID3 tag : No
Command line compressor : C:\Program Files\FLAC Frontend\tools\flac.exe
Additional command line options : -V -8 -T "Date=%year%" -T "Genre=%genre%" %source%


TOC of the extracted CD

Track | Start | Length | Start sector | End sector
––––––––––––––––––––––––––––-
1 | 0:02.00 | 4:17.03 | 150 | 19427
2 | 4:19.03 | 5:41.51 | 19428 | 45053
3 | 10:00.54 | 4:48.15 | 45054 | 66668
4 | 14:48.69 | 6:45.53 | 66669 | 97096
5 | 21:34.47 | 3:01.17 | 97097 | 110688
6 | 24:35.64 | 5:28.05 | 110689 | 135293
7 | 30:03.69 | 6:06.02 | 135294 | 162745
8 | 36:09.71 | 4:55.69 | 162746 | 184939
9 | 41:05.65 | 5:00.63 | 184940 | 207502
10 | 46:06.53 | 4:14.33 | 207503 | 226585
11 | 50:21.11 | 5:30.61 | 226586 | 251396


Range status and errors

Selected range

Filename H:\Guy Fletcher - Natural Selection.wav

Peak level 97.0 %
Extraction speed 8.5 X
Range quality 100.0 %
Test CRC 931DDFAB
Copy CRC 931DDFAB
Copy OK

No errors occurred


AccurateRip summary

Track 1 accurately ripped (confidence 2) [4E733E88] (AR v1)
Track 2 accurately ripped (confidence 2) [EA4F6D65] (AR v1)
Track 3 accurately ripped (confidence 2) [D23A0396] (AR v1)
Track 4 accurately ripped (confidence 2) [AD2EED43] (AR v1)
Track 5 accurately ripped (confidence 2) [A6B31EAD] (AR v1)
Track 6 accurately ripped (confidence 2) [4983F368] (AR v1)
Track 7 accurately ripped (confidence 2) [4249ABB4] (AR v1)
Track 8 accurately ripped (confidence 2) [EA6C24FF] (AR v1)
Track 9 accurately ripped (confidence 2) [55C99CAA] (AR v1)
Track 10 accurately ripped (confidence 2) [C5F6A207] (AR v1)
Track 11 accurately ripped (confidence 2) [E6483B2D] (AR v1)

All tracks accurately ripped

End of status report

==== Log checksum 95B7B3B1FDBEED8D890976B1F00E1BA4F6B37367F0734B5B349073906C78FCA4 ====

foobar2000 1.2 / Dynamic Range Meter 1.1.1
log date: 2015-01-20 17:25:58

––––––––––––––––––––––––––––––––––––––––
Analyzed: Guy Fletcher / Natural Selection
––––––––––––––––––––––––––––––––––––––––

DR Peak RMS Duration Track
––––––––––––––––––––––––––––––––––––––––
DR10 -0.27 dB -12.61 dB 4:17 01-Flame Of Blue
DR8 -0.26 dB -11.35 dB 5:42 02-After The Mission
DR8 -0.27 dB -11.35 dB 4:48 03-In The Beginning
DR8 -0.26 dB -12.45 dB 6:46 04-Natural Selection
DR9 -0.27 dB -11.87 dB 3:01 05-Lover's Harmony
DR9 -0.27 dB -12.15 dB 5:28 06-Man In Front Of Me
DR11 -0.27 dB -14.64 dB 6:06 07-Falling Tide
DR9 -0.27 dB -12.74 dB 4:56 08-Little Light
DR9 -0.27 dB -10.98 dB 5:01 09-The Forum
DR9 -0.26 dB -11.65 dB 4:14 10-Said And Done
DR9 -0.27 dB -12.36 dB 5:31 11-Last Farewell
––––––––––––––––––––––––––––––––––––––––

Number of tracks: 11
Official DR value: DR9

Samplerate: 44100 Hz
Channels: 2
Bits per sample: 16
Bitrate: 821 kbps
Codec: FLAC
================================================================================