Subcategories

The Gyuto Monks Tantric Choir - The Perfect Jewel: Sacred Chants Of Tibet (2002)

Posted By: uff
The Gyuto Monks Tantric Choir - The Perfect Jewel: Sacred Chants Of Tibet (2002)

The Gyuto Monks Tantric Choir - The Perfect Jewel: Sacred Chants Of Tibet (2002)
World | 1cd | EAC Rip | Flac + Cue + Log | covers
Rykodisc, RCD 10626 | rel: 2002 | 375Mb

Rather than music, think of this as contemplation on a disc, meditation on CD. Listening to the Gyuto Monks Tantric Choir is more or less guaranteed to put your mind in another space with their eerie overtone signing (similar to the throat singing of Tuva). Two long tracks don't so much develop as unwind in sections, using voice and a few other instruments – notably short and long trumpets reminiscent of alpine horns and some percussion. These sacred chants, which have come down over generations, offer a continual stream of sound, although they are in fact edited down from much longer versions. But even at this length, there's a definite effect on the consciousness; listening leaves you feeling more relaxed and open, a good thing in today's stressful world. However, this isn't new age music – quite the opposite. This is a tradition that's grown up over thousands of years, and these chants manifest the essence of that tradition in sound. Not so much music as a spiritual experience. ~Allmusic

Track listing
01. Initiation Ceremony of Guhyasamaja Tantra-Offering of Seven Royal (28:02)
02. Offering of Tea-Mahakala Chanting-Praise and Request to Kalarupa (29:07)


Exact Audio Copy V1.0 beta 3 from 29. August 2011

EAC extraction logfile from 16. January 2012, 18:09

Gyuto Monks Tantric Choir / The Perfect Jewel: Sacred Chants of Tibet

Used drive : DVDRW SATA 20X20X12X Adapter: 5 ID: 0

Read mode : Secure
Utilize accurate stream : Yes
Defeat audio cache : Yes
Make use of C2 pointers : No

Read offset correction : 6
Overread into Lead-In and Lead-Out : No
Fill up missing offset samples with silence : Yes
Delete leading and trailing silent blocks : No
Null samples used in CRC calculations : Yes
Used interface : Native Win32 interface for Win NT & 2000
Gap handling : Appended to previous track

Used output format : User Defined Encoder
Selected bitrate : 1024 kBit/s
Quality : High
Add ID3 tag : No
Command line compressor : C:\Program Files (x86)\Exact Audio Copy\FLAC\FLAC.EXE
Additional command line options : -8 -V -T "ARTIST=%artist%" -T "TITLE=%title%" -T "ALBUM=%albumtitle%" -T "DATE=%year%" -T "TRACKNUMBER=%tracknr%" -T "GENRE=%genre%" -T "PERFORMER=%albuminterpret%" -T "COMPOSER=%composer%" %haslyrics%–tag-from-file=LYRICS="%lyricsfile%"%haslyrics% -T "ALBUMARTIST=%albumartist%" -T "ALBUM ARTIST=%albumartist%" -T "DISCNUMBER=%cdnumber%" -T "TOTALDISCS=%totalcds%" -T "TOTALTRACKS=%numtracks%" -T "COMMENT=EAC V1.0 beta 2, Secure Mode, Test & Copy, AccurateRip, FLAC -8" %source% -o %dest%


TOC of the extracted CD

Track | Start | Length | Start sector | End sector
––––––––––––––––––––––––––––-
1 | 0:00.00 | 28:02.02 | 0 | 126151
2 | 28:02.02 | 29:07.10 | 126152 | 257186


Track 1

Filename E:\!_M_2012\FLAC\Gyuto Monks Tantric Choir - [2002] - The Perfect Jewel- Sacred Chants of Tibet [FLAC] {World}\01 - Gyuto Monks Tantric Choir - Initiation Ceremony of Guhyasamaja Tantra-Offering of Seven Royal .wav

Pre-gap length 0:00:02.00

Peak level 99.7 %
Extraction speed 4.7 X
Track quality 100.0 %
Test CRC B70EFAD7
Copy CRC B70EFAD7
Cannot be verified as accurate (confidence 1) [EAF1C857], AccurateRip returned [3C90C049] (AR v2)
Copy OK

Track 2

Filename E:\!_M_2012\FLAC\Gyuto Monks Tantric Choir - [2002] - The Perfect Jewel- Sacred Chants of Tibet [FLAC] {World}\02 - Gyuto Monks Tantric Choir - Offering of Tea-Mahakala Chanting-Praise and Request to Kalarupa .wav

Peak level 100.0 %
Extraction speed 6.4 X
Track quality 100.0 %
Test CRC 49F8AE7F
Copy CRC 49F8AE7F
Cannot be verified as accurate (confidence 1) [64E88688], AccurateRip returned [6827A69D] (AR v2)
Copy OK


No tracks could be verified as accurate
You may have a different pressing from the one(s) in the database

No errors occurred

End of status report

–– CUETools DB Plugin V2.1.3

[CTDB TOCID: BIDYu53KhOJwp_W88SHa9q7DhZA-] disk not present in database, Submit result: BIDYu53KhOJwp_W88SHa9q7DhZA- has been uploaded


==== Log checksum 000E91F9636E35AC518F750134B8080704ABA46C4D596B584C8FFCB4D34D793A ====



[CUETools log; Date: 2016.05.02. 10:35:26; Version: 2.1.5]
HDCD: peak extend: none, transient filter: some, gain: none
[CTDB TOCID: BIDYu53KhOJwp_W88SHa9q7DhZA-] found.
Track | CTDB Status
1 | (4/4) Accurately ripped
2 | (4/4) Accurately ripped
[AccurateRip ID: 0005d96b-000f9f7a-150d6502] found.
Track [ CRC | V2 ] Status
01 [c2007d9b|eaf1c857] (0+5/5) Accurately ripped
02 [06a1b133|64e88688] (0+5/7) Accurately ripped
Offsetted by 830:
01 [3c90c049] (0/5) No match (V2 was not tested)
02 [6827a69d] (0/7) No match (V2 was not tested)

Track Peak [ CRC32 ] [W/O NULL] [ LOG ]
– 100,0 [1B8A4EF7] [E4AAE12B]
01 99,7 [B70EFAD7] [302FF946] CRC32
02 100,0 [49F8AE7F] [C996D99E] CRC32


Thx to xroomie
Bigfile
Datafile

password: asd