Subcategories
Tags
Language
Tags

Haddaway - Pop Splits (2005)

Posted By: popsakov
Haddaway - Pop Splits (2005)

Haddaway - Pop Splits (2005)
EAC Rip | FLAC (Img) + Cue + Log ~ 363 Mb | MP3 CBR320 ~ 145 Mb
Full Scans | 00:43:26 | RAR 5% Recovery
Coconut #0162173COC / Spectre Media #1075215
Euro House / Eurodance / Dance-Pop

Pop Splits is the sixth studio album of dance artist Haddaway, released by German studio Coconut. Alexander Nestor Haddaway, better known by his stage name Haddaway, is a Trinidadian-American singer. He is most famous for his worldwide 1993 hit "What Is Love".

Haddaway was born in Trinidad/Tobago and spent time as a child in different countries. He can now speak English, Dutch, French, German and Cologne. He loves race cars and was even a driver in the Porsche Cup. He worked to get a doctorate in political science and history from George Washington University. Haddaway has also been a choreographer as one of his many occupations.

While it seems like he has had quite a life outside of music, Haddaway is probably best known for his contributions in that field. He has received a World Music Award, a Goldene Europa and more. He was instantly in the spotlight when he released his self-titled debut album in February of 1993, which featured the hit song "What is Love." The album reached number 111 on the Billboard 200 chart and brought attention to this multi-faceted artist. The Euro-dance pop featured on the album was a hit with fans and he was in high demand. That album also feature the hit single "Life (Everybody Needs Somebody to Love)."

He released The Album 2nd Edition the same year, which featured remixes of songs on his first album and adds a few new tracks. The follow up, The Drive, followed but did not garner the same attention as his debut. Despite the lack of commercial success, Haddaway continued to release albums throughout the 1990s and 2000s. His albums include Let's Do It Now (1998), All the Best (1999), My Face (2001), Love Makes (2001) and Pop Splits (2005) as well as a number of greatest hits albums.

***************

Haddaway - Pop Splits (2005)

Track List:

01. Spaceman [3:51]
02. Catch U If I Can [3:21]
03. Haddaway feat. Della Miles / Missionary Man [3:07]
04. Shout [3:42]
05. Turn Her Love [3:48]
06. It Was Nice [3:57]
07. Lay Your Head [3:56]
08. What In The World [3:28]
09. Not In My Bed [3:20]
10. All I Want Is You [3:51]
11. High On You [3:24]
12. Fallen Angel [3:40]

Exact Audio Copy V0.99 prebeta 3 from 28. July 2007

Отчёт EAC об извлечении, выполненном 9. ноября 2010, 18:34

Haddaway / Pop Splits

Дисковод: PIONEER DVD-RW DVR-112D Adapter: 1 ID: 0

Режим чтения : Достоверность
Использование точного потока : Да
Отключение кэша аудио : Да
Использование указателей C2 : Нет

Коррекция смещения при чтении : 48
Способность читать области Lead-in и Lead-out : Нет
Заполнение пропущенных сэмплов тишиной : Да
Удаление блоков с тишиной в начале и конце : Нет
При вычислениях CRC использовались нулевые сэмплы : Да
Интерфейс : Встроенный Win32-интерфейс для Win NT/2000

Выходной формат : Внутренние WAV-операции
Формат сэмплов : 44.100 Гц; 16 бит; стерео


TOC извлечённого CD

Трек | Старт | Длительность | Начальный сектор | Конечный сектор
––––––––––––––––––––––––––––––––––-
1 | 0:00.00 | 3:50.49 | 0 | 17298
2 | 3:50.49 | 3:21.28 | 17299 | 32401
3 | 7:12.02 | 3:06.62 | 32402 | 46413
4 | 10:18.64 | 3:42.23 | 46414 | 63086
5 | 14:01.12 | 3:47.50 | 63087 | 80161
6 | 17:48.62 | 3:57.04 | 80162 | 97940
7 | 21:45.66 | 3:55.73 | 97941 | 115638
8 | 25:41.64 | 3:28.15 | 115639 | 131253
9 | 29:10.04 | 3:20.23 | 131254 | 146276
10 | 32:30.27 | 3:51.00 | 146277 | 163601
11 | 36:21.27 | 3:24.02 | 163602 | 178903
12 | 39:45.29 | 3:40.33 | 178904 | 195436


Характеристики диапазона извлечения и сообщения об ошибках

Выбранный диапазон

Имя файла G:\for tracker\Haddaway\Albums\Haddaway - 2005 - Pop Splits\CDImage.wav

Пиковый уровень 99.9 %
Качество диапазона 99.9 %
CRC теста B6CF5B11
CRC копии B6CF5B11
Копирование… OK

Ошибок не произошло


AccurateRip: сводка

Трек 1 точное извлечение (доверие 1) [7AADDA01]
Трек 2 точное извлечение (доверие 1) [0A300FB3]
Трек 3 точное извлечение (доверие 1) [1A7456C8]
Трек 4 точное извлечение (доверие 1) [8042BA0F]
Трек 5 точное извлечение (доверие 1) [BE5411C1]
Трек 6 точное извлечение (доверие 1) [89CE733C]
Трек 7 точное извлечение (доверие 1) [C43851CF]
Трек 8 точное извлечение (доверие 1) [22E530E9]
Трек 9 точное извлечение (доверие 1) [1FB44483]
Трек 10 точное извлечение (доверие 1) [E9B6A4AA]
Трек 11 точное извлечение (доверие 1) [01D843C8]
Трек 12 точное извлечение (доверие 1) [739A68D8]

Все треки извлечены точно

Конец отчёта

Haddaway - Pop Splits (2005)


All thanks go to jd250872jd

>>> My Blog <<<

DOWNLOAD: