Subcategories

Haircut One Hundred - Pelican West 1982 (2CD Remastered Deluxe Edition 2016)

Posted By: Pisulik
Haircut One Hundred - Pelican West 1982 (2CD Remastered Deluxe Edition 2016)

Haircut One Hundred - Pelican West 1982 (2CD Remastered Deluxe Edition 2016)
EAC Rip | FLAC (Tracks) +cue, log - 821 MB | MP3 CBR 320 kbps - 294 MB | 02:08:37
Brit Pop, Pop Rock, Synthpop, New Wave | Label: | Release Year: 2016

Digitally remastered and expanded deluxe two CD edition of one of the legendary albums of the 80s. Originally released in February 1982 this highly anticipated reissue is the most comprehensive collection available of the original album plus related tracks showcasing Haircut One Hundred at their peak. Haircut One Hundred sprung into the limelight with the release of their first single 'Favorite Shirts (Boy Meets Girl)' soon after having signed to Arista Records. It reached #4 in the UK singles chart. Followed up by 'Love Plus One' peaking at #3 and then 'Fantastic Day' making it to #9 - the band had caught the attention and affection of the buoyant UK music scene when single sales were soaring. The band was at the forefront of the emerging Brit funk wave and created memorable and lasting pop classics. This set also includes the Top 10 hit single Nobody's Fool featuring the 7" and 12" versions. Other bonus material includes the previously unavailable in the UK mixes of Calling Captain Autumn (Special Extended Version) and Love's Got Me In Triangles (Special Extended Version). The 7" and 12" versions of the b/sides Boat Party, Marine Boy, Ski Club Of Great Britain and October Is Orange (Day 1 And Day 2). Many of these have never been available on CD. The CD booklet features artwork from both the original vinyl album and promotional magazine plus extensive sleeve notes and a UK discography.

TRACKLIST

CD1

01 Favourite Shirts (Boy Meets Girl)
02 Love Plus One
03 Lemon Firebrigade
04 Marine Boy
05 Milk Film
06 Kingsize (You’re My Little Steam Whistle)
07 Fantastic Day
08 Baked Bean
09 Snow Girl
10 Love’s Got Me In Triangles
11 Surprise Me Again
12 Calling Captain Autumn

Bonus Tracks

13 Boat Party
14 Ski Club
15 October Is Orange (Day 1 & 2)
16 Nobody’s Fool (7” Single)

Exact Audio Copy V1.1 from 23. June 2015

EAC extraction logfile from 7. February 2017, 17:58

Haircut One Hundred / Pelican West (Deluxe) CD1

Used drive : TSSTcorpCDDVDW SH-S223B Adapter: 1 ID: 0

Read mode : Secure
Utilize accurate stream : Yes
Defeat audio cache : Yes
Make use of C2 pointers : No

Read offset correction : 6
Overread into Lead-In and Lead-Out : No
Fill up missing offset samples with silence : Yes
Delete leading and trailing silent blocks : No
Null samples used in CRC calculations : Yes
Used interface : Native Win32 interface for Win NT & 2000
Gap handling : Appended to previous track

Used output format : User Defined Encoder
Selected bitrate : 1024 kBit/s
Quality : High
Add ID3 tag : No
Command line compressor : C:\Program Files (x86)\Exact Audio Copy\Flac\flac.exe
Additional command line options : -8 -V -T "ARTIST=%artist%" -T "TITLE=%title%" -T "ALBUM=%albumtitle%" -T "DATE=%year%" -T "TRACKNUMBER=%tracknr%" -T "GENRE=%genre%" -T "PERFORMER=%albuminterpret%" -T "COMPOSER=%composer%" %haslyrics%–tag-from-file=LYRICS="%lyricsfile%"%haslyrics% -T "ALBUMARTIST=%albumartist%" -T "DISCNUMBER=%cdnumber%" -T "TOTALDISCS=%totalcds%" -T "TOTALTRACKS=%numtracks%" -T "COMMENT=%comment%" %source% -o %dest%


TOC of the extracted CD

Track | Start | Length | Start sector | End sector
––––––––––––––––––––––––––––-
1 | 0:00.00 | 3:05.27 | 0 | 13901
2 | 3:05.27 | 3:33.35 | 13902 | 29911
3 | 6:38.62 | 3:54.47 | 29912 | 47508
4 | 10:33.34 | 3:27.68 | 47509 | 63101
5 | 14:01.27 | 2:56.52 | 63102 | 76353
6 | 16:58.04 | 4:23.63 | 76354 | 96141
7 | 21:21.67 | 3:13.25 | 96142 | 110641
8 | 24:35.17 | 4:02.60 | 110642 | 128851
9 | 28:38.02 | 2:56.45 | 128852 | 142096
10 | 31:34.47 | 3:36.40 | 142097 | 158336
11 | 35:11.12 | 3:17.23 | 158337 | 173134
12 | 38:28.35 | 4:04.39 | 173135 | 191473
13 | 42:32.74 | 3:49.65 | 191474 | 208713
14 | 46:22.64 | 3:37.64 | 208714 | 225052
15 | 50:00.53 | 4:16.48 | 225053 | 244300
16 | 54:17.26 | 4:13.18 | 244301 | 263293


Track 1

Filename C:\Users\DJ\EAC Rips\Haircut 100-Pelican West 1982 FLAC 2016 Deluxe edition\CD1\01 - Favourite Shirt (Boy Meets Girl).wav

Pre-gap length 0:00:02.00

Peak level 99.6 %
Extraction speed 4.1 X
Track quality 100.0 %
Test CRC E3E2AD7E
Copy CRC E3E2AD7E
Accurately ripped (confidence 5) [A977CDBD] (AR v2)
Copy OK

Track 2

Filename C:\Users\DJ\EAC Rips\Haircut 100-Pelican West 1982 FLAC 2016 Deluxe edition\CD1\02 - Love Plus One.wav

Pre-gap length 0:00:00.18

Peak level 99.7 %
Extraction speed 3.6 X
Track quality 99.9 %
Test CRC 91C82374
Copy CRC 91C82374
Accurately ripped (confidence 5) [687745BF] (AR v2)
Copy OK

Track 3

Filename C:\Users\DJ\EAC Rips\Haircut 100-Pelican West 1982 FLAC 2016 Deluxe edition\CD1\03 - Lemon Firebrigade.wav

Pre-gap length 0:00:00.65

Peak level 97.7 %
Extraction speed 5.0 X
Track quality 100.0 %
Test CRC DC1CA703
Copy CRC DC1CA703
Accurately ripped (confidence 5) [B1CE5D03] (AR v2)
Copy OK

Track 4

Filename C:\Users\DJ\EAC Rips\Haircut 100-Pelican West 1982 FLAC 2016 Deluxe edition\CD1\04 - Marine Boy.wav

Pre-gap length 0:00:00.01

Peak level 97.7 %
Extraction speed 5.3 X
Track quality 100.0 %
Test CRC 151C4823
Copy CRC 151C4823
Accurately ripped (confidence 5) [4D4A6845] (AR v2)
Copy OK

Track 5

Filename C:\Users\DJ\EAC Rips\Haircut 100-Pelican West 1982 FLAC 2016 Deluxe edition\CD1\05 - Milk Film.wav

Peak level 97.7 %
Extraction speed 5.4 X
Track quality 100.0 %
Test CRC 10B61871
Copy CRC 10B61871
Accurately ripped (confidence 5) [756861CC] (AR v2)
Copy OK

Track 6

Filename C:\Users\DJ\EAC Rips\Haircut 100-Pelican West 1982 FLAC 2016 Deluxe edition\CD1\06 - Kingsize (You're My Little Steam Whistle).wav

Pre-gap length 0:00:01.00

Peak level 97.7 %
Extraction speed 6.1 X
Track quality 100.0 %
Test CRC 0D056EDB
Copy CRC 0D056EDB
Accurately ripped (confidence 5) [9C3E2765] (AR v2)
Copy OK

Track 7

Filename C:\Users\DJ\EAC Rips\Haircut 100-Pelican West 1982 FLAC 2016 Deluxe edition\CD1\07 - Fantastic Day.wav

Pre-gap length 0:00:00.96

Peak level 99.8 %
Extraction speed 6.0 X
Track quality 100.0 %
Test CRC 864AB60B
Copy CRC 864AB60B
Accurately ripped (confidence 5) [C060CA8A] (AR v2)
Copy OK

Track 8

Filename C:\Users\DJ\EAC Rips\Haircut 100-Pelican West 1982 FLAC 2016 Deluxe edition\CD1\08 - Baked Bean.wav

Peak level 97.7 %
Extraction speed 6.5 X
Track quality 100.0 %
Test CRC ACA3F543
Copy CRC ACA3F543
Accurately ripped (confidence 5) [E9431514] (AR v2)
Copy OK

Track 9

Filename C:\Users\DJ\EAC Rips\Haircut 100-Pelican West 1982 FLAC 2016 Deluxe edition\CD1\09 - Snow Girl.wav

Pre-gap length 0:00:00.48

Peak level 97.7 %
Extraction speed 4.9 X
Track quality 99.9 %
Test CRC FE199494
Copy CRC FE199494
Accurately ripped (confidence 5) [937347D1] (AR v2)
Copy OK

Track 10

Filename C:\Users\DJ\EAC Rips\Haircut 100-Pelican West 1982 FLAC 2016 Deluxe edition\CD1\10 - Love's Got Me In Triangles.wav

Pre-gap length 0:00:00.36

Peak level 99.6 %
Extraction speed 6.9 X
Track quality 100.0 %
Test CRC ED5E7E6C
Copy CRC ED5E7E6C
Accurately ripped (confidence 5) [F6791A87] (AR v2)
Copy OK

Track 11

Filename C:\Users\DJ\EAC Rips\Haircut 100-Pelican West 1982 FLAC 2016 Deluxe edition\CD1\11 - Surprise Me Again.wav

Pre-gap length 0:00:00.20

Peak level 97.7 %
Extraction speed 7.0 X
Track quality 100.0 %
Test CRC 6C2852E9
Copy CRC 6C2852E9
Accurately ripped (confidence 5) [FD10688E] (AR v2)
Copy OK

Track 12

Filename C:\Users\DJ\EAC Rips\Haircut 100-Pelican West 1982 FLAC 2016 Deluxe edition\CD1\12 - Calling Captain Autumn.wav

Peak level 99.6 %
Extraction speed 7.4 X
Track quality 100.0 %
Test CRC 14C3B29D
Copy CRC 14C3B29D
Accurately ripped (confidence 5) [82C240CF] (AR v2)
Copy OK

Track 13

Filename C:\Users\DJ\EAC Rips\Haircut 100-Pelican West 1982 FLAC 2016 Deluxe edition\CD1\13 - Boat Party.wav

Pre-gap length 0:00:01.14

Peak level 99.6 %
Extraction speed 7.3 X
Track quality 100.0 %
Test CRC EAE6BB4F
Copy CRC EAE6BB4F
Accurately ripped (confidence 5) [036AEDA4] (AR v2)
Copy OK

Track 14

Filename C:\Users\DJ\EAC Rips\Haircut 100-Pelican West 1982 FLAC 2016 Deluxe edition\CD1\14 - Ski Club.wav

Pre-gap length 0:00:00.45

Peak level 99.7 %
Extraction speed 7.7 X
Track quality 100.0 %
Test CRC E940F884
Copy CRC E940F884
Accurately ripped (confidence 5) [7E42714F] (AR v2)
Copy OK

Track 15

Filename C:\Users\DJ\EAC Rips\Haircut 100-Pelican West 1982 FLAC 2016 Deluxe edition\CD1\15 - October Is Orange (Day 1 & 2).wav

Pre-gap length 0:00:00.86

Peak level 99.6 %
Extraction speed 6.5 X
Track quality 99.9 %
Test CRC 323A80AF
Copy CRC 323A80AF
Accurately ripped (confidence 5) [41D0D764] (AR v2)
Copy OK

Track 16

Filename C:\Users\DJ\EAC Rips\Haircut 100-Pelican West 1982 FLAC 2016 Deluxe edition\CD1\16 - Nobody's Fool (7'' Single).wav

Pre-gap length 0:00:00.30

Peak level 100.0 %
Extraction speed 8.2 X
Track quality 100.0 %
Test CRC 4C7E4E10
Copy CRC 4C7E4E10
Accurately ripped (confidence 5) [765C9C3B] (AR v2)
Copy OK


All tracks accurately ripped

No errors occurred

End of status report

–– CUETools DB Plugin V2.1.6

[CTDB TOCID: 3Hg6o9jdKUTQ7_1saHvBPoProA4-] found
Submit result: 3Hg6o9jdKUTQ7_1saHvBPoProA4- has been confirmed
Track | CTDB Status
1 | (12/12) Accurately ripped
2 | (12/12) Accurately ripped
3 | (12/12) Accurately ripped
4 | (12/12) Accurately ripped
5 | (12/12) Accurately ripped
6 | (12/12) Accurately ripped
7 | (12/12) Accurately ripped
8 | (12/12) Accurately ripped
9 | (12/12) Accurately ripped
10 | (12/12) Accurately ripped
11 | (12/12) Accurately ripped
12 | (12/12) Accurately ripped
13 | (12/12) Accurately ripped
14 | (12/12) Accurately ripped
15 | (12/12) Accurately ripped
16 | (12/12) Accurately ripped


==== Log checksum 8E0BF1338E0EB7E0007A1F2AF17BCF94D7C30967DE8B188C4E59D7E77ECB92D5 ====


CD2 The Mixes

01 Favourite Shirts (Boy Meets Girl) (12” Version)
02 Love Plus One (12” Version)
03 Fantastic Day (12” Version)
04 Nobody’s Fool (12” Version)
05 Calling Captain Autumn (Special Extended Version)
06 Boat Party (12” Version)
07 October Is Orange (Day 1 & 2) (12” Version)
08 Ski Club Of Great Britain
09 Marine Boy (12” Version)
10 Love’s Got Me In Triangles (Special Extended Version)
11 Favourite Shirts (Boy Meets Girl) (Extended Version)
12 Fantastic Day (Live)
13 Calling Captain Autumn (12” Version)

Exact Audio Copy V1.1 from 23. June 2015

EAC extraction logfile from 7. February 2017, 17:30

Haircut One Hundred / Pelican West (Deluxe) CD2

Used drive : TSSTcorpCDDVDW SH-S223B Adapter: 1 ID: 0

Read mode : Secure
Utilize accurate stream : Yes
Defeat audio cache : Yes
Make use of C2 pointers : No

Read offset correction : 6
Overread into Lead-In and Lead-Out : No
Fill up missing offset samples with silence : Yes
Delete leading and trailing silent blocks : No
Null samples used in CRC calculations : Yes
Used interface : Native Win32 interface for Win NT & 2000
Gap handling : Appended to previous track

Used output format : User Defined Encoder
Selected bitrate : 1024 kBit/s
Quality : High
Add ID3 tag : No
Command line compressor : C:\Program Files (x86)\Exact Audio Copy\Flac\flac.exe
Additional command line options : -8 -V -T "ARTIST=%artist%" -T "TITLE=%title%" -T "ALBUM=%albumtitle%" -T "DATE=%year%" -T "TRACKNUMBER=%tracknr%" -T "GENRE=%genre%" -T "PERFORMER=%albuminterpret%" -T "COMPOSER=%composer%" %haslyrics%–tag-from-file=LYRICS="%lyricsfile%"%haslyrics% -T "ALBUMARTIST=%albumartist%" -T "DISCNUMBER=%cdnumber%" -T "TOTALDISCS=%totalcds%" -T "TOTALTRACKS=%numtracks%" -T "COMMENT=%comment%" %source% -o %dest%


TOC of the extracted CD

Track | Start | Length | Start sector | End sector
––––––––––––––––––––––––––––-
1 | 0:00.00 | 6:28.16 | 0 | 29115
2 | 6:28.16 | 5:39.52 | 29116 | 54592
3 | 12:07.68 | 4:18.55 | 54593 | 73997
4 | 16:26.48 | 4:58.36 | 73998 | 96383
5 | 21:25.09 | 4:33.62 | 96384 | 116920
6 | 25:58.71 | 5:32.43 | 116921 | 141863
7 | 31:31.39 | 5:10.48 | 141864 | 165161
8 | 36:42.12 | 5:53.19 | 165162 | 191655
9 | 42:35.31 | 4:49.26 | 191656 | 213356
10 | 47:24.57 | 5:09.69 | 213357 | 236600
11 | 52:34.51 | 7:10.07 | 236601 | 268857
12 | 59:44.58 | 4:21.42 | 268858 | 288474
13 | 64:06.25 | 6:00.15 | 288475 | 315489


Track 1

Filename C:\Users\DJ\EAC Rips\Haircut 100-Pelican West 1982 FLAC 2016 Deluxe edition\CD2\01 - Favourite Shirts (Boy Meets Girl) (12'' Version).wav

Pre-gap length 0:00:02.00

Peak level 99.6 %
Extraction speed 5.2 X
Track quality 100.0 %
Test CRC A1D9CDB3
Copy CRC A1D9CDB3
Accurately ripped (confidence 5) [F9ED60A4] (AR v2)
Copy OK

Track 2

Filename C:\Users\DJ\EAC Rips\Haircut 100-Pelican West 1982 FLAC 2016 Deluxe edition\CD2\02 - Love Plus One (12'' Version).wav

Pre-gap length 0:00:01.05

Peak level 99.7 %
Extraction speed 5.7 X
Track quality 100.0 %
Test CRC 472DAA4E
Copy CRC 472DAA4E
Accurately ripped (confidence 5) [40306328] (AR v2)
Copy OK

Track 3

Filename C:\Users\DJ\EAC Rips\Haircut 100-Pelican West 1982 FLAC 2016 Deluxe edition\CD2\03 - Fantastic Day (12'' Version).wav

Pre-gap length 0:00:00.50

Peak level 99.8 %
Extraction speed 6.0 X
Track quality 100.0 %
Test CRC 3751395D
Copy CRC 3751395D
Accurately ripped (confidence 5) [5FE5A048] (AR v2)
Copy OK

Track 4

Filename C:\Users\DJ\EAC Rips\Haircut 100-Pelican West 1982 FLAC 2016 Deluxe edition\CD2\04 - Nobody's Fool (12'' Version).wav

Pre-gap length 0:00:01.34

Peak level 100.0 %
Extraction speed 5.5 X
Track quality 99.9 %
Test CRC 43541D25
Copy CRC 43541D25
Accurately ripped (confidence 5) [49620994] (AR v2)
Copy OK

Track 5

Filename C:\Users\DJ\EAC Rips\Haircut 100-Pelican West 1982 FLAC 2016 Deluxe edition\CD2\05 - Calling Captain Autumn (Special Extended Version).wav

Pre-gap length 0:00:00.34

Peak level 99.6 %
Extraction speed 6.8 X
Track quality 100.0 %
Test CRC 283C25F7
Copy CRC 283C25F7
Accurately ripped (confidence 5) [2941BD82] (AR v2)
Copy OK

Track 6

Filename C:\Users\DJ\EAC Rips\Haircut 100-Pelican West 1982 FLAC 2016 Deluxe edition\CD2\06 - Boat Party (12'' Version).wav

Pre-gap length 0:00:00.13

Peak level 99.6 %
Extraction speed 7.3 X
Track quality 100.0 %
Test CRC EA56A2D7
Copy CRC EA56A2D7
Accurately ripped (confidence 5) [7ADECF0C] (AR v2)
Copy OK

Track 7

Filename C:\Users\DJ\EAC Rips\Haircut 100-Pelican West 1982 FLAC 2016 Deluxe edition\CD2\07 - October Is Orange (Day 1 & 2) (12'' Version).wav

Pre-gap length 0:00:00.14

Peak level 99.7 %
Extraction speed 7.8 X
Track quality 100.0 %
Test CRC 8A438C6E
Copy CRC 8A438C6E
Accurately ripped (confidence 5) [969BC5CE] (AR v2)
Copy OK

Track 8

Filename C:\Users\DJ\EAC Rips\Haircut 100-Pelican West 1982 FLAC 2016 Deluxe edition\CD2\08 - Ski Club Of Great Britain.wav

Pre-gap length 0:00:00.17

Peak level 99.7 %
Extraction speed 6.8 X
Track quality 99.9 %
Test CRC DE0A1777
Copy CRC DE0A1777
Accurately ripped (confidence 5) [99F3037F] (AR v2)
Copy OK

Track 9

Filename C:\Users\DJ\EAC Rips\Haircut 100-Pelican West 1982 FLAC 2016 Deluxe edition\CD2\09 - Marine Boy (12'' Version).wav

Pre-gap length 0:00:00.25

Peak level 100.0 %
Extraction speed 8.2 X
Track quality 100.0 %
Test CRC 79D3AB25
Copy CRC 79D3AB25
Accurately ripped (confidence 5) [D1414AA0] (AR v2)
Copy OK

Track 10

Filename C:\Users\DJ\EAC Rips\Haircut 100-Pelican West 1982 FLAC 2016 Deluxe edition\CD2\10 - Love's Got Me In Triangles (Special Extended Version).wav

Pre-gap length 0:00:00.14

Peak level 99.6 %
Extraction speed 8.6 X
Track quality 100.0 %
Test CRC DB156487
Copy CRC DB156487
Accurately ripped (confidence 5) [C79519F1] (AR v2)
Copy OK

Track 11

Filename C:\Users\DJ\EAC Rips\Haircut 100-Pelican West 1982 FLAC 2016 Deluxe edition\CD2\11 - Favourite Shirts (Boy Meets Girl) (Extended Version).wav

Pre-gap length 0:00:00.08

Peak level 99.6 %
Extraction speed 9.1 X
Track quality 100.0 %
Test CRC B543620C
Copy CRC B543620C
Accurately ripped (confidence 5) [A6D27746] (AR v2)
Copy OK

Track 12

Filename C:\Users\DJ\EAC Rips\Haircut 100-Pelican West 1982 FLAC 2016 Deluxe edition\CD2\12 - Fantastic Day (Live).wav

Pre-gap length 0:00:00.20

Peak level 99.6 %
Extraction speed 9.0 X
Track quality 100.0 %
Test CRC 7D5317C1
Copy CRC 7D5317C1
Accurately ripped (confidence 5) [01484930] (AR v2)
Copy OK

Track 13

Filename C:\Users\DJ\EAC Rips\Haircut 100-Pelican West 1982 FLAC 2016 Deluxe edition\CD2\13 - Calling Captain Autumn (12'' Version).wav

Pre-gap length 0:00:00.37

Peak level 99.8 %
Extraction speed 8.0 X
Track quality 99.9 %
Test CRC 5F9E8500
Copy CRC 5F9E8500
Accurately ripped (confidence 5) [A00A43FF] (AR v2)
Copy OK


All tracks accurately ripped

No errors occurred

End of status report

–– CUETools DB Plugin V2.1.6

[CTDB TOCID: 8DQ54WJU0mxgnttg3von29rkuxo-] found
Submit result: 8DQ54WJU0mxgnttg3von29rkuxo- has been confirmed
Track | CTDB Status
1 | (10/10) Accurately ripped
2 | (10/10) Accurately ripped
3 | (10/10) Accurately ripped
4 | (10/10) Accurately ripped
5 | (10/10) Accurately ripped
6 | (10/10) Accurately ripped
7 | (10/10) Accurately ripped
8 | (10/10) Accurately ripped
9 | (10/10) Accurately ripped
10 | (10/10) Accurately ripped
11 | (10/10) Accurately ripped
12 | (10/10) Accurately ripped
13 | (10/10) Accurately ripped


==== Log checksum A5A65A8DC9F3155F3546BF76BE4D01B2ADB542C9453DC569CC8AA710757BC7A6 ====


All thanks go to the original releaser