Tags
Language
Tags
May 2024
Su Mo Tu We Th Fr Sa
28 29 30 1 2 3 4
5 6 7 8 9 10 11
12 13 14 15 16 17 18
19 20 21 22 23 24 25
26 27 28 29 30 31 1

VA - Halcyon Days (60s Mod, R&B, Brit Soul & Freakbeat Nuggets) (2020)

Posted By: Rtax
VA - Halcyon Days (60s Mod, R&B, Brit Soul & Freakbeat Nuggets) (2020)

VA - Halcyon Days (60s Mod, R&B, Brit Soul & Freakbeat Nuggets) (2020)
XLD Rip | FLAC (tracks, cue, log, booklet) - 996 MB | MP3 CBR 320 kbps - 555 MB
3:57:07 | Beat, Mod, Garage Rock, Ska, Psychedelic Rock, Rhythm & Blues | Label: Strawberry

UK three CD set. Halcyon Days charts the development of mod friendly beat music across three CDs from the jazzy R&B of Chris Farlowe, Duffy Power with Graham Bond and Zoot Money that opens disc one through horn laden Brit soul from Jimmy James, Geno Washington and The Richard Kent Style, ska from Mickey Finn & The Blue Men, girl group pop from The Chantelles and fuzz drenched freakbeat from The Pretty Things and The Worrying Kynde. Producer Mike Hurst opens his archives allowing us to include freakbeat nuggets from The Australian Playboys, The Human Instinct, The Favourite Sons, Double Feature and The Oscar Bicycle plus orchestrated pop gems from the soulful Truly Smith, psychedelic The Alan Bown!, Swedish mods The Tages and dramatic singing twins Paul & Barry Ryan. First time on CD rarities include British R&B, soul and mod beat tracks from The Athenians, The Fingers, The Candy Dates, Barney J. Barnes & The Intro, Kevin 'King' Lear, Dorian Gray, Barry St. John

Tracklist
Disc: 1
1 Buzz with the Fuzz -Chris Farlowe & the Thunderbirds
2 What'd I Say - Duffy Power with the Graham Bond Quartet
3 Big Time Operator - Zoot Money's Big Roll Band
4 Don't Bring Me Down - the Animals
5 Shake - Rod Stewart
6 Little Bitty Pretty One - Ronnie Jones
7 I Feel Alright - Jimmy James & the Vagabonds
8 Just a Little Misunderstanding -The Richard Kent Style
9 Number One - the Stormsville Shakers
10 See Saw - the Union
11 Harlem Shuffle -The Mike Cotton Sound
12 I Can't Stand It - the Athenians
13 All I Need - Geno Washington & the Ram Jam Band
14 I've Been Weeping and Crying -Laurel Aitken
15 Try Me - Laris McLennon
16 Well I Do - the Candy Dates
17 Shame, Shame, Shame - the SW4
18 I Love the Way You Walk -Tony Rivers & the Castaways
19 Look Away - the Fingers
20 Hush Your Mouth -Mickey Finn & the Blue Men
21 Everytime I Do -Rupert & the Red Devils
22 Looking for My Baby (Ska Beat Version) - Laurel Aitken
23 Can't Stand the Pain -Barney J. Barnes & the Intro
24 Watermelon Man -The Mark Wirtz Orchestra & Chorus
25 Baby Never Say Goodbye -The Bo Street Runners
26 (You Got) the Power of Love -Kevin 'King' Lear
27 Gonna Get Burned - the Chantelles
28 Gotta Brand New Man - Barry St. John
29 Stupidity - the Trendbender Band
Disc: 2
1 Biff, Bang, Pow - the Creation
2 She's Got Everything (Mono Single Mix) - the Kinks
3 Do Anything You Say - David Bowie
4 I Take What I Want - the Artwoods
5 Buzz the Jerk - the Pretty Things
6 Bo Street Runner (Single Version) - the Bo Street Runners
7 Stroll on - the Yardbirds
8 Waltz for a Pig - the Graham Bond Organisation (A.K.A. the Who Orchestra)
9 Tiger - Brian Auger & the Trinity
10 Mr. Pearly - Kevin 'King' Lear
11 Get Goin' Baby - Dorian Gray
12 Leavin' Here - the Favourite Sons
13 Come on Go (Demo) - Force Four
14 Gloria's Dream (Single Mix) -Belfast Gypsies
15 Remember Thomas À Becket -John's Children
16 Why - the End
17 Gimme Little Sign - Rainbow Ffolly
18 No Problem - Phillip Goodhand-Tait & the Stormsville Shakers
19 Makin' My Mind Up - Katch 22
20 Come on Baby - Double Feature
21 He Can Win - the Moody Blues
22 Am I Glad to See You -The in Crowd
23 Diggin' for Gold -David John & the Mood
24 I'm Not a Bad Guy - Heinz
25 Got the Blame - the Worrying Kynde
26 You've Got Something -Paul's Troubles
27 Walking Down a Backstreet -Dorian Gray
28 Gun Me Down - Ray French
29 She's Dangerous - the Secrets
30 Green Door (Mono Single Mix) - Wynder K. Frog
31 Halcyon Days - the Tages
Disc: 3
1 Look at the View - the Action
2 One Girl City - Fleur de Lys
3 I'm a Man - the Web
4 Moonshine (Stereo) -The Spencer Davis Group
5 Mrs. Bailey's Barbecue and Grill - Sleepy
6 Hold on - Jason Crest
7 Baby Get Your Head Screwed on - Double Feature
8 The Room Revolves Around Me - the Oscar Bicycle
9 Dreams Don't Bother Me -The Shame
10 Technicolour Dream (Mono Single Mix) - the Alan Bown!
11 This Is the First Time - Truly Smith
12 Keep It Out of Sight -Paul & Barry Ryan
13 Your Way to Tell Me - Plastic Penny
14 The Stamping Machine (Demo) - July
15 Sad - the Australian Playboys
16 Pink Dawn - the Human Instinct
17 Baby You're Not to Blame -Plastic Penny
18 Fool from Upper Eden -Andy Ellison
19 53 Summer Street - Turquoise
20 Yes - Grapefruit
21 Fourpenny Bus Ride -Dantalian's Chariot
22 Doctor Rock (Single Mix) - Apple
23 People! Let's Freak Out (Single Mix) - the Freaks of Nature (Alias Belfast Gypsies)
24 Engine 4444 - Quiet Melon
25 Picture of Her -The Spencer Davis Group
26 I'm Coming 'Round (To Her Way of Thinking) - Kris Ife
27 Rest Cure -The Crazy World of Arthur Brown
X Lossless Decoder version 20230627 (156.1)

XLD extraction logfile from 2024-02-11 18:48:05 -0800

Various Artists / Halcyon Days [Disc 1]

Used drive : PIONEER BD-RW BDR-XD07U (revision 1.01)
Media type : Pressed CD

Ripper mode : XLD Secure Ripper
Disable audio cache : OK for the drive with a cache less than 1375KiB
Make use of C2 pointers : NO
Read offset correction : 667
Max retry count : 100
Gap status : Analyzed, Appended (except HTOA)

TOC of the extracted CD
Track | Start | Length | Start sector | End sector
––––––––––––––––––––––––––––-
1 | 00:00:00 | 02:32:44 | 0 | 11443
2 | 02:32:44 | 04:55:53 | 11444 | 33621
3 | 07:28:22 | 02:42:05 | 33622 | 45776
4 | 10:10:27 | 03:18:18 | 45777 | 60644
5 | 13:28:45 | 02:51:38 | 60645 | 73507
6 | 16:20:08 | 02:47:09 | 73508 | 86041
7 | 19:07:17 | 02:36:61 | 86042 | 97802
8 | 21:44:03 | 02:25:73 | 97803 | 108750
9 | 24:10:01 | 02:27:08 | 108751 | 119783
10 | 26:37:09 | 03:36:69 | 119784 | 136052
11 | 30:14:03 | 02:38:55 | 136053 | 147957
12 | 32:52:58 | 02:22:03 | 147958 | 158610
13 | 35:14:61 | 02:54:44 | 158611 | 171704
14 | 38:09:30 | 02:41:25 | 171705 | 183804
15 | 40:50:55 | 03:06:04 | 183805 | 197758
16 | 43:56:59 | 02:55:17 | 197759 | 210900
17 | 46:52:01 | 02:20:14 | 210901 | 221414
18 | 49:12:15 | 02:05:31 | 221415 | 230820
19 | 51:17:46 | 02:05:67 | 230821 | 240262
20 | 53:23:38 | 02:37:56 | 240263 | 252093
21 | 56:01:19 | 02:11:05 | 252094 | 261923
22 | 58:12:24 | 02:44:05 | 261924 | 274228
23 | 60:56:29 | 02:20:63 | 274229 | 284791
24 | 63:17:17 | 03:26:41 | 284792 | 300282
25 | 66:43:58 | 02:38:11 | 300283 | 312143
26 | 69:21:69 | 02:38:50 | 312144 | 324043
27 | 72:00:44 | 02:35:44 | 324044 | 335712
28 | 74:36:13 | 02:22:47 | 335713 | 346409
29 | 76:58:60 | 02:46:38 | 346410 | 358897

AccurateRip Summary (DiscID: 005540fe-06c8b40c-af12b11d)
Track 01 : OK (v2, confidence 6/6)
Track 02 : OK (v2, confidence 5/5)
Track 03 : OK (v2, confidence 6/6)
Track 04 : OK (v2, confidence 5/5)
Track 05 : OK (v2, confidence 6/6)
Track 06 : OK (v2, confidence 6/6)
Track 07 : OK (v2, confidence 6/6)
Track 08 : OK (v2, confidence 5/5)
Track 09 : OK (v2, confidence 6/6)
Track 10 : OK (v2, confidence 5/5)
Track 11 : OK (v2, confidence 6/6)
Track 12 : OK (v2, confidence 5/5)
Track 13 : OK (v2, confidence 6/6)
Track 14 : OK (v2, confidence 6/6)
Track 15 : OK (v2, confidence 5/5)
Track 16 : OK (v2, confidence 6/6)
Track 17 : OK (v2, confidence 5/5)
Track 18 : OK (v2, confidence 6/6)
Track 19 : OK (v2, confidence 5/5)
Track 20 : OK (v2, confidence 6/6)
Track 21 : OK (v2, confidence 5/5)
Track 22 : OK (v2, confidence 6/6)
Track 23 : OK (v2, confidence 6/6)
Track 24 : OK (v2, confidence 6/6)
Track 25 : OK (v2, confidence 6/6)
Track 26 : OK (v2, confidence 6/6)
Track 27 : OK (v2, confidence 6/6)
Track 28 : OK (v2, confidence 6/6)
Track 29 : OK (v2, confidence 5/5)
->All tracks accurately ripped.

All Tracks
Album gain : -7.37 dB
Peak : 0.966064
Statistics
Read error : 0
Jitter error (maybe fixed) : 0
Retry sector count : 0
Damaged sector count : 0

Track 01
Filename : /Users/jg77/Music/Various Artists - Halcyon Days [Disc 1] (2020) [FLAC]/01 Buzz With the Fuzz.flac
Pre-gap length : 00:02:00

Track gain : -6.13 dB
Peak : 0.966064
CRC32 hash (test run) : 5CF59E28
CRC32 hash : 5CF59E28
CRC32 hash (skip zero) : AA019648
AccurateRip v1 signature : C0A430EF
AccurateRip v2 signature : A40AFC61
->Accurately ripped (v2, confidence 6/6)
Statistics
Read error : 0
Jitter error (maybe fixed) : 0
Retry sector count : 0
Damaged sector count : 0

Track 02
Filename : /Users/jg77/Music/Various Artists - Halcyon Days [Disc 1] (2020) [FLAC]/02 What'd I Say.flac
Pre-gap length : 00:01:45

Track gain : -5.48 dB
Peak : 0.966064
CRC32 hash (test run) : D13063DF
CRC32 hash : D13063DF
CRC32 hash (skip zero) : AF5FCE45
AccurateRip v1 signature : 6858251F
AccurateRip v2 signature : 67E2D957
->Accurately ripped (v2, confidence 5/5)
Statistics
Read error : 0
Jitter error (maybe fixed) : 0
Retry sector count : 0
Damaged sector count : 0

Track 03
Filename : /Users/jg77/Music/Various Artists - Halcyon Days [Disc 1] (2020) [FLAC]/03 Big Time Operator.flac
Pre-gap length : 00:01:45

Track gain : -6.91 dB
Peak : 0.966064
CRC32 hash (test run) : 4A128277
CRC32 hash : 4A128277
CRC32 hash (skip zero) : F1C22A0E
AccurateRip v1 signature : 40D2B4F6
AccurateRip v2 signature : 92D3A8B7
->Accurately ripped (v2, confidence 6/6)
Statistics
Read error : 0
Jitter error (maybe fixed) : 0
Retry sector count : 0
Damaged sector count : 0

Track 04
Filename : /Users/jg77/Music/Various Artists - Halcyon Days [Disc 1] (2020) [FLAC]/04 Don't Bring Me Down.flac
Pre-gap length : 00:01:45

Track gain : -6.88 dB
Peak : 0.966064
CRC32 hash (test run) : FD78AADC
CRC32 hash : FD78AADC
CRC32 hash (skip zero) : C8DF219F
AccurateRip v1 signature : 3CC8B038
AccurateRip v2 signature : 7F050935
->Accurately ripped (v2, confidence 5/5)
Statistics
Read error : 0
Jitter error (maybe fixed) : 0
Retry sector count : 0
Damaged sector count : 0

Track 05
Filename : /Users/jg77/Music/Various Artists - Halcyon Days [Disc 1] (2020) [FLAC]/05 Shake.flac
Pre-gap length : 00:01:45

Track gain : -7.09 dB
Peak : 0.966064
CRC32 hash (test run) : 9D9CBF1C
CRC32 hash : 9D9CBF1C
CRC32 hash (skip zero) : EF1619AA
AccurateRip v1 signature : B830A6C6
AccurateRip v2 signature : B8F70D71
->Accurately ripped (v2, confidence 6/6)
Statistics
Read error : 0
Jitter error (maybe fixed) : 0
Retry sector count : 0
Damaged sector count : 0

Track 06
Filename : /Users/jg77/Music/Various Artists - Halcyon Days [Disc 1] (2020) [FLAC]/06 Little Bitty Pretty One.flac
Pre-gap length : 00:01:45

Track gain : -7.28 dB
Peak : 0.912018
CRC32 hash (test run) : 905345E6
CRC32 hash : 905345E6
CRC32 hash (skip zero) : C50CA81D
AccurateRip v1 signature : 7F300883
AccurateRip v2 signature : FB2EA7F3
->Accurately ripped (v2, confidence 6/6)
Statistics
Read error : 0
Jitter error (maybe fixed) : 0
Retry sector count : 0
Damaged sector count : 0

Track 07
Filename : /Users/jg77/Music/Various Artists - Halcyon Days [Disc 1] (2020) [FLAC]/07 I Feel Alright.flac
Pre-gap length : 00:01:45

Track gain : -6.94 dB
Peak : 0.916504
CRC32 hash (test run) : 67BA9493
CRC32 hash : 67BA9493
CRC32 hash (skip zero) : FE5960A2
AccurateRip v1 signature : E7358470
AccurateRip v2 signature : CAEB0FC1
->Accurately ripped (v2, confidence 6/6)
Statistics
Read error : 0
Jitter error (maybe fixed) : 0
Retry sector count : 0
Damaged sector count : 0

Track 08
Filename : /Users/jg77/Music/Various Artists - Halcyon Days [Disc 1] (2020) [FLAC]/08 Just a Little Misunderstanding.flac
Pre-gap length : 00:01:45

Track gain : -7.71 dB
Peak : 0.966064
CRC32 hash (test run) : 31B80106
CRC32 hash : 31B80106
CRC32 hash (skip zero) : 9A649921
AccurateRip v1 signature : 602D1DF1
AccurateRip v2 signature : AF908775
->Accurately ripped (v2, confidence 5/5)
Statistics
Read error : 0
Jitter error (maybe fixed) : 0
Retry sector count : 0
Damaged sector count : 0

Track 09
Filename : /Users/jg77/Music/Various Artists - Halcyon Days [Disc 1] (2020) [FLAC]/09 Number One.flac
Pre-gap length : 00:01:45

Track gain : -7.73 dB
Peak : 0.966064
CRC32 hash (test run) : 1099A4A0
CRC32 hash : 1099A4A0
CRC32 hash (skip zero) : 54D3264E
AccurateRip v1 signature : 49122CAA
AccurateRip v2 signature : 8AF5A1FE
->Accurately ripped (v2, confidence 6/6)
Statistics
Read error : 0
Jitter error (maybe fixed) : 0
Retry sector count : 0
Damaged sector count : 0

Track 10
Filename : /Users/jg77/Music/Various Artists - Halcyon Days [Disc 1] (2020) [FLAC]/10 See Saw.flac
Pre-gap length : 00:01:45

Track gain : -7.54 dB
Peak : 0.966064
CRC32 hash (test run) : D2F4D345
CRC32 hash : D2F4D345
CRC32 hash (skip zero) : 110D0E05
AccurateRip v1 signature : FC6C324F
AccurateRip v2 signature : 3BA93AA8
->Accurately ripped (v2, confidence 5/5)
Statistics
Read error : 0
Jitter error (maybe fixed) : 0
Retry sector count : 0
Damaged sector count : 0

Track 11
Filename : /Users/jg77/Music/Various Artists - Halcyon Days [Disc 1] (2020) [FLAC]/11 Harlem Shuffle.flac
Pre-gap length : 00:01:45

Track gain : -6.80 dB
Peak : 0.966064
CRC32 hash (test run) : F9AD50F1
CRC32 hash : F9AD50F1
CRC32 hash (skip zero) : AC941BEF
AccurateRip v1 signature : 8F6AF5C1
AccurateRip v2 signature : 4CF341E9
->Accurately ripped (v2, confidence 6/6)
Statistics
Read error : 0
Jitter error (maybe fixed) : 0
Retry sector count : 0
Damaged sector count : 0

Track 12
Filename : /Users/jg77/Music/Various Artists - Halcyon Days [Disc 1] (2020) [FLAC]/12 I Can't Stand It.flac
Pre-gap length : 00:01:45

Track gain : -8.42 dB
Peak : 0.966064
CRC32 hash (test run) : FBBF04D7
CRC32 hash : FBBF04D7
CRC32 hash (skip zero) : 74D97D79
AccurateRip v1 signature : 27F056A1
AccurateRip v2 signature : 66EA3743
->Accurately ripped (v2, confidence 5/5)
Statistics
Read error : 0
Jitter error (maybe fixed) : 0
Retry sector count : 0
Damaged sector count : 0

Track 13
Filename : /Users/jg77/Music/Various Artists - Halcyon Days [Disc 1] (2020) [FLAC]/13 All I Need.flac
Pre-gap length : 00:01:45

Track gain : -6.95 dB
Peak : 0.966064
CRC32 hash (test run) : A9F780BE
CRC32 hash : A9F780BE
CRC32 hash (skip zero) : E5B7CF35
AccurateRip v1 signature : BB4307C8
AccurateRip v2 signature : 31E4692F
->Accurately ripped (v2, confidence 6/6)
Statistics
Read error : 0
Jitter error (maybe fixed) : 0
Retry sector count : 0
Damaged sector count : 0

Track 14
Filename : /Users/jg77/Music/Various Artists - Halcyon Days [Disc 1] (2020) [FLAC]/14 I've Been Weeping and Crying.flac
Pre-gap length : 00:01:45

Track gain : -6.72 dB
Peak : 0.966064
CRC32 hash (test run) : 2DBC46AD
CRC32 hash : 2DBC46AD
CRC32 hash (skip zero) : D82BE8EB
AccurateRip v1 signature : BA410C7A
AccurateRip v2 signature : 2C5CBE7E
->Accurately ripped (v2, confidence 6/6)
Statistics
Read error : 0
Jitter error (maybe fixed) : 0
Retry sector count : 0
Damaged sector count : 0

Track 15
Filename : /Users/jg77/Music/Various Artists - Halcyon Days [Disc 1] (2020) [FLAC]/15 Try Me.flac
Pre-gap length : 00:01:45

Track gain : -5.31 dB
Peak : 0.966064
CRC32 hash (test run) : A4704D13
CRC32 hash : A4704D13
CRC32 hash (skip zero) : 097C0E3B
AccurateRip v1 signature : 1694F629
AccurateRip v2 signature : 1C0CDF26
->Accurately ripped (v2, confidence 5/5)
Statistics
Read error : 0
Jitter error (maybe fixed) : 0
Retry sector count : 0
Damaged sector count : 0

Track 16
Filename : /Users/jg77/Music/Various Artists - Halcyon Days [Disc 1] (2020) [FLAC]/16 Well I Do.flac
Pre-gap length : 00:01:45

Track gain : -7.53 dB
Peak : 0.966064
CRC32 hash (test run) : 2B8DFDDB
CRC32 hash : 2B8DFDDB
CRC32 hash (skip zero) : A0CE86F1
AccurateRip v1 signature : AF136BB3
AccurateRip v2 signature : F4D1F42F
->Accurately ripped (v2, confidence 6/6)
Statistics
Read error : 0
Jitter error (maybe fixed) : 0
Retry sector count : 0
Damaged sector count : 0

Track 17
Filename : /Users/jg77/Music/Various Artists - Halcyon Days [Disc 1] (2020) [FLAC]/17 Shame, Shame, Shame.flac
Pre-gap length : 00:01:45

Track gain : -6.18 dB
Peak : 0.966064
CRC32 hash (test run) : 18BACDA7
CRC32 hash : 18BACDA7
CRC32 hash (skip zero) : 3B43DED5
AccurateRip v1 signature : C0369839
AccurateRip v2 signature : A6FFAE8D
->Accurately ripped (v2, confidence 5/5)
Statistics
Read error : 0
Jitter error (maybe fixed) : 0
Retry sector count : 0
Damaged sector count : 0

Track 18
Filename : /Users/jg77/Music/Various Artists - Halcyon Days [Disc 1] (2020) [FLAC]/18 I Love the Way You Walk.flac
Pre-gap length : 00:01:45

Track gain : -7.46 dB
Peak : 0.966064
CRC32 hash (test run) : 9A83D663
CRC32 hash : 9A83D663
CRC32 hash (skip zero) : 15836A60
AccurateRip v1 signature : 6C8C2195
AccurateRip v2 signature : EB4BC431
->Accurately ripped (v2, confidence 6/6)
Statistics
Read error : 0
Jitter error (maybe fixed) : 0
Retry sector count : 0
Damaged sector count : 0

Track 19
Filename : /Users/jg77/Music/Various Artists - Halcyon Days [Disc 1] (2020) [FLAC]/19 Look Away.flac
Pre-gap length : 00:01:45

Track gain : -7.25 dB
Peak : 0.966064
CRC32 hash (test run) : 1B932E91
CRC32 hash : 1B932E91
CRC32 hash (skip zero) : BE45F7BB
AccurateRip v1 signature : D144D730
AccurateRip v2 signature : 1DFEBF62
->Accurately ripped (v2, confidence 5/5)
Statistics
Read error : 0
Jitter error (maybe fixed) : 0
Retry sector count : 0
Damaged sector count : 0

Track 20
Filename : /Users/jg77/Music/Various Artists - Halcyon Days [Disc 1] (2020) [FLAC]/20 Hush Your Mouth.flac
Pre-gap length : 00:01:45

Track gain : -7.27 dB
Peak : 0.966034
CRC32 hash (test run) : 18355102
CRC32 hash : 18355102
CRC32 hash (skip zero) : 875140B6
AccurateRip v1 signature : 74688B2A
AccurateRip v2 signature : 3384AB13
->Accurately ripped (v2, confidence 6/6)
Statistics
Read error : 0
Jitter error (maybe fixed) : 0
Retry sector count : 0
Damaged sector count : 0

Track 21
Filename : /Users/jg77/Music/Various Artists - Halcyon Days [Disc 1] (2020) [FLAC]/21 Everytime I Do.flac
Pre-gap length : 00:01:45

Track gain : -9.47 dB
Peak : 0.966064
CRC32 hash (test run) : C09F8784
CRC32 hash : C09F8784
CRC32 hash (skip zero) : AB05DEDA
AccurateRip v1 signature : 3889FD4D
AccurateRip v2 signature : C771F1B3
->Accurately ripped (v2, confidence 5/5)
Statistics
Read error : 0
Jitter error (maybe fixed) : 0
Retry sector count : 0
Damaged sector count : 0

Track 22
Filename : /Users/jg77/Music/Various Artists - Halcyon Days [Disc 1] (2020) [FLAC]/22 Looking for My Baby (Ska Beat version).flac
Pre-gap length : 00:01:45

Track gain : -6.64 dB
Peak : 0.966064
CRC32 hash (test run) : D81CB94C
CRC32 hash : D81CB94C
CRC32 hash (skip zero) : A872ED27
AccurateRip v1 signature : 83AA7093
AccurateRip v2 signature : BD72FE72
->Accurately ripped (v2, confidence 6/6)
Statistics
Read error : 0
Jitter error (maybe fixed) : 0
Retry sector count : 0
Damaged sector count : 0

Track 23
Filename : /Users/jg77/Music/Various Artists - Halcyon Days [Disc 1] (2020) [FLAC]/23 Can't Stand the Pain.flac
Pre-gap length : 00:01:45

Track gain : -7.29 dB
Peak : 0.966064
CRC32 hash (test run) : 883A71C2
CRC32 hash : 883A71C2
CRC32 hash (skip zero) : 25A3208B
AccurateRip v1 signature : CD7AE26C
AccurateRip v2 signature : F17C20AD
->Accurately ripped (v2, confidence 6/6)
Statistics
Read error : 0
Jitter error (maybe fixed) : 0
Retry sector count : 0
Damaged sector count : 0

Track 24
Filename : /Users/jg77/Music/Various Artists - Halcyon Days [Disc 1] (2020) [FLAC]/24 Watermelon Man.flac
Pre-gap length : 00:01:45

Track gain : -7.85 dB
Peak : 0.966064
CRC32 hash (test run) : 90D631C0
CRC32 hash : 90D631C0
CRC32 hash (skip zero) : E3DCF42A
AccurateRip v1 signature : 155A5C41
AccurateRip v2 signature : 4ECC4980
->Accurately ripped (v2, confidence 6/6)
Statistics
Read error : 0
Jitter error (maybe fixed) : 0
Retry sector count : 0
Damaged sector count : 0

Track 25
Filename : /Users/jg77/Music/Various Artists - Halcyon Days [Disc 1] (2020) [FLAC]/25 Baby Never Say Goodbye.flac
Pre-gap length : 00:01:45

Track gain : -8.07 dB
Peak : 0.966064
CRC32 hash (test run) : ACFE4401
CRC32 hash : ACFE4401
CRC32 hash (skip zero) : 7243C903
AccurateRip v1 signature : 374006AB
AccurateRip v2 signature : 278D7154
->Accurately ripped (v2, confidence 6/6)
Statistics
Read error : 0
Jitter error (maybe fixed) : 0
Retry sector count : 0
Damaged sector count : 0

Track 26
Filename : /Users/jg77/Music/Various Artists - Halcyon Days [Disc 1] (2020) [FLAC]/26 (You Got) The Power of Love.flac
Pre-gap length : 00:01:45

Track gain : -8.31 dB
Peak : 0.966064
CRC32 hash (test run) : 60A7E5E3
CRC32 hash : 60A7E5E3
CRC32 hash (skip zero) : F228DB57
AccurateRip v1 signature : 90E595CA
AccurateRip v2 signature : BD73D0DB
->Accurately ripped (v2, confidence 6/6)
Statistics
Read error : 0
Jitter error (maybe fixed) : 0
Retry sector count : 0
Damaged sector count : 0

Track 27
Filename : /Users/jg77/Music/Various Artists - Halcyon Days [Disc 1] (2020) [FLAC]/27 Gonna Get Burned.flac
Pre-gap length : 00:01:45

Track gain : -8.15 dB
Peak : 0.966064
CRC32 hash (test run) : 1EAC451D
CRC32 hash : 1EAC451D
CRC32 hash (skip zero) : 9884F713
AccurateRip v1 signature : 32045167
AccurateRip v2 signature : AA278ACA
->Accurately ripped (v2, confidence 6/6)
Statistics
Read error : 0
Jitter error (maybe fixed) : 0
Retry sector count : 0
Damaged sector count : 0

Track 28
Filename : /Users/jg77/Music/Various Artists - Halcyon Days [Disc 1] (2020) [FLAC]/28 Gotta Brand New Man.flac
Pre-gap length : 00:01:45

Track gain : -9.67 dB
Peak : 0.966064
CRC32 hash (test run) : B81D56CE
CRC32 hash : B81D56CE
CRC32 hash (skip zero) : 64E25E61
AccurateRip v1 signature : 9AFDE614
AccurateRip v2 signature : C8077617
->Accurately ripped (v2, confidence 6/6)
Statistics
Read error : 0
Jitter error (maybe fixed) : 0
Retry sector count : 0
Damaged sector count : 0

Track 29
Filename : /Users/jg77/Music/Various Artists - Halcyon Days [Disc 1] (2020) [FLAC]/29 Stupidity.flac
Pre-gap length : 00:01:45

Track gain : -7.86 dB
Peak : 0.966064
CRC32 hash (test run) : D42493C4
CRC32 hash : D42493C4
CRC32 hash (skip zero) : 0458500C
AccurateRip v1 signature : D607C521
AccurateRip v2 signature : E81431FE
->Accurately ripped (v2, confidence 5/5)
Statistics
Read error : 0
Jitter error (maybe fixed) : 0
Retry sector count : 0
Damaged sector count : 0

No errors occurred

End of status report

––-BEGIN XLD SIGNATURE––-
oBH651kD7FkZQjTeAcD1Yrk0vv.qogSgO2_7M.ANCVKgjgZ.ljIelmEU4W6dwv2m2kBfP73GioROd70n2owpL15yAwm5l8TT54PZWLa
––-END XLD SIGNATURE––-


X Lossless Decoder version 20230627 (156.1)

XLD extraction logfile from 2024-02-11 19:29:31 -0800

Various Artists / Halcyon Days [Disc 2]

Used drive : PIONEER BD-RW BDR-XD07U (revision 1.01)
Media type : Pressed CD

Ripper mode : XLD Secure Ripper
Disable audio cache : OK for the drive with a cache less than 1375KiB
Make use of C2 pointers : NO
Read offset correction : 667
Max retry count : 100
Gap status : Analyzed, Appended (except HTOA)

TOC of the extracted CD
Track | Start | Length | Start sector | End sector
––––––––––––––––––––––––––––-
1 | 00:00:00 | 02:27:52 | 0 | 11076
2 | 02:27:52 | 03:10:35 | 11077 | 25361
3 | 05:38:12 | 02:30:55 | 25362 | 36666
4 | 08:08:67 | 02:55:12 | 36667 | 49803
5 | 11:04:04 | 01:56:24 | 49804 | 58527
6 | 13:00:28 | 02:12:71 | 58528 | 68498
7 | 15:13:24 | 02:43:25 | 68499 | 80748
8 | 17:56:49 | 02:27:43 | 80749 | 91816
9 | 20:24:17 | 02:31:36 | 91817 | 103177
10 | 22:55:53 | 02:40:16 | 103178 | 115193
11 | 25:35:69 | 02:51:39 | 115194 | 128057
12 | 28:27:33 | 03:28:71 | 128058 | 143728
13 | 31:56:29 | 02:09:37 | 143729 | 153440
14 | 34:05:66 | 02:15:22 | 153441 | 163587
15 | 36:21:13 | 02:20:66 | 163588 | 174153
16 | 38:42:04 | 02:44:03 | 174154 | 186456
17 | 41:26:07 | 02:41:56 | 186457 | 198587
18 | 44:07:63 | 02:23:40 | 198588 | 209352
19 | 46:31:28 | 02:34:27 | 209353 | 220929
20 | 49:05:55 | 02:29:58 | 220930 | 232162
21 | 51:35:38 | 02:26:56 | 232163 | 243168
22 | 54:02:19 | 04:29:12 | 243169 | 263355
23 | 58:31:31 | 02:40:00 | 263356 | 275355
24 | 61:11:31 | 02:16:37 | 275356 | 285592
25 | 63:27:68 | 01:52:19 | 285593 | 294011
26 | 65:20:12 | 02:31:27 | 294012 | 305363
27 | 67:51:39 | 02:49:37 | 305364 | 318075
28 | 70:41:01 | 02:08:26 | 318076 | 327701
29 | 72:49:27 | 02:20:20 | 327702 | 338221
30 | 75:09:47 | 02:30:69 | 338222 | 349540

AccurateRip Summary (DiscID: 00532fcf-06ef3c87-cc12341e)
Track 01 : OK (v2, confidence 5/5)
Track 02 : OK (v2, confidence 6/6)
Track 03 : OK (v2, confidence 6/6)
Track 04 : OK (v2, confidence 6/6)
Track 05 : OK (v2, confidence 6/6)
Track 06 : OK (v2, confidence 6/6)
Track 07 : OK (v2, confidence 5/5)
Track 08 : OK (v2, confidence 6/6)
Track 09 : OK (v2, confidence 6/6)
Track 10 : OK (v2, confidence 6/6)
Track 11 : OK (v2, confidence 6/6)
Track 12 : OK (v2, confidence 5/5)
Track 13 : OK (v2, confidence 5/5)
Track 14 : OK (v2, confidence 6/6)
Track 15 : OK (v2, confidence 6/6)
Track 16 : OK (v2, confidence 6/6)
Track 17 : OK (v2, confidence 5/5)
Track 18 : OK (v2, confidence 6/6)
Track 19 : OK (v2, confidence 6/6)
Track 20 : OK (v2, confidence 6/6)
Track 21 : OK (v2, confidence 6/6)
Track 22 : OK (v2, confidence 5/5)
Track 23 : OK (v2, confidence 6/6)
Track 24 : OK (v2, confidence 6/6)
Track 25 : OK (v2, confidence 6/6)
Track 26 : OK (v2, confidence 6/6)
Track 27 : OK (v2, confidence 6/6)
Track 28 : OK (v2, confidence 6/6)
Track 29 : OK (v2, confidence 6/6)
Track 30 : OK (v2, confidence 6/6)
->All tracks accurately ripped.

All Tracks
Album gain : -8.06 dB
Peak : 0.966064
Statistics
Read error : 0
Jitter error (maybe fixed) : 0
Retry sector count : 2
Damaged sector count : 0

Track 01
Filename : /Users/jg77/Music/Various Artists - Halcyon Days [Disc 2] (2020) [FLAC]/01 Biff, Bang, Pow.flac
Pre-gap length : 00:02:00

Track gain : -7.83 dB
Peak : 0.966064
CRC32 hash (test run) : 01720962
CRC32 hash : 01720962
CRC32 hash (skip zero) : 7D0EBA9A
AccurateRip v1 signature : 4DF1B535
AccurateRip v2 signature : 6CEB79DD
->Accurately ripped (v2, confidence 5/5)
Statistics
Read error : 0
Jitter error (maybe fixed) : 0
Retry sector count : 0
Damaged sector count : 0

Track 02
Filename : /Users/jg77/Music/Various Artists - Halcyon Days [Disc 2] (2020) [FLAC]/02 She's Got Everything.flac
Pre-gap length : 00:02:00

Track gain : -8.25 dB
Peak : 0.959778
CRC32 hash (test run) : AC7BEF85
CRC32 hash : AC7BEF85
CRC32 hash (skip zero) : 7D011ECA
AccurateRip v1 signature : C983E856
AccurateRip v2 signature : 6FC41AC6
->Accurately ripped (v2, confidence 6/6)
Statistics
Read error : 0
Jitter error (maybe fixed) : 0
Retry sector count : 0
Damaged sector count : 0

Track 03
Filename : /Users/jg77/Music/Various Artists - Halcyon Days [Disc 2] (2020) [FLAC]/03 Do Anything You Say.flac
Pre-gap length : 00:02:00

Track gain : -7.82 dB
Peak : 0.966064
CRC32 hash (test run) : 44E5118B
CRC32 hash : 44E5118B
CRC32 hash (skip zero) : 1DD02BED
AccurateRip v1 signature : 9690D36C
AccurateRip v2 signature : 5413F2AF
->Accurately ripped (v2, confidence 6/6)
Statistics
Read error : 0
Jitter error (maybe fixed) : 0
Retry sector count : 0
Damaged sector count : 0

Track 04
Filename : /Users/jg77/Music/Various Artists - Halcyon Days [Disc 2] (2020) [FLAC]/04 I Take What I Want.flac
Pre-gap length : 00:02:00

Track gain : -8.68 dB
Peak : 0.966034
CRC32 hash (test run) : 89502E3B
CRC32 hash : 89502E3B
CRC32 hash (skip zero) : 206D88FA
AccurateRip v1 signature : 25B0ACCB
AccurateRip v2 signature : 17CF5E27
->Accurately ripped (v2, confidence 6/6)
Statistics
Read error : 0
Jitter error (maybe fixed) : 0
Retry sector count : 0
Damaged sector count : 0

Track 05
Filename : /Users/jg77/Music/Various Artists - Halcyon Days [Disc 2] (2020) [FLAC]/05 Buzz the Jerk.flac
Pre-gap length : 00:02:00

Track gain : -8.44 dB
Peak : 0.966064
CRC32 hash (test run) : 018B007D
CRC32 hash : 018B007D
CRC32 hash (skip zero) : 39117F7D
AccurateRip v1 signature : 9D0D65B9
AccurateRip v2 signature : 846B5339
->Accurately ripped (v2, confidence 6/6)
Statistics
Read error : 0
Jitter error (maybe fixed) : 0
Retry sector count : 0
Damaged sector count : 0

Track 06
Filename : /Users/jg77/Music/Various Artists - Halcyon Days [Disc 2] (2020) [FLAC]/06 Bo Street Runner.flac
Pre-gap length : 00:02:00

Track gain : -8.21 dB
Peak : 0.966064
CRC32 hash (test run) : BA121C3A
CRC32 hash : BA121C3A
CRC32 hash (skip zero) : EBF75476
AccurateRip v1 signature : 0F3117BC
AccurateRip v2 signature : A73F5DE1
->Accurately ripped (v2, confidence 6/6)
Statistics
Read error : 0
Jitter error (maybe fixed) : 0
Retry sector count : 0
Damaged sector count : 0

Track 07
Filename : /Users/jg77/Music/Various Artists - Halcyon Days [Disc 2] (2020) [FLAC]/07 Stroll On.flac
Pre-gap length : 00:01:74

Track gain : -7.68 dB
Peak : 0.922668
CRC32 hash (test run) : 387716AF
CRC32 hash : 387716AF
CRC32 hash (skip zero) : BF0DC13B
AccurateRip v1 signature : CB5236DE
AccurateRip v2 signature : 13E2EF19
->Accurately ripped (v2, confidence 5/5)
Statistics
Read error : 0
Jitter error (maybe fixed) : 0
Retry sector count : 0
Damaged sector count : 0

Track 08
Filename : /Users/jg77/Music/Various Artists - Halcyon Days [Disc 2] (2020) [FLAC]/08 Waltz for a Pig.flac
Pre-gap length : 00:02:00

Track gain : -7.64 dB
Peak : 0.966064
CRC32 hash (test run) : 5EA6981F
CRC32 hash : 5EA6981F
CRC32 hash (skip zero) : 66FD14A4
AccurateRip v1 signature : 8D5A880F
AccurateRip v2 signature : 2A49BDC2
->Accurately ripped (v2, confidence 6/6)
Statistics
Read error : 0
Jitter error (maybe fixed) : 0
Retry sector count : 0
Damaged sector count : 0

Track 09
Filename : /Users/jg77/Music/Various Artists - Halcyon Days [Disc 2] (2020) [FLAC]/09 Tiger.flac
Pre-gap length : 00:02:00

Track gain : -7.01 dB
Peak : 0.966064
CRC32 hash (test run) : 56AAAC15
CRC32 hash : 56AAAC15
CRC32 hash (skip zero) : 299FB932
AccurateRip v1 signature : 8132330C
AccurateRip v2 signature : 01CB4554
->Accurately ripped (v2, confidence 6/6)
Statistics
Read error : 0
Jitter error (maybe fixed) : 0
Retry sector count : 0
Damaged sector count : 0

Track 10
Filename : /Users/jg77/Music/Various Artists - Halcyon Days [Disc 2] (2020) [FLAC]/10 Mr. Pearly.flac
Pre-gap length : 00:02:00

Track gain : -7.13 dB
Peak : 0.966064
CRC32 hash (test run) : 6A7AEAAE
CRC32 hash : 6A7AEAAE
CRC32 hash (skip zero) : D0886AAA
AccurateRip v1 signature : 9EF4028E
AccurateRip v2 signature : C9018E18
->Accurately ripped (v2, confidence 6/6)
Statistics
Read error : 0
Jitter error (maybe fixed) : 0
Retry sector count : 0
Damaged sector count : 0

Track 11
Filename : /Users/jg77/Music/Various Artists - Halcyon Days [Disc 2] (2020) [FLAC]/11 Get Goin' Baby.flac
Pre-gap length : 00:02:00

Track gain : -8.34 dB
Peak : 0.966064
CRC32 hash (test run) : B2F9A5AF
CRC32 hash : B2F9A5AF
CRC32 hash (skip zero) : 5D7FECBC
AccurateRip v1 signature : CC9E4914
AccurateRip v2 signature : 36ECF6D1
->Accurately ripped (v2, confidence 6/6)
Statistics
Read error : 0
Jitter error (maybe fixed) : 0
Retry sector count : 0
Damaged sector count : 0

Track 12
Filename : /Users/jg77/Music/Various Artists - Halcyon Days [Disc 2] (2020) [FLAC]/12 Leavin' Here.flac
Pre-gap length : 00:02:00

Track gain : -8.17 dB
Peak : 0.966064
CRC32 hash (test run) : 69F74A77
CRC32 hash : 69F74A77
CRC32 hash (skip zero) : 01E2EB9E
AccurateRip v1 signature : 7400C780
AccurateRip v2 signature : 4FA34AE2
->Accurately ripped (v2, confidence 5/5)
Statistics
Read error : 0
Jitter error (maybe fixed) : 0
Retry sector count : 0
Damaged sector count : 0

Track 13
Filename : /Users/jg77/Music/Various Artists - Halcyon Days [Disc 2] (2020) [FLAC]/13 Come on Go.flac
Pre-gap length : 00:02:00

Track gain : -6.88 dB
Peak : 0.966064
CRC32 hash (test run) : 6E7A8236
CRC32 hash : 6E7A8236
CRC32 hash (skip zero) : F9DAEAAB
AccurateRip v1 signature : BB09EE38
AccurateRip v2 signature : 2FEF233C
->Accurately ripped (v2, confidence 5/5)
Statistics
Read error : 0
Jitter error (maybe fixed) : 0
Retry sector count : 0
Damaged sector count : 0

Track 14
Filename : /Users/jg77/Music/Various Artists - Halcyon Days [Disc 2] (2020) [FLAC]/14 Gloria's Dream.flac
Pre-gap length : 00:02:00

Track gain : -8.88 dB
Peak : 0.966064
CRC32 hash (test run) : 7CB26B0E
CRC32 hash : 7CB26B0E
CRC32 hash (skip zero) : BDEE913D
AccurateRip v1 signature : AF7EC487
AccurateRip v2 signature : 190A89F8
->Accurately ripped (v2, confidence 6/6)
Statistics
Read error : 0
Jitter error (maybe fixed) : 0
Retry sector count : 0
Damaged sector count : 0

Track 15
Filename : /Users/jg77/Music/Various Artists - Halcyon Days [Disc 2] (2020) [FLAC]/15 Remember Thomas À Becket.flac
Pre-gap length : 00:02:00

Track gain : -7.93 dB
Peak : 0.966064
CRC32 hash (test run) : ACFF4BAB
CRC32 hash : ACFF4BAB
CRC32 hash (skip zero) : 9F2B7EA1
AccurateRip v1 signature : 09E987F1
AccurateRip v2 signature : 88417571
->Accurately ripped (v2, confidence 6/6)
Statistics
Read error : 0
Jitter error (maybe fixed) : 0
Retry sector count : 0
Damaged sector count : 0

Track 16
Filename : /Users/jg77/Music/Various Artists - Halcyon Days [Disc 2] (2020) [FLAC]/16 Why.flac
Pre-gap length : 00:02:00

Track gain : -8.19 dB
Peak : 0.966064
CRC32 hash (test run) : 588A14E4
CRC32 hash : 588A14E4
CRC32 hash (skip zero) : 49DF3C04
AccurateRip v1 signature : 3B0D6314
AccurateRip v2 signature : 18AABDF5
->Accurately ripped (v2, confidence 6/6)
Statistics
Read error : 0
Jitter error (maybe fixed) : 0
Retry sector count : 0
Damaged sector count : 0

Track 17
Filename : /Users/jg77/Music/Various Artists - Halcyon Days [Disc 2] (2020) [FLAC]/17 Gimme Little Sign.flac
Pre-gap length : 00:02:00

Track gain : -7.56 dB
Peak : 0.966064
CRC32 hash (test run) : E102125B
CRC32 hash : E102125B
CRC32 hash (skip zero) : A415CED9
AccurateRip v1 signature : 5D0259E2
AccurateRip v2 signature : E13668C1
->Accurately ripped (v2, confidence 5/5)
Statistics
Read error : 0
Jitter error (maybe fixed) : 0
Retry sector count : 0
Damaged sector count : 0

Track 18
Filename : /Users/jg77/Music/Various Artists - Halcyon Days [Disc 2] (2020) [FLAC]/18 No Problem.flac
Pre-gap length : 00:02:00

Track gain : -7.26 dB
Peak : 0.966064
CRC32 hash (test run) : 52DFDCC0
CRC32 hash : 52DFDCC0
CRC32 hash (skip zero) : C2778412
AccurateRip v1 signature : 1480E2D8
AccurateRip v2 signature : BC42C219
->Accurately ripped (v2, confidence 6/6)
Statistics
Read error : 0
Jitter error (maybe fixed) : 0
Retry sector count : 0
Damaged sector count : 0

Track 19
Filename : /Users/jg77/Music/Various Artists - Halcyon Days [Disc 2] (2020) [FLAC]/19 Makin' My Mind Up.flac
Pre-gap length : 00:02:00

Track gain : -8.51 dB
Peak : 0.966064
CRC32 hash (test run) : C2DE1389
CRC32 hash : C2DE1389
CRC32 hash (skip zero) : 4056A5C3
AccurateRip v1 signature : 3B845781
AccurateRip v2 signature : 16EA863D
->Accurately ripped (v2, confidence 6/6)
Statistics
Read error : 0
Jitter error (maybe fixed) : 0
Retry sector count : 0
Damaged sector count : 0

Track 20
Filename : /Users/jg77/Music/Various Artists - Halcyon Days [Disc 2] (2020) [FLAC]/20 Come on Baby.flac
Pre-gap length : 00:02:00

Track gain : -7.95 dB
Peak : 0.966064
CRC32 hash (test run) : 1D10DF57
CRC32 hash : 1D10DF57
CRC32 hash (skip zero) : 884E3B18
AccurateRip v1 signature : D203835C
AccurateRip v2 signature : E74051C3
->Accurately ripped (v2, confidence 6/6)
Statistics
Read error : 0
Jitter error (maybe fixed) : 0
Retry sector count : 0
Damaged sector count : 0

Track 21
Filename : /Users/jg77/Music/Various Artists - Halcyon Days [Disc 2] (2020) [FLAC]/21 He Can Win.flac
Pre-gap length : 00:02:00

Track gain : -8.72 dB
Peak : 0.966064
CRC32 hash (test run) : DCDCEE66
CRC32 hash : DCDCEE66
CRC32 hash (skip zero) : B43B9DCB
AccurateRip v1 signature : 6BCE7754
AccurateRip v2 signature : A5005143
->Accurately ripped (v2, confidence 6/6)
Statistics
Read error : 0
Jitter error (maybe fixed) : 0
Retry sector count : 0
Damaged sector count : 0

Track 22
Filename : /Users/jg77/Music/Various Artists - Halcyon Days [Disc 2] (2020) [FLAC]/22 Am I Glad to See You.flac
Pre-gap length : 00:02:00

Track gain : -7.70 dB
Peak : 0.966064
CRC32 hash (test run) : 70A91909
CRC32 hash : 70A91909
CRC32 hash (skip zero) : 198622BE
AccurateRip v1 signature : 7668B68C
AccurateRip v2 signature : 6F3E2B5B
->Accurately ripped (v2, confidence 5/5)
Statistics
Read error : 0
Jitter error (maybe fixed) : 0
Retry sector count : 0
Damaged sector count : 0

Track 23
Filename : /Users/jg77/Music/Various Artists - Halcyon Days [Disc 2] (2020) [FLAC]/23 Diggin' for Gold.flac
Pre-gap length : 00:02:00

Track gain : -9.48 dB
Peak : 0.966064
CRC32 hash (test run) : D7BEBAC6
CRC32 hash : D7BEBAC6
CRC32 hash (skip zero) : 7A4BC88E
AccurateRip v1 signature : 7AEED434
AccurateRip v2 signature : 02E2C178
->Accurately ripped (v2, confidence 6/6)
Statistics
Read error : 0
Jitter error (maybe fixed) : 0
Retry sector count : 0
Damaged sector count : 0

Track 24
Filename : /Users/jg77/Music/Various Artists - Halcyon Days [Disc 2] (2020) [FLAC]/24 I'm Not a Bad Guy.flac
Pre-gap length : 00:02:00

Track gain : -8.79 dB
Peak : 0.966064
CRC32 hash (test run) : 1CC11294
CRC32 hash : 1CC11294
CRC32 hash (skip zero) : 303E55F4
AccurateRip v1 signature : BA7A7F5C
AccurateRip v2 signature : 2DC29440
->Accurately ripped (v2, confidence 6/6)
Statistics
Read error : 0
Jitter error (maybe fixed) : 0
Retry sector count : 0
Damaged sector count : 0

Track 25
Filename : /Users/jg77/Music/Various Artists - Halcyon Days [Disc 2] (2020) [FLAC]/25 Got the Blame.flac
Pre-gap length : 00:02:00

Track gain : -8.38 dB
Peak : 0.966064
CRC32 hash (test run) : B4D41EE1
CRC32 hash : B4D41EE1
CRC32 hash (skip zero) : 48D82827
AccurateRip v1 signature : 158CA3CE
AccurateRip v2 signature : B33F4367
->Accurately ripped (v2, confidence 6/6)
Statistics
Read error : 0
Jitter error (maybe fixed) : 0
Retry sector count : 0
Damaged sector count : 0

Track 26
Filename : /Users/jg77/Music/Various Artists - Halcyon Days [Disc 2] (2020) [FLAC]/26 You've Got Something.flac
Pre-gap length : 00:02:00

Track gain : -6.85 dB
Peak : 0.966064
CRC32 hash (test run) : 9DB6F5F5
CRC32 hash : 9DB6F5F5
CRC32 hash (skip zero) : 98FF95E8
AccurateRip v1 signature : D878A7C7
AccurateRip v2 signature : 01C6F233
->Accurately ripped (v2, confidence 6/6)
Statistics
Read error : 0
Jitter error (maybe fixed) : 0
Retry sector count : 0
Damaged sector count : 0

Track 27
Filename : /Users/jg77/Music/Various Artists - Halcyon Days [Disc 2] (2020) [FLAC]/27 Walking Down a Backstreet.flac
Pre-gap length : 00:02:00

Track gain : -8.33 dB
Peak : 0.966064
CRC32 hash (test run) : 9DB0B21E
CRC32 hash : 9DB0B21E
CRC32 hash (skip zero) : 301DD4C2
AccurateRip v1 signature : 0BDA42FA
AccurateRip v2 signature : 443C58C1
->Accurately ripped (v2, confidence 6/6)
Statistics
Read error : 0
Jitter error (maybe fixed) : 0
Retry sector count : 0
Damaged sector count : 0

Track 28
Filename : /Users/jg77/Music/Various Artists - Halcyon Days [Disc 2] (2020) [FLAC]/28 Gun Me Down.flac
Pre-gap length : 00:02:00

Track gain : -7.18 dB
Peak : 0.966064
CRC32 hash (test run) : 61C537FA
CRC32 hash : 61C537FA
CRC32 hash (skip zero) : B6822451
AccurateRip v1 signature : 76B28358
AccurateRip v2 signature : 2CC629EB
->Accurately ripped (v2, confidence 6/6)
Statistics
Read error : 0
Jitter error (maybe fixed) : 0
Retry sector count : 0
Damaged sector count : 0

Track 29
Filename : /Users/jg77/Music/Various Artists - Halcyon Days [Disc 2] (2020) [FLAC]/29 She's Dangerous.flac
Pre-gap length : 00:02:00

Track gain : -8.39 dB
Peak : 0.966064
CRC32 hash (test run) : FF8F52DF
CRC32 hash : FF8F52DF
CRC32 hash (skip zero) : 9434DB2C
AccurateRip v1 signature : 2C4E3E95
AccurateRip v2 signature : 01AE366B
->Accurately ripped (v2, confidence 6/6)
Statistics
Read error : 0
Jitter error (maybe fixed) : 0
Retry sector count : 0
Damaged sector count : 0

Track 30
Filename : /Users/jg77/Music/Various Artists - Halcyon Days [Disc 2] (2020) [FLAC]/30 Green Door.flac
Pre-gap length : 00:02:00

Track gain : -8.36 dB
Peak : 0.966064
CRC32 hash (test run) : 8D025D40
CRC32 hash : 8D025D40
CRC32 hash (skip zero) : 552ADC1F
AccurateRip v1 signature : 6C00DD9A
AccurateRip v2 signature : 96FC69DF
->Accurately ripped (v2, confidence 6/6)
Statistics
Read error : 0
Jitter error (maybe fixed) : 0
Retry sector count : 2
Damaged sector count : 0

No errors occurred

End of status report

––-BEGIN XLD SIGNATURE––-
uLIynzoRkcKZO2qoAgYJtdYdgv5gSF.b9t9P9zABXU_DfIw_SOEGAYVjTxsOTaTWzZRnXjXcuEddwNMeg82LcRvFOpMs8XSsuIaPlI0
––-END XLD SIGNATURE––-


X Lossless Decoder version 20230627 (156.1)

XLD extraction logfile from 2024-02-11 19:58:19 -0800

Various Artists / Halcyon Days [Disc 3]

Used drive : PIONEER BD-RW BDR-XD07U (revision 1.01)
Media type : Pressed CD

Ripper mode : XLD Secure Ripper
Disable audio cache : OK for the drive with a cache less than 1375KiB
Make use of C2 pointers : NO
Read offset correction : 667
Max retry count : 100
Gap status : Analyzed, Appended (except HTOA)

TOC of the extracted CD
Track | Start | Length | Start sector | End sector
––––––––––––––––––––––––––––-
1 | 00:00:00 | 02:18:56 | 0 | 10405
2 | 02:18:56 | 04:01:73 | 10406 | 28553
3 | 06:20:54 | 02:46:08 | 28554 | 41011
4 | 09:06:62 | 03:31:20 | 41012 | 56856
5 | 12:38:07 | 02:41:13 | 56857 | 68944
6 | 15:19:20 | 03:34:44 | 68945 | 85038
7 | 18:53:64 | 03:31:58 | 85039 | 100921
8 | 22:25:47 | 02:44:19 | 100922 | 113240
9 | 25:09:66 | 02:32:34 | 113241 | 124674
10 | 27:42:25 | 02:12:27 | 124675 | 134601
11 | 29:54:52 | 02:54:22 | 134602 | 147673
12 | 32:48:74 | 03:12:26 | 147674 | 162099
13 | 36:01:25 | 02:49:52 | 162100 | 174826
14 | 38:51:02 | 02:49:08 | 174827 | 187509
15 | 41:40:10 | 01:41:62 | 187510 | 195146
16 | 43:21:72 | 02:55:72 | 195147 | 208343
17 | 46:17:69 | 01:58:40 | 208344 | 217233
18 | 48:16:34 | 02:52:69 | 217234 | 230202
19 | 51:09:28 | 02:54:14 | 230203 | 243266
20 | 54:03:42 | 02:52:74 | 243267 | 256240
21 | 56:56:41 | 02:19:07 | 256241 | 266672
22 | 59:15:48 | 03:43:21 | 266673 | 283418
23 | 62:58:69 | 03:13:63 | 283419 | 297956
24 | 66:12:57 | 02:36:10 | 297957 | 309666
25 | 68:48:67 | 03:06:34 | 309667 | 323650
26 | 71:55:26 | 02:59:52 | 323651 | 337127
27 | 74:55:03 | 02:01:11 | 337128 | 346213
28 | 76:56:14 | 02:46:33 | 346214 | 358696

AccurateRip Summary (DiscID: 005106fe-06476a8b-a012ae1c)
Track 01 : OK (v2, confidence 6/6)
Track 02 : OK (v2, confidence 5/5)
Track 03 : OK (v2, confidence 6/6)
Track 04 : OK (v2, confidence 5/5)
Track 05 : OK (v2, confidence 6/6)
Track 06 : OK (v2, confidence 6/6)
Track 07 : OK (v2, confidence 5/5)
Track 08 : OK (v2, confidence 6/6)
Track 09 : OK (v2, confidence 6/6)
Track 10 : OK (v2, confidence 6/6)
Track 11 : OK (v2, confidence 6/6)
Track 12 : OK (v2, confidence 6/6)
Track 13 : OK (v2, confidence 6/6)
Track 14 : OK (v2, confidence 6/6)
Track 15 : OK (v2, confidence 5/5)
Track 16 : OK (v2, confidence 6/6)
Track 17 : OK (v2, confidence 6/6)
Track 18 : OK (v2, confidence 6/6)
Track 19 : OK (v2, confidence 6/6)
Track 20 : OK (v2, confidence 6/6)
Track 21 : OK (v2, confidence 6/6)
Track 22 : OK (v2, confidence 5/5)
Track 23 : OK (v2, confidence 6/6)
Track 24 : OK (v2, confidence 6/6)
Track 25 : OK (v2, confidence 5/5)
Track 26 : OK (v2, confidence 6/6)
Track 27 : OK (v2, confidence 6/6)
Track 28 : OK (v2, confidence 6/6)
->All tracks accurately ripped.

All Tracks
Album gain : -8.17 dB
Peak : 0.966064
Statistics
Read error : 0
Jitter error (maybe fixed) : 0
Retry sector count : 0
Damaged sector count : 0

Track 01
Filename : /Users/jg77/Music/Various Artists - Halcyon Days [Disc 3] (2020) [FLAC]/01 Halcyon Days.flac
Pre-gap length : 00:02:00

Track gain : -8.37 dB
Peak : 0.966064
CRC32 hash (test run) : E827FE5C
CRC32 hash : E827FE5C
CRC32 hash (skip zero) : 63F57241
AccurateRip v1 signature : 365530FF
AccurateRip v2 signature : 4380CBA7
->Accurately ripped (v2, confidence 6/6)
Statistics
Read error : 0
Jitter error (maybe fixed) : 0
Retry sector count : 0
Damaged sector count : 0

Track 02
Filename : /Users/jg77/Music/Various Artists - Halcyon Days [Disc 3] (2020) [FLAC]/02 Look at the View.flac
Pre-gap length : 00:02:00

Track gain : -7.98 dB
Peak : 0.966064
CRC32 hash (test run) : F217DE5D
CRC32 hash : F217DE5D
CRC32 hash (skip zero) : CE45DDF9
AccurateRip v1 signature : 2CB7504B
AccurateRip v2 signature : 455F398A
->Accurately ripped (v2, confidence 5/5)
Statistics
Read error : 0
Jitter error (maybe fixed) : 0
Retry sector count : 0
Damaged sector count : 0

Track 03
Filename : /Users/jg77/Music/Various Artists - Halcyon Days [Disc 3] (2020) [FLAC]/03 One Girl City.flac
Pre-gap length : 00:02:00

Track gain : -10.25 dB
Peak : 0.966064
CRC32 hash (test run) : A0B3D139
CRC32 hash : A0B3D139
CRC32 hash (skip zero) : F501D689
AccurateRip v1 signature : E8AB2BAF
AccurateRip v2 signature : ACD2EEE0
->Accurately ripped (v2, confidence 6/6)
Statistics
Read error : 0
Jitter error (maybe fixed) : 0
Retry sector count : 0
Damaged sector count : 0

Track 04
Filename : /Users/jg77/Music/Various Artists - Halcyon Days [Disc 3] (2020) [FLAC]/04 I'm a Man.flac
Pre-gap length : 00:02:00

Track gain : -7.99 dB
Peak : 0.966064
CRC32 hash (test run) : EC6E7509
CRC32 hash : EC6E7509
CRC32 hash (skip zero) : E91E36A3
AccurateRip v1 signature : A0874813
AccurateRip v2 signature : F16C23C5
->Accurately ripped (v2, confidence 5/5)
Statistics
Read error : 0
Jitter error (maybe fixed) : 0
Retry sector count : 0
Damaged sector count : 0

Track 05
Filename : /Users/jg77/Music/Various Artists - Halcyon Days [Disc 3] (2020) [FLAC]/05 Moonshine.flac
Pre-gap length : 00:02:00

Track gain : -7.90 dB
Peak : 0.966034
CRC32 hash (test run) : 21E736AA
CRC32 hash : 21E736AA
CRC32 hash (skip zero) : B6D25582
AccurateRip v1 signature : 8BAE382C
AccurateRip v2 signature : 54D9A65B
->Accurately ripped (v2, confidence 6/6)
Statistics
Read error : 0
Jitter error (maybe fixed) : 0
Retry sector count : 0
Damaged sector count : 0

Track 06
Filename : /Users/jg77/Music/Various Artists - Halcyon Days [Disc 3] (2020) [FLAC]/06 Mrs. Bailey's Barbecue and Grill.flac
Pre-gap length : 00:02:00

Track gain : -7.37 dB
Peak : 0.966064
CRC32 hash (test run) : AF943DED
CRC32 hash : AF943DED
CRC32 hash (skip zero) : 5C5F6D7B
AccurateRip v1 signature : 04F646BA
AccurateRip v2 signature : F8333F4A
->Accurately ripped (v2, confidence 6/6)
Statistics
Read error : 0
Jitter error (maybe fixed) : 0
Retry sector count : 0
Damaged sector count : 0

Track 07
Filename : /Users/jg77/Music/Various Artists - Halcyon Days [Disc 3] (2020) [FLAC]/07 Hold On.flac
Pre-gap length : 00:02:00

Track gain : -8.54 dB
Peak : 0.966064
CRC32 hash (test run) : 9A80F733
CRC32 hash : 9A80F733
CRC32 hash (skip zero) : C5E49537
AccurateRip v1 signature : A4A5B3B0
AccurateRip v2 signature : 03247D29
->Accurately ripped (v2, confidence 5/5)
Statistics
Read error : 0
Jitter error (maybe fixed) : 0
Retry sector count : 0
Damaged sector count : 0

Track 08
Filename : /Users/jg77/Music/Various Artists - Halcyon Days [Disc 3] (2020) [FLAC]/08 Baby Get Your Head Screwed On.flac
Pre-gap length : 00:02:00

Track gain : -7.98 dB
Peak : 0.966064
CRC32 hash (test run) : 9BBF2BFD
CRC32 hash : 9BBF2BFD
CRC32 hash (skip zero) : 394AA39C
AccurateRip v1 signature : DCC08E30
AccurateRip v2 signature : BE8C46C7
->Accurately ripped (v2, confidence 6/6)
Statistics
Read error : 0
Jitter error (maybe fixed) : 0
Retry sector count : 0
Damaged sector count : 0

Track 09
Filename : /Users/jg77/Music/Various Artists - Halcyon Days [Disc 3] (2020) [FLAC]/09 The Room Revolves Around Me.flac
Pre-gap length : 00:02:00

Track gain : -7.58 dB
Peak : 0.966064
CRC32 hash (test run) : 713FB364
CRC32 hash : 713FB364
CRC32 hash (skip zero) : 6F10C8C7
AccurateRip v1 signature : B6DFF2A2
AccurateRip v2 signature : 483E4A42
->Accurately ripped (v2, confidence 6/6)
Statistics
Read error : 0
Jitter error (maybe fixed) : 0
Retry sector count : 0
Damaged sector count : 0

Track 10
Filename : /Users/jg77/Music/Various Artists - Halcyon Days [Disc 3] (2020) [FLAC]/10 Dreams Don't Bother Me.flac
Pre-gap length : 00:02:00

Track gain : -8.10 dB
Peak : 0.966064
CRC32 hash (test run) : 5B8F6C95
CRC32 hash : 5B8F6C95
CRC32 hash (skip zero) : 9EB68116
AccurateRip v1 signature : A5454220
AccurateRip v2 signature : 8036B40B
->Accurately ripped (v2, confidence 6/6)
Statistics
Read error : 0
Jitter error (maybe fixed) : 0
Retry sector count : 0
Damaged sector count : 0

Track 11
Filename : /Users/jg77/Music/Various Artists - Halcyon Days [Disc 3] (2020) [FLAC]/11 Technicolour Dream.flac
Pre-gap length : 00:02:00

Track gain : -8.12 dB
Peak : 0.912903
CRC32 hash (test run) : E833E2E9
CRC32 hash : E833E2E9
CRC32 hash (skip zero) : 2D54A602
AccurateRip v1 signature : D26607E2
AccurateRip v2 signature : 0A1F829E
->Accurately ripped (v2, confidence 6/6)
Statistics
Read error : 0
Jitter error (maybe fixed) : 0
Retry sector count : 0
Damaged sector count : 0

Track 12
Filename : /Users/jg77/Music/Various Artists - Halcyon Days [Disc 3] (2020) [FLAC]/12 This Is the First Time.flac
Pre-gap length : 00:02:00

Track gain : -7.05 dB
Peak : 0.966064
CRC32 hash (test run) : D3087AE0
CRC32 hash : D3087AE0
CRC32 hash (skip zero) : 6377D298
AccurateRip v1 signature : 5BFE72D6
AccurateRip v2 signature : D95A40D0
->Accurately ripped (v2, confidence 6/6)
Statistics
Read error : 0
Jitter error (maybe fixed) : 0
Retry sector count : 0
Damaged sector count : 0

Track 13
Filename : /Users/jg77/Music/Various Artists - Halcyon Days [Disc 3] (2020) [FLAC]/13 Keep It Out of Sight.flac
Pre-gap length : 00:02:00

Track gain : -8.96 dB
Peak : 0.966034
CRC32 hash (test run) : A2DEB497
CRC32 hash : A2DEB497
CRC32 hash (skip zero) : E3696C4E
AccurateRip v1 signature : E1DEEEB4
AccurateRip v2 signature : EE1ABB8C
->Accurately ripped (v2, confidence 6/6)
Statistics
Read error : 0
Jitter error (maybe fixed) : 0
Retry sector count : 0
Damaged sector count : 0

Track 14
Filename : /Users/jg77/Music/Various Artists - Halcyon Days [Disc 3] (2020) [FLAC]/14 Your Way to Tell Me.flac
Pre-gap length : 00:02:00

Track gain : -8.29 dB
Peak : 0.871155
CRC32 hash (test run) : AB64322B
CRC32 hash : AB64322B
CRC32 hash (skip zero) : B5640C38
AccurateRip v1 signature : 2A0AFC24
AccurateRip v2 signature : 4E55D66C
->Accurately ripped (v2, confidence 6/6)
Statistics
Read error : 0
Jitter error (maybe fixed) : 0
Retry sector count : 0
Damaged sector count : 0

Track 15
Filename : /Users/jg77/Music/Various Artists - Halcyon Days [Disc 3] (2020) [FLAC]/15 The Stamping Machine.flac
Pre-gap length : 00:02:00

Track gain : -8.23 dB
Peak : 0.881927
CRC32 hash (test run) : 683258A8
CRC32 hash : 683258A8
CRC32 hash (skip zero) : F7E705C7
AccurateRip v1 signature : EF933783
AccurateRip v2 signature : 469F841D
->Accurately ripped (v2, confidence 5/5)
Statistics
Read error : 0
Jitter error (maybe fixed) : 0
Retry sector count : 0
Damaged sector count : 0

Track 16
Filename : /Users/jg77/Music/Various Artists - Halcyon Days [Disc 3] (2020) [FLAC]/16 Sad.flac
Pre-gap length : 00:02:00

Track gain : -9.53 dB
Peak : 0.966064
CRC32 hash (test run) : 8D3E1E6F
CRC32 hash : 8D3E1E6F
CRC32 hash (skip zero) : DB9FF297
AccurateRip v1 signature : E1C8627B
AccurateRip v2 signature : 6B54BB3F
->Accurately ripped (v2, confidence 6/6)
Statistics
Read error : 0
Jitter error (maybe fixed) : 0
Retry sector count : 0
Damaged sector count : 0

Track 17
Filename : /Users/jg77/Music/Various Artists - Halcyon Days [Disc 3] (2020) [FLAC]/17 Pink Dawn.flac
Pre-gap length : 00:02:00

Track gain : -8.00 dB
Peak : 0.966064
CRC32 hash (test run) : 91B46258
CRC32 hash : 91B46258
CRC32 hash (skip zero) : 514FC70F
AccurateRip v1 signature : 715C6532
AccurateRip v2 signature : BDC95314
->Accurately ripped (v2, confidence 6/6)
Statistics
Read error : 0
Jitter error (maybe fixed) : 0
Retry sector count : 0
Damaged sector count : 0

Track 18
Filename : /Users/jg77/Music/Various Artists - Halcyon Days [Disc 3] (2020) [FLAC]/18 Baby You're Not to Blame.flac
Pre-gap length : 00:02:00

Track gain : -7.10 dB
Peak : 0.966064
CRC32 hash (test run) : 3CD3313B
CRC32 hash : 3CD3313B
CRC32 hash (skip zero) : 8CDB1E76
AccurateRip v1 signature : 34744539
AccurateRip v2 signature : B19778B2
->Accurately ripped (v2, confidence 6/6)
Statistics
Read error : 0
Jitter error (maybe fixed) : 0
Retry sector count : 0
Damaged sector count : 0

Track 19
Filename : /Users/jg77/Music/Various Artists - Halcyon Days [Disc 3] (2020) [FLAC]/19 Fool From Upper Eden.flac
Pre-gap length : 00:02:00

Track gain : -8.66 dB
Peak : 0.966064
CRC32 hash (test run) : DDFA96F7
CRC32 hash : DDFA96F7
CRC32 hash (skip zero) : D05F840E
AccurateRip v1 signature : 857090AE
AccurateRip v2 signature : D2147FF6
->Accurately ripped (v2, confidence 6/6)
Statistics
Read error : 0
Jitter error (maybe fixed) : 0
Retry sector count : 0
Damaged sector count : 0

Track 20
Filename : /Users/jg77/Music/Various Artists - Halcyon Days [Disc 3] (2020) [FLAC]/20 53 Summer Street.flac
Pre-gap length : 00:02:00

Track gain : -8.55 dB
Peak : 0.966064
CRC32 hash (test run) : D388A13A
CRC32 hash : D388A13A
CRC32 hash (skip zero) : B0EE5576
AccurateRip v1 signature : 6078D028
AccurateRip v2 signature : FB9549A5
->Accurately ripped (v2, confidence 6/6)
Statistics
Read error : 0
Jitter error (maybe fixed) : 0
Retry sector count : 0
Damaged sector count : 0

Track 21
Filename : /Users/jg77/Music/Various Artists - Halcyon Days [Disc 3] (2020) [FLAC]/21 Yes.flac
Pre-gap length : 00:02:00

Track gain : -7.83 dB
Peak : 0.966064
CRC32 hash (test run) : 201B3CA1
CRC32 hash : 201B3CA1
CRC32 hash (skip zero) : B9CF757B
AccurateRip v1 signature : 71854CB1
AccurateRip v2 signature : 511B56BC
->Accurately ripped (v2, confidence 6/6)
Statistics
Read error : 0
Jitter error (maybe fixed) : 0
Retry sector count : 0
Damaged sector count : 0

Track 22
Filename : /Users/jg77/Music/Various Artists - Halcyon Days [Disc 3] (2020) [FLAC]/22 Fourpenny Bus Ride.flac
Pre-gap length : 00:02:00

Track gain : -7.39 dB
Peak : 0.966064
CRC32 hash (test run) : 0F64BDAB
CRC32 hash : 0F64BDAB
CRC32 hash (skip zero) : 3331D654
AccurateRip v1 signature : 26F81183
AccurateRip v2 signature : 7814D6E2
->Accurately ripped (v2, confidence 5/5)
Statistics
Read error : 0
Jitter error (maybe fixed) : 0
Retry sector count : 0
Damaged sector count : 0

Track 23
Filename : /Users/jg77/Music/Various Artists - Halcyon Days [Disc 3] (2020) [FLAC]/23 Doctor Rock.flac
Pre-gap length : 00:02:00

Track gain : -7.76 dB
Peak : 0.966064
CRC32 hash (test run) : 5C18EDDA
CRC32 hash : 5C18EDDA
CRC32 hash (skip zero) : 119F09C1
AccurateRip v1 signature : 90E38226
AccurateRip v2 signature : 4D55F5DF
->Accurately ripped (v2, confidence 6/6)
Statistics
Read error : 0
Jitter error (maybe fixed) : 0
Retry sector count : 0
Damaged sector count : 0

Track 24
Filename : /Users/jg77/Music/Various Artists - Halcyon Days [Disc 3] (2020) [FLAC]/24 People Let's Freak Out.flac
Pre-gap length : 00:02:00

Track gain : -8.64 dB
Peak : 0.966064
CRC32 hash (test run) : E0E904F7
CRC32 hash : E0E904F7
CRC32 hash (skip zero) : 7D2BCD43
AccurateRip v1 signature : 74915808
AccurateRip v2 signature : 79A6F9B0
->Accurately ripped (v2, confidence 6/6)
Statistics
Read error : 0
Jitter error (maybe fixed) : 0
Retry sector count : 0
Damaged sector count : 0

Track 25
Filename : /Users/jg77/Music/Various Artists - Halcyon Days [Disc 3] (2020) [FLAC]/25 Engine 4444.flac
Pre-gap length : 00:02:00

Track gain : -8.27 dB
Peak : 0.966064
CRC32 hash (test run) : 07621E4B
CRC32 hash : 07621E4B
CRC32 hash (skip zero) : 3A7C160C
AccurateRip v1 signature : 9653371B
AccurateRip v2 signature : 2E134321
->Accurately ripped (v2, confidence 5/5)
Statistics
Read error : 0
Jitter error (maybe fixed) : 0
Retry sector count : 0
Damaged sector count : 0

Track 26
Filename : /Users/jg77/Music/Various Artists - Halcyon Days [Disc 3] (2020) [FLAC]/26 Picture of Her.flac
Pre-gap length : 00:02:00

Track gain : -8.19 dB
Peak : 0.966034
CRC32 hash (test run) : B444B3F5
CRC32 hash : B444B3F5
CRC32 hash (skip zero) : 10C00CC0
AccurateRip v1 signature : CD0BD6ED
AccurateRip v2 signature : 770DBDCF
->Accurately ripped (v2, confidence 6/6)
Statistics
Read error : 0
Jitter error (maybe fixed) : 0
Retry sector count : 0
Damaged sector count : 0

Track 27
Filename : /Users/jg77/Music/Various Artists - Halcyon Days [Disc 3] (2020) [FLAC]/27 I'm Coming 'Round (To Her Way of Thinking).flac
Pre-gap length : 00:02:00

Track gain : -8.98 dB
Peak : 0.966064
CRC32 hash (test run) : F2829790
CRC32 hash : F2829790
CRC32 hash (skip zero) : 0619C81B
AccurateRip v1 signature : B5C645F2
AccurateRip v2 signature : 2C57EC32
->Accurately ripped (v2, confidence 6/6)
Statistics
Read error : 0
Jitter error (maybe fixed) : 0
Retry sector count : 0
Damaged sector count : 0

Track 28
Filename : /Users/jg77/Music/Various Artists - Halcyon Days [Disc 3] (2020) [FLAC]/28 Rest Cure.flac
Pre-gap length : 00:02:00

Track gain : -5.91 dB
Peak : 0.966064
CRC32 hash (test run) : 7661475C
CRC32 hash : 7661475C
CRC32 hash (skip zero) : 8DEA1F3B
AccurateRip v1 signature : D76F3803
AccurateRip v2 signature : BA4B8802
->Accurately ripped (v2, confidence 6/6)
Statistics
Read error : 0
Jitter error (maybe fixed) : 0
Retry sector count : 0
Damaged sector count : 0

No errors occurred

End of status report

––-BEGIN XLD SIGNATURE––-
BWb53.aRlSipoQcwjs3jo66pyPd0JVt2ZKpv41AcPZ.f1xlmkPkPlLQJWlKy3wSHmqNtvZJMSWALtgpP8nixaxjxOPuTM1Zva3Zw.VK
––-END XLD SIGNATURE––-