Tags
Language
Tags

Handel Edition Vol. 4 - Messiah; Samson; Arias from Rinaldo and other operas [6CDs] (2008)

Posted By: ArlegZ
Handel Edition Vol. 4 - Messiah; Samson; Arias from Rinaldo and other operas [6CDs] (2008)

Handel Edition Vol. 4 - Messiah; Samson; Arias from Rinaldo and other operas (2008)
EAC | FLAC | Image (Cue & Log) ~ 2.06 Gb | Total time: 7h 30'33'' | Scans included
Classical | Label: Warner Classics | 2564 69568-6 | Recorded: 1974, 1978, 1982, 1994

The performance here of Samson is definitive. It is lively, colourful and highly dramatic. There is no comparison with the tedious performance by the Sixteen on Coro. The performance of the Messiah with limited modern instrumental forces of the English Chamber Orchestra and Chorus with very good soloists doesn't sacrifice grandeur nor does it go to the other extreme of over-blown pomp. It is a very good performamce on modern instruments under the direction of the Baroque music specialist conductor Raymond Leppard.. For a modern instrument performance of The Messiah this version is highly recommended along with the Colin Davis recording on Philips with the same Alto (Helen Watts) and Bass (John Shirley-Quirk) solists, but with the London Symphony Orchestra.

Performer:
CD 1-2: Messiah, HWV 56
Felicity Palmer, soprano
Helen Watts, alto
Ryland Davies, tenor
John Shirley-Quirk, bass
English Chamber Orchestra & Choir
Raymond Leppard, conductor
Recording: St Giles Cripplegate, London, 12/1974 (remastered 4/2008)

CD 3-5: Samson, HWV 57
Janet Baker, mezzo-soprano (Dalila)
Helen Watts, alto (Micah)
Robert Tear, tenor (Samson)
John Shirley-Quirk, baritone (Manoah)
Benjamin Luxon, baritone (Harapha)
Norma Burrowes, soprano (Philistine Woman)
Felicity Lott, soprano (Israelitish Woman, Messenger)
Philip Langridge, tenor (Philistine)
Alexander Oliver, tenor (Israelitish Man)
London Voices
English Chamber Orchestra
Raymond Leppard, conductor
Recording: Henry Wood Hall, London, 10/1978

CD 6: Arias from Rinaldo and other operas
Marilyn Horne, mezzo-soprano
I Solisti Veneti
Claudio Scimone, conductor
Recording: Villa Simes, Piazzolla, Italy, 4/1982

Jennifer Larmore, mezzo-soprano
Orchestre de Chambre de Lausanne
Münchner Rundfunkorchester
Jesús López-Cobos, conductor
Recording: Auditorium Stravinski, Montreux, 10/1994


CD1:
Messiah, HWV 56
Part One
01. Symphony
02. Comfort ye my people
03. Ev'ry valley shall be exalted
04. And the glory of the Lord shall be revealed
05. Thus saith the Lord
06. But who may abide the day of his coming?
07. And he shall purify the sons of Levi
08. Behold, a virgin shall concieve, and bear a son
09. O thou that tellest good tidings to Zion
10. O thou that tellest good tidings to Zion
11. For behold, darkness shall cover the earth
12. The people that walked in darkness have seen a great light
13. For unto us a child is born
14. Pastoral Symphony
15. There were shepherds abiding in the field… And lo, the angel of the Lord came upon them… And the angel said unto them…
16. Glory to God in the highest
17. Rejoice greatly, o daughter of Zion
18. Then shall the eyes of the blind be opened
19. He shall feed his flock like a shepherd
20. His yoke is easy
Part Two
21. Behold the Lamb of God, that taketh away the sin of the world
22. He was despised and rejected of men
23. Surely he hath borne our griefs and carried our sorrows
CD2:
01. And with his stripes we are healed
02. All we like sheep have gone astray
03. All they that see him laugh him to scorn
04. He trusted in God that he would deliver him
05. Thy rebuke hath broken his heart
06. Behold, and see if there be any sorrow like unto his sorrow
07. He was cut off out of the land of the living
08. But thou didst not leave his soul in hell
09. Lift up your heads, o ye gates
10. Unto which of the angels said he at any time
11. Let all the angels of God worship him
12. Thou art gone up on high, thou hast led captivity captive
13. The Lord gave the word - great was the company of the preachers
14. How beautiful are the feet of them that preach the gospel of peace
15. Their sound is gone out into all lands
16. Why do the nations so furiously rage together
17. Let us break their bonds asunder
18. He that dwelleth in heaven shall laugh them to scorn
19. Thou shalt break them with a rod of iron
20. Hallelujah
Part Three
21. I know that my Redeemer liveth
22. Since by man came death
23. Behold, I tell you a mystery
24. The trumpet shall sound
25. Then shall be brought to pass the saying that is written
26. O death, where is thy sting?
27. But thanks be to God, who giveth us the victory
28. If God be for us, who can be against us?
29. Worthy is the Lamb that was slain
30. Amen
CD3:
Samson, HWV 57
01. Act I. Sinfonia
02. Recitative (Samson): This day, a solemn feast
03. Chorus of Philistines: Awake the trumpet's lofty sound!
04. Air (Dalila): Ye men of Gaza
05. Chorus of Philistines: Awake the trumpet's lofty sound!
06. Air (Philistine): Loud as the thunder's awful voice
07. Air (Philistine woman): Then free from sorrow
08. Chorus of Philistines: Awake the trumpet's lofty sound!
09. Recitative (Samson): Why by an angel was my birth foretold
10. Air (Samson): Torments, alas! are not confin'd
11. Recitative (Micah): Oh change beyond report
12. Air (Micah): Oh mirror of our fickle state!
13. Recitative (Samson): Whom have I to complain of / Recitative (Micah) Matchless in might!
14. Air (Samson): Total eclipse!
15. Air (Micah): Since light so necessary is to life
16. Chorus of Israelites: Oh first created beam!
17. Recitative (Samson): Ye see, my friends / Recitative (Micah): The wisest men have err'd
18. Recitative (Manoa, Micah, Israelitish Man): Brethren and men of Dan
19. Air (Israelitish Man): God of our fathers
20. Recitative (Manoa): The good we wish for
21. Air (Manoa): Thy glorious deeds inspir'd my tongue
22. Recitative (Samson): Justly these evils have befall'n
23. Air (Samson): My griefs for this
24. Air (Samson): Why does the God of Israel sleep?
25. Recitative (Micah): There lies our hope!
26. Chorus of Israelites: Then shall they know
CD4:
01. Recitative (Manoah): For thee, my dearest son / Recitative (Samson): It should be so
02. Air (Micah): Then long eternity shall greet your bliss
03. Air (Micah): Joys that are pure, sincerely good
04. Chorus of Israelites: Then round about the starry throne
05. Recitative (Manoa): Despair not thus! / Recitative (Samson): Where'er the way of God to man
06. Air (Manoa): Just are the way of God to man
07. Recitative (Samson): My evils hopeless are! / Recitative (Micah): Relieve Thy champion
08. Air (Micah): Return, oh God of hosts!
09. Chorus of Israelites: To dust his glory they would tread
10. Recitative (Micah): But who is this? / Air (Samson): My wife? / Air (Micah): She stands / Air (Dalila): With doubtful
11. Air (Dalila): With plantive notes
12. Recitative (Samson): Did love constrain thee?
13. Air (Samson): Your charms to ruin led the way
14. Recitative (Dalila): Forgive what's done
15. Duet (Dalila, Virgin): My faith and truth, oh Samson, prove
16. Chorus of Virgins: Her faith and truth, O Samson, prove
17. Air (Dalila): To fleeting pleasures make your court
18. Chorus of Virgins: Her faith and truth, oh Samson, prove
19. Air (Dalila): How charming is domestic ease!"
20. Chorus of Virgins: Her faith and truth, oh Samson, prove
21. Recitative (Samson): Ne'er think of that / Recitative (Dalila): Let me approach
22. Duet (Dalila, Samson): Traitor to love! I'll sue no more - Traitress to love!
23. Air (Israelitish Man): It is not virtue
24. Recitative (Samson): Favour'd of heaven is he
25. Chorus of Israelites: To man God's universal law
26. Recitatives (Micah): No words of peace / Recitative (Harapha): I come not / Recitative (Samson): The way to know
27. Air (Harapha): Honour and arms scorn such a foe
CD5:
01. Air (Samson): Put on your arms - My strength is from the living God
02. Recitative (Harapha): With thee! / Recitative (Samson): Cam'st thou for this
03. Duet (Samson, Harapha): Go, baffled coward, go
04. Recitative (Micah): Here lies the proof
05. Chorus of Israelites: Hear, Jacob's God, Jehovah, hear!
06. Recitative (Harapha): Dagon, arise!
07. Air (A Philistine): To song and dance we give the day
08. Chorus of Philistines: To song and dance we give the day
09. Double Chorus of Israelites and Philistines: Fix'd in his everlasting seat
10. Recitative (Micah): More trouble is behind - Recitative (Samson): I fear him not / Recitative (Harapha): Samson, to thee our Lords
11. Air (Harapha): Presuming slave, to move their wrath!
12. Recitative (Micah): Reflect then, Samson / Recitative (Samson): Shall I abuse
13. Chorus of Israelites: With thunder arm'd, great God, arise!
14. Recitative (Samson): Be of good courage
15. Air (Samson): Thus when the sun from's wat'ry bed
16. Recitative (Micah): With might endued above the sons of men
17. Air (Micah): The Holy One of Israel be thy guide / Chorus of Israelites: To fame immortal go
18. Recitative (Micah, Manoa): Old Manoa, with youthful steps - I come, my brethren
19. Air (A Philistine) and Chorus of Philistines: Great Dagon has subdue subdued our foe
20. Recitative (Manoa, Micah): What noise of joy was that?
21. Air (Manoa): How willing my paternal love
22. Recitative (Micah): Your hopes of his deliv'ry / Recitative (Manoa): I know you your friendly mind
23. Recitatives (Micah): Noise call you this? / Recitative (Manoa): Ruin indeed / Recitative (Messenger): Try son is rather
24. Air (Micah): Ye sons of Israel, now lament / Chorus of Israelites: Weep, Israel, weep
25. Recitative (Manoa): Proceed we hence to find his body
26. Dead March
27. Recitative (Micah, Manoah): The body comes - There shall all Israel's
28. Chorus of Israelites: Glorious hero
29. Recitative (Manoa): Come, come! no time for lamentation now
30. Air (Israelitish Woman): Let the bright Seraphim
31. Chorus of Israelites: Let their celestal concerts all unite
CD6:
Rinaldo
01. Act 3. Or la tromba in suon festante
02. Act 1. Cara sposa
03. Act 1. Venti, turbini, prestate
04. Act 1. Cor ingrato, ti rammembri
Serse
05. Act 1. Frondi tenere e belle… Ombra mai fù di vegetabile
Partenope
06. Act 2. Furibondo spira il vento
Agrippina
07. Act 3. Bel piacere è godere fido amor!
Rinaldo
08. Act 2. Laschia ch'io pianga mia cruda sorte
Orlando
09. Act 1. Fammi combattere mostri e tifei
Serse
10. Act 1. Ombra mai fu
Ariodante
11. Act 3. Dopo notte
Rinaldo
12. Act 1. Cara sposa
Giulio Cesare
13. Act 3. Caro… Bella
Hercules
14. Act 3. Where shall I fly
Semele
15. Act 2. Hence, Iris, hence away


Exact Audio Copy V1.5 from 20. February 2020

EAC extraction logfile from 21. October 2020, 1:32

Felicity Palmer, Helen Watts, Ryland Davies, John Shirley-Quirk / Messiah (Disc 1)

Used drive : ATAPI iHAS124 F Adapter: 1 ID: 0

Read mode : Secure
Utilize accurate stream : Yes
Defeat audio cache : Yes
Make use of C2 pointers : No

Read offset correction : 6
Overread into Lead-In and Lead-Out : No
Fill up missing offset samples with silence : Yes
Delete leading and trailing silent blocks : No
Null samples used in CRC calculations : Yes
Used interface : Native Win32 interface for Win NT & 2000

Used output format : User Defined Encoder
Selected bitrate : 1024 kBit/s
Quality : High
Add ID3 tag : No
Command line compressor : C:\Program Files (x86)\Exact Audio Copy\FLAC\FLAC.EXE
Additional command line options : -6 -V -T "ARTIST=%artist%" -T "TITLE=%title%" -T "ALBUM=%albumtitle%" -T "DATE=%year%" -T "TRACKNUMBER=%tracknr%" -T "GENRE=%genre%" -T "COMMENT=%comment%" -T "BAND=%albuminterpret%" -T "ALBUMARTIST=%albuminterpret%" -T "COMPOSER=%composer%" %haslyrics%–tag-from-file=LYRICS="%lyricsfile%"%haslyrics% -T "DISCNUMBER=%cdnumber%" -T "TOTALDISCS=%totalcds%" -T "TOTALTRACKS=%numtracks%" %hascover%–picture="%coverfile%"%hascover% %source% -o %dest%


TOC of the extracted CD

Track | Start | Length | Start sector | End sector
––––––––––––––––––––––––––––-
1 | 0:00.00 | 3:10.52 | 0 | 14301
2 | 3:10.52 | 3:35.68 | 14302 | 30494
3 | 6:46.45 | 3:36.42 | 30495 | 46736
4 | 10:23.12 | 2:38.65 | 46737 | 58651
5 | 13:02.02 | 1:37.08 | 58652 | 65934
6 | 14:39.10 | 4:43.47 | 65935 | 87206
7 | 19:22.57 | 2:50.38 | 87207 | 99994
8 | 22:13.20 | 0:27.00 | 99995 | 102019
9 | 22:40.20 | 3:48.40 | 102020 | 119159
10 | 26:28.60 | 1:41.20 | 119160 | 126754
11 | 28:10.05 | 2:53.52 | 126755 | 139781
12 | 31:03.57 | 4:10.63 | 139782 | 158594
13 | 35:14.45 | 4:16.55 | 158595 | 177849
14 | 39:31.25 | 3:22.30 | 177850 | 193029
15 | 42:53.55 | 1:56.72 | 193030 | 201801
16 | 44:50.52 | 1:54.05 | 201802 | 210356
17 | 46:44.57 | 4:25.50 | 210357 | 230281
18 | 51:10.32 | 0:26.20 | 230282 | 232251
19 | 51:36.52 | 6:03.28 | 232252 | 259504
20 | 57:40.05 | 2:48.37 | 259505 | 272141
21 | 60:28.42 | 4:04.25 | 272142 | 290466
22 | 64:32.67 | 11:44.08 | 290467 | 343274
23 | 76:17.00 | 2:25.22 | 343275 | 354171


Range status and errors

Selected range

Filename C:\EACRip\HANDEL\01 - MESSIAH\1974 - Handel - Messiah (Raymond Leppard) [2008]\CD1\Handel - Messiah (Disc 1) - Raymond Leppard.wav

Peak level 88.6 %
Extraction speed 9.9 X
Range quality 100.0 %
Test CRC 44FEA871
Copy CRC 44FEA871
Copy OK

No errors occurred


AccurateRip summary

Track 1 cannot be verified as accurate (confidence 1) [5D55BB48], AccurateRip returned [CE061639] (AR v2)
Track 2 cannot be verified as accurate (confidence 1) [C84855F7], AccurateRip returned [8FBB4603] (AR v2)
Track 3 cannot be verified as accurate (confidence 1) [0D2B62EF], AccurateRip returned [25EF7E2A] (AR v2)
Track 4 cannot be verified as accurate (confidence 1) [834459A1], AccurateRip returned [7E763E77] (AR v2)
Track 5 cannot be verified as accurate (confidence 1) [736FF9F9], AccurateRip returned [21EF0D9A] (AR v2)
Track 6 cannot be verified as accurate (confidence 1) [AA5F3BE4], AccurateRip returned [06C611D6] (AR v2)
Track 7 cannot be verified as accurate (confidence 1) [BD5D624C], AccurateRip returned [3E58A1DF] (AR v2)
Track 8 cannot be verified as accurate (confidence 1) [28C5039B], AccurateRip returned [2CB029B4] (AR v2)
Track 9 cannot be verified as accurate (confidence 1) [DBF818FC], AccurateRip returned [0B7E4152] (AR v2)
Track 10 cannot be verified as accurate (confidence 1) [4EB4E231], AccurateRip returned [D88CC8C9] (AR v2)
Track 11 cannot be verified as accurate (confidence 1) [D168ED24], AccurateRip returned [A9165C8C] (AR v2)
Track 12 cannot be verified as accurate (confidence 1) [0C1013DC], AccurateRip returned [3FC5E737] (AR v2)
Track 13 cannot be verified as accurate (confidence 1) [F46F7EFD], AccurateRip returned [5DC76531] (AR v2)
Track 14 cannot be verified as accurate (confidence 1) [2344D7BE], AccurateRip returned [08567F7E] (AR v2)
Track 15 cannot be verified as accurate (confidence 1) [B45F7230], AccurateRip returned [79833015] (AR v2)
Track 16 cannot be verified as accurate (confidence 1) [62E4F70F], AccurateRip returned [D16B4FA5] (AR v2)
Track 17 cannot be verified as accurate (confidence 1) [158921CE], AccurateRip returned [3C2CF5AC] (AR v2)
Track 18 cannot be verified as accurate (confidence 1) [7282E7FE], AccurateRip returned [A48DFD9A] (AR v2)
Track 19 cannot be verified as accurate (confidence 1) [CDC01819], AccurateRip returned [AC8AA601] (AR v2)
Track 20 cannot be verified as accurate (confidence 1) [4CD7C8D7], AccurateRip returned [DCCACFC5] (AR v2)
Track 21 cannot be verified as accurate (confidence 1) [54626E0D], AccurateRip returned [8487F286] (AR v2)
Track 22 cannot be verified as accurate (confidence 1) [6A38D073], AccurateRip returned [A18ACC54] (AR v2)
Track 23 cannot be verified as accurate (confidence 1) [7D2AACAA], AccurateRip returned [2B580825] (AR v2)

No tracks could be verified as accurate
You may have a different pressing from the one(s) in the database

End of status report

–– CUETools DB Plugin V2.1.6

[CTDB TOCID: fxHtFcQV.KYWc0WnfUy0ydRrkeE-] found
Submit result: fxHtFcQV.KYWc0WnfUy0ydRrkeE- has been confirmed
Track | CTDB Status
1 | (3/9) Accurately ripped
2 | (3/9) Accurately ripped
3 | (3/9) Accurately ripped
4 | (3/9) Accurately ripped
5 | (3/9) Accurately ripped
6 | (3/9) Accurately ripped
7 | (3/9) Accurately ripped
8 | (3/9) Accurately ripped
9 | (3/9) Accurately ripped
10 | (3/9) Accurately ripped
11 | (3/9) Accurately ripped
12 | (3/9) Accurately ripped
13 | (3/9) Accurately ripped
14 | (3/9) Accurately ripped
15 | (3/9) Accurately ripped
16 | (3/9) Accurately ripped
17 | (3/9) Accurately ripped
18 | (3/9) Accurately ripped
19 | (3/9) Accurately ripped
20 | (3/9) Accurately ripped
21 | (3/9) Accurately ripped
22 | (3/9) Accurately ripped
23 | (2/9) Accurately ripped


==== Log checksum 716D22E73329F040CDBEA868FA5AB7F29BD1CE2A4DF946A69E7D3480EAD68909 ====


Exact Audio Copy V1.5 from 20. February 2020

EAC extraction logfile from 21. October 2020, 2:07

Felicity Palmer, Helen Watts, Ryland Davies, John Shirley-Quirk / Messiah (Disc 2)

Used drive : ATAPI iHAS124 F Adapter: 1 ID: 0

Read mode : Secure
Utilize accurate stream : Yes
Defeat audio cache : Yes
Make use of C2 pointers : No

Read offset correction : 6
Overread into Lead-In and Lead-Out : No
Fill up missing offset samples with silence : Yes
Delete leading and trailing silent blocks : No
Null samples used in CRC calculations : Yes
Used interface : Native Win32 interface for Win NT & 2000

Used output format : User Defined Encoder
Selected bitrate : 1024 kBit/s
Quality : High
Add ID3 tag : No
Command line compressor : C:\Program Files (x86)\Exact Audio Copy\FLAC\FLAC.EXE
Additional command line options : -6 -V -T "ARTIST=%artist%" -T "TITLE=%title%" -T "ALBUM=%albumtitle%" -T "DATE=%year%" -T "TRACKNUMBER=%tracknr%" -T "GENRE=%genre%" -T "COMMENT=%comment%" -T "BAND=%albuminterpret%" -T "ALBUMARTIST=%albuminterpret%" -T "COMPOSER=%composer%" %haslyrics%–tag-from-file=LYRICS="%lyricsfile%"%haslyrics% -T "DISCNUMBER=%cdnumber%" -T "TOTALDISCS=%totalcds%" -T "TOTALTRACKS=%numtracks%" %hascover%–picture="%coverfile%"%hascover% %source% -o %dest%


TOC of the extracted CD

Track | Start | Length | Start sector | End sector
––––––––––––––––––––––––––––-
1 | 0:00.00 | 2:09.17 | 0 | 9691
2 | 2:09.17 | 4:25.53 | 9692 | 29619
3 | 6:34.70 | 0:55.12 | 29620 | 33756
4 | 7:30.07 | 2:38.35 | 33757 | 45641
5 | 10:08.42 | 1:54.15 | 45642 | 54206
6 | 12:02.57 | 1:52.58 | 54207 | 62664
7 | 13:55.40 | 0:19.27 | 62665 | 64116
8 | 14:14.67 | 2:31.33 | 64117 | 75474
9 | 16:46.25 | 3:27.67 | 75475 | 91066
10 | 20:14.17 | 0:18.73 | 91067 | 92489
11 | 20:33.15 | 1:44.42 | 92490 | 100331
12 | 22:17.57 | 3:37.03 | 100332 | 116609
13 | 25:54.60 | 1:19.50 | 116610 | 122584
14 | 27:14.35 | 2:28.25 | 122585 | 133709
15 | 29:42.60 | 1:09.42 | 133710 | 138926
16 | 30:52.27 | 2:40.00 | 138927 | 150926
17 | 33:32.27 | 2:11.25 | 150927 | 160776
18 | 35:43.52 | 0:17.65 | 160777 | 162116
19 | 36:01.42 | 2:16.40 | 162117 | 172356
20 | 38:18.07 | 4:06.03 | 172357 | 190809
21 | 42:24.10 | 6:37.25 | 190810 | 220609
22 | 49:01.35 | 2:19.02 | 220610 | 231036
23 | 51:20.37 | 0:43.08 | 231037 | 234269
24 | 52:03.45 | 8:11.02 | 234270 | 271096
25 | 60:14.47 | 0:20.43 | 271097 | 272639
26 | 60:35.15 | 1:41.72 | 272640 | 280286
27 | 62:17.12 | 3:30.65 | 280287 | 296101
28 | 65:48.02 | 4:31.35 | 296102 | 316461
29 | 70:19.37 | 3:50.73 | 316462 | 333784
30 | 74:10.35 | 4:24.22 | 333785 | 353606


Range status and errors

Selected range

Filename C:\EACRip\HANDEL\01 - MESSIAH\1974 - Handel - Messiah (Raymond Leppard) [2008]\CD2\Handel - Messiah (Disc 2) - Raymond Leppard.wav

Peak level 98.0 %
Extraction speed 9.6 X
Range quality 99.9 %
Test CRC 303EB5DA
Copy CRC 303EB5DA
Copy OK

No errors occurred


AccurateRip summary

Track 1 cannot be verified as accurate (confidence 1) [A1066E9C], AccurateRip returned [B38000E3] (AR v2)
Track 2 cannot be verified as accurate (confidence 1) [5E63D4E5], AccurateRip returned [EE94FCE6] (AR v2)
Track 3 cannot be verified as accurate (confidence 1) [9CB841A9], AccurateRip returned [361B3EF7] (AR v2)
Track 4 cannot be verified as accurate (confidence 1) [3F17829D], AccurateRip returned [8E4F03B1] (AR v2)
Track 5 cannot be verified as accurate (confidence 1) [EA13001B], AccurateRip returned [C5A71FE8] (AR v2)
Track 6 cannot be verified as accurate (confidence 1) [39505BB7], AccurateRip returned [75231012] (AR v2)
Track 7 cannot be verified as accurate (confidence 1) [705942E4], AccurateRip returned [5B7B77E9] (AR v2)
Track 8 cannot be verified as accurate (confidence 1) [58F806C0], AccurateRip returned [9367A168] (AR v2)
Track 9 cannot be verified as accurate (confidence 1) [4711FEDB], AccurateRip returned [920B85D6] (AR v2)
Track 10 cannot be verified as accurate (confidence 1) [386B18DE], AccurateRip returned [ED2B5267] (AR v2)
Track 11 cannot be verified as accurate (confidence 1) [2711ADFC], AccurateRip returned [AC1ED986] (AR v2)
Track 12 cannot be verified as accurate (confidence 1) [BE9DBE1E], AccurateRip returned [F9920785] (AR v2)
Track 13 cannot be verified as accurate (confidence 1) [A290299D], AccurateRip returned [C5A696BD] (AR v2)
Track 14 cannot be verified as accurate (confidence 1) [249A8194], AccurateRip returned [EC49E7D2] (AR v2)
Track 15 cannot be verified as accurate (confidence 1) [D91386A1], AccurateRip returned [CE743B55] (AR v2)
Track 16 cannot be verified as accurate (confidence 1) [1A18BC05], AccurateRip returned [AC962219] (AR v2)
Track 17 cannot be verified as accurate (confidence 1) [BB4862AF], AccurateRip returned [92FB2CCC] (AR v2)
Track 18 cannot be verified as accurate (confidence 1) [95BCF2A1], AccurateRip returned [BD239C5C] (AR v2)
Track 19 cannot be verified as accurate (confidence 1) [0EB2584F], AccurateRip returned [B653A4BE] (AR v2)
Track 20 cannot be verified as accurate (confidence 1) [5C5AE8FB], AccurateRip returned [D3C67C86] (AR v2)
Track 21 cannot be verified as accurate (confidence 1) [A78BC38A], AccurateRip returned [4174DBCF] (AR v2)
Track 22 cannot be verified as accurate (confidence 1) [2C3DC564], AccurateRip returned [5A1CE59F] (AR v2)
Track 23 cannot be verified as accurate (confidence 1) [B6B080AB], AccurateRip returned [8E0D9FFC] (AR v2)
Track 24 cannot be verified as accurate (confidence 1) [FC15811A], AccurateRip returned [7F25567C] (AR v2)
Track 25 cannot be verified as accurate (confidence 1) [CD1F672B], AccurateRip returned [95576B03] (AR v2)
Track 26 cannot be verified as accurate (confidence 1) [B3A77E38], AccurateRip returned [9D3AE76D] (AR v2)
Track 27 cannot be verified as accurate (confidence 1) [FC35320A], AccurateRip returned [B9D3E5A9] (AR v2)
Track 28 cannot be verified as accurate (confidence 1) [1B58306D], AccurateRip returned [1D9ADF1C] (AR v2)
Track 29 cannot be verified as accurate (confidence 1) [842A5ACE], AccurateRip returned [9026521B] (AR v2)
Track 30 cannot be verified as accurate (confidence 1) [4F03D8EA], AccurateRip returned [5C9E94A3] (AR v2)

No tracks could be verified as accurate
You may have a different pressing from the one(s) in the database

End of status report

–– CUETools DB Plugin V2.1.6

[CTDB TOCID: 3RyhOSB4cX8K4ddlzjQQWV4WqXA-] found
Submit result: 3RyhOSB4cX8K4ddlzjQQWV4WqXA- has been confirmed
Track | CTDB Status
1 | ( 2/10) Accurately ripped
2 | ( 3/10) Accurately ripped
3 | ( 3/10) Accurately ripped
4 | ( 3/10) Accurately ripped
5 | ( 3/10) Accurately ripped
6 | ( 3/10) Accurately ripped
7 | ( 3/10) Accurately ripped
8 | ( 3/10) Accurately ripped
9 | ( 3/10) Accurately ripped
10 | ( 3/10) Accurately ripped
11 | ( 3/10) Accurately ripped
12 | ( 3/10) Accurately ripped
13 | ( 3/10) Accurately ripped
14 | ( 3/10) Accurately ripped
15 | ( 3/10) Accurately ripped
16 | ( 3/10) Accurately ripped
17 | ( 3/10) Accurately ripped
18 | ( 3/10) Accurately ripped
19 | ( 3/10) Accurately ripped
20 | ( 3/10) Accurately ripped
21 | ( 3/10) Accurately ripped
22 | ( 3/10) Accurately ripped
23 | ( 3/10) Accurately ripped
24 | ( 3/10) Accurately ripped
25 | ( 3/10) Accurately ripped
26 | ( 3/10) Accurately ripped
27 | ( 3/10) Accurately ripped
28 | ( 3/10) Accurately ripped
29 | ( 3/10) Accurately ripped
30 | ( 3/10) Accurately ripped


==== Log checksum A9CC5CDF67A07526A0A38BBA8A6822C3F1BB20D2F85662E3FC062029CF27CE39 ====


Exact Audio Copy V1.5 from 20. February 2020

EAC extraction logfile from 21. October 2020, 3:27

Janet Baker, Helen Watts, Robert Tear, John Shirley-Quirk, Norma Burrowes, Philip Langridge, Alexander Oliver / Samson (Disc 1)

Used drive : ATAPI iHAS124 F Adapter: 1 ID: 0

Read mode : Secure
Utilize accurate stream : Yes
Defeat audio cache : Yes
Make use of C2 pointers : No

Read offset correction : 6
Overread into Lead-In and Lead-Out : No
Fill up missing offset samples with silence : Yes
Delete leading and trailing silent blocks : No
Null samples used in CRC calculations : Yes
Used interface : Native Win32 interface for Win NT & 2000

Used output format : User Defined Encoder
Selected bitrate : 1024 kBit/s
Quality : High
Add ID3 tag : No
Command line compressor : C:\Program Files (x86)\Exact Audio Copy\FLAC\FLAC.EXE
Additional command line options : -6 -V -T "ARTIST=%artist%" -T "TITLE=%title%" -T "ALBUM=%albumtitle%" -T "DATE=%year%" -T "TRACKNUMBER=%tracknr%" -T "GENRE=%genre%" -T "COMMENT=%comment%" -T "BAND=%albuminterpret%" -T "ALBUMARTIST=%albuminterpret%" -T "COMPOSER=%composer%" %haslyrics%–tag-from-file=LYRICS="%lyricsfile%"%haslyrics% -T "DISCNUMBER=%cdnumber%" -T "TOTALDISCS=%totalcds%" -T "TOTALTRACKS=%numtracks%" %hascover%–picture="%coverfile%"%hascover% %source% -o %dest%


TOC of the extracted CD

Track | Start | Length | Start sector | End sector
––––––––––––––––––––––––––––-
1 | 0:00.00 | 8:40.19 | 0 | 39018
2 | 8:40.19 | 0:37.74 | 39019 | 41867
3 | 9:18.18 | 2:13.58 | 41868 | 51900
4 | 11:32.01 | 3:43.36 | 51901 | 68661
5 | 15:15.37 | 0:35.09 | 68662 | 71295
6 | 15:50.46 | 3:05.09 | 71296 | 85179
7 | 18:55.55 | 2:49.19 | 85180 | 97873
8 | 21:44.74 | 0:34.26 | 97874 | 100449
9 | 22:19.25 | 1:10.24 | 100450 | 105723
10 | 23:29.49 | 3:35.74 | 105724 | 121922
11 | 27:05.48 | 0:55.24 | 121923 | 126071
12 | 28:00.72 | 3:47.29 | 126072 | 143125
13 | 31:48.26 | 2:22.29 | 143126 | 153804
14 | 34:10.55 | 3:57.37 | 153805 | 171616
15 | 38:08.17 | 1:24.58 | 171617 | 177974
16 | 39:33.00 | 4:10.56 | 177975 | 196780
17 | 43:43.56 | 1:39.34 | 196781 | 204239
18 | 45:23.15 | 1:52.20 | 204240 | 212659
19 | 47:15.35 | 2:31.61 | 212660 | 224045
20 | 49:47.21 | 1:14.55 | 224046 | 229650
21 | 51:02.01 | 4:49.52 | 229651 | 251377
22 | 55:51.53 | 1:36.52 | 251378 | 258629
23 | 57:28.30 | 1:11.12 | 258630 | 263966
24 | 58:39.42 | 5:16.25 | 263967 | 287691
25 | 63:55.67 | 0:23.53 | 287692 | 289469
26 | 64:19.45 | 2:28.42 | 289470 | 300611


Range status and errors

Selected range

Filename C:\EACRip\HANDEL\01 - MESSIAH\Handel Edition Vol. 4 - Messiah. Samson. Arias (Raymond Leppard, et al.) (Warner 2008)\CD3 - Samson (1)\Handel - Samson (Disc 1) - Raymond Leppard.wav

Peak level 85.0 %
Extraction speed 9.5 X
Range quality 100.0 %
Test CRC BEA13A59
Copy CRC BEA13A59
Copy OK

No errors occurred


AccurateRip summary

Track 1 not present in database
Track 2 not present in database
Track 3 not present in database
Track 4 not present in database
Track 5 not present in database
Track 6 not present in database
Track 7 not present in database
Track 8 not present in database
Track 9 not present in database
Track 10 not present in database
Track 11 not present in database
Track 12 not present in database
Track 13 not present in database
Track 14 not present in database
Track 15 not present in database
Track 16 not present in database
Track 17 not present in database
Track 18 not present in database
Track 19 not present in database
Track 20 not present in database
Track 21 not present in database
Track 22 not present in database
Track 23 not present in database
Track 24 not present in database
Track 25 not present in database
Track 26 not present in database

None of the tracks are present in the AccurateRip database

End of status report

–– CUETools DB Plugin V2.1.6

[CTDB TOCID: Y17VwxdejHFUkzQCff8a5Igtlko-] found
Submit result: Y17VwxdejHFUkzQCff8a5Igtlko- has been confirmed
Track | CTDB Status
1 | (2/2) Accurately ripped
2 | (2/2) Accurately ripped
3 | (2/2) Accurately ripped
4 | (2/2) Accurately ripped
5 | (2/2) Accurately ripped
6 | (2/2) Accurately ripped
7 | (2/2) Accurately ripped
8 | (2/2) Accurately ripped
9 | (2/2) Accurately ripped
10 | (2/2) Accurately ripped
11 | (2/2) Accurately ripped
12 | (2/2) Accurately ripped
13 | (2/2) Accurately ripped
14 | (2/2) Accurately ripped
15 | (2/2) Accurately ripped
16 | (2/2) Accurately ripped
17 | (2/2) Accurately ripped
18 | (2/2) Accurately ripped
19 | (2/2) Accurately ripped
20 | (2/2) Accurately ripped
21 | (2/2) Accurately ripped
22 | (2/2) Accurately ripped
23 | (2/2) Accurately ripped
24 | (2/2) Accurately ripped
25 | (2/2) Accurately ripped
26 | (2/2) Accurately ripped


==== Log checksum 29DD4956ECAA3D3AB3AF449702886E9AB06BE6D673B77FF2A9BE362778168494 ====


Exact Audio Copy V1.5 from 20. February 2020

EAC extraction logfile from 21. October 2020, 13:35

Janet Baker, Helen Watts, Robert Tear, John Shirley-Quirk, Norma Burrowes, Philip Langridge, Benjamin Luxon, Alexander Oliver / Samson (Disc 2)

Used drive : ATAPI iHAS124 F Adapter: 1 ID: 0

Read mode : Secure
Utilize accurate stream : Yes
Defeat audio cache : Yes
Make use of C2 pointers : No

Read offset correction : 6
Overread into Lead-In and Lead-Out : No
Fill up missing offset samples with silence : Yes
Delete leading and trailing silent blocks : No
Null samples used in CRC calculations : Yes
Used interface : Native Win32 interface for Win NT & 2000

Used output format : User Defined Encoder
Selected bitrate : 1024 kBit/s
Quality : High
Add ID3 tag : No
Command line compressor : C:\Program Files (x86)\Exact Audio Copy\FLAC\FLAC.EXE
Additional command line options : -6 -V -T "ARTIST=%artist%" -T "TITLE=%title%" -T "ALBUM=%albumtitle%" -T "DATE=%year%" -T "TRACKNUMBER=%tracknr%" -T "GENRE=%genre%" -T "COMMENT=%comment%" -T "BAND=%albuminterpret%" -T "ALBUMARTIST=%albuminterpret%" -T "COMPOSER=%composer%" %haslyrics%–tag-from-file=LYRICS="%lyricsfile%"%haslyrics% -T "DISCNUMBER=%cdnumber%" -T "TOTALDISCS=%totalcds%" -T "TOTALTRACKS=%numtracks%" %hascover%–picture="%coverfile%"%hascover% %source% -o %dest%


TOC of the extracted CD

Track | Start | Length | Start sector | End sector
––––––––––––––––––––––––––––-
1 | 0:00.00 | 2:57.39 | 0 | 13313
2 | 2:57.39 | 2:06.22 | 13314 | 22785
3 | 5:03.61 | 3:09.51 | 22786 | 37011
4 | 8:13.37 | 2:18.01 | 37012 | 47362
5 | 10:31.38 | 1:20.61 | 47363 | 53423
6 | 11:52.24 | 3:53.38 | 53424 | 70936
7 | 15:45.62 | 0:46.09 | 70937 | 74395
8 | 16:31.71 | 4:48.07 | 74396 | 96002
9 | 21:20.03 | 3:33.24 | 96003 | 112001
10 | 24:53.27 | 3:01.67 | 112002 | 125643
11 | 27:55.19 | 7:38.40 | 125644 | 160033
12 | 35:33.59 | 0:49.51 | 160034 | 163759
13 | 36:23.35 | 3:09.21 | 163760 | 177955
14 | 39:32.56 | 0:34.26 | 177956 | 180531
15 | 40:07.07 | 4:35.55 | 180532 | 201211
16 | 44:42.62 | 1:13.68 | 201212 | 206754
17 | 45:56.55 | 1:50.25 | 206755 | 215029
18 | 47:47.05 | 1:12.51 | 215030 | 220480
19 | 48:59.56 | 1:47.72 | 220481 | 228577
20 | 50:47.53 | 1:13.43 | 228578 | 234095
21 | 52:01.21 | 1:33.36 | 234096 | 241106
22 | 53:34.57 | 2:05.50 | 241107 | 250531
23 | 55:40.32 | 5:10.32 | 250532 | 273813
24 | 60:50.64 | 0:18.61 | 273814 | 275224
25 | 61:09.50 | 3:10.05 | 275225 | 289479
26 | 64:19.55 | 1:56.20 | 289480 | 298199
27 | 66:16.00 | 6:11.14 | 298200 | 326038


Range status and errors

Selected range

Filename C:\EACRip\HANDEL\01 - MESSIAH\Handel Edition Vol. 4 - Messiah. Samson. Arias (Raymond Leppard, et al.) (Warner 2008)\CD4 - Samson (2)\Handel - Samson (Disc 2) - Raymond Leppard.wav

Peak level 82.0 %
Extraction speed 9.5 X
Range quality 99.9 %
Test CRC 4CC6878B
Copy CRC 4CC6878B
Copy OK

No errors occurred


AccurateRip summary

Track 1 not present in database
Track 2 not present in database
Track 3 not present in database
Track 4 not present in database
Track 5 not present in database
Track 6 not present in database
Track 7 not present in database
Track 8 not present in database
Track 9 not present in database
Track 10 not present in database
Track 11 not present in database
Track 12 not present in database
Track 13 not present in database
Track 14 not present in database
Track 15 not present in database
Track 16 not present in database
Track 17 not present in database
Track 18 not present in database
Track 19 not present in database
Track 20 not present in database
Track 21 not present in database
Track 22 not present in database
Track 23 not present in database
Track 24 not present in database
Track 25 not present in database
Track 26 not present in database
Track 27 not present in database

None of the tracks are present in the AccurateRip database

End of status report

–– CUETools DB Plugin V2.1.6

[CTDB TOCID: numLQsLBxBnG6q_CwhdSbFtGOlw-] found
Submit result: numLQsLBxBnG6q_CwhdSbFtGOlw- has been confirmed
Track | CTDB Status
1 | (2/2) Accurately ripped
2 | (2/2) Accurately ripped
3 | (2/2) Accurately ripped
4 | (2/2) Accurately ripped
5 | (2/2) Accurately ripped
6 | (2/2) Accurately ripped
7 | (2/2) Accurately ripped
8 | (2/2) Accurately ripped
9 | (2/2) Accurately ripped
10 | (2/2) Accurately ripped
11 | (2/2) Accurately ripped
12 | (2/2) Accurately ripped
13 | (2/2) Accurately ripped
14 | (2/2) Accurately ripped
15 | (2/2) Accurately ripped
16 | (2/2) Accurately ripped
17 | (2/2) Accurately ripped
18 | (2/2) Accurately ripped
19 | (2/2) Accurately ripped
20 | (2/2) Accurately ripped
21 | (2/2) Accurately ripped
22 | (2/2) Accurately ripped
23 | (2/2) Accurately ripped
24 | (2/2) Accurately ripped
25 | (2/2) Accurately ripped
26 | (2/2) Accurately ripped
27 | (2/2) Accurately ripped


==== Log checksum 1C9C4B8D2A87DE1C5AD2B2ABCBE260DC3EB60743C195E7562203609464C08AE2 ====


Exact Audio Copy V1.5 from 20. February 2020

EAC extraction logfile from 21. October 2020, 14:24

Janet Baker, Helen Watts, Robert Tear, John Shirley-Quirk, Norma Burrowes, Philip Langridge, Benjamin Luxon, Alexander Oliver / Samson (Disc 3)

Used drive : ATAPI iHAS124 F Adapter: 1 ID: 0

Read mode : Secure
Utilize accurate stream : Yes
Defeat audio cache : Yes
Make use of C2 pointers : No

Read offset correction : 6
Overread into Lead-In and Lead-Out : No
Fill up missing offset samples with silence : Yes
Delete leading and trailing silent blocks : No
Null samples used in CRC calculations : Yes
Used interface : Native Win32 interface for Win NT & 2000

Used output format : User Defined Encoder
Selected bitrate : 1024 kBit/s
Quality : High
Add ID3 tag : No
Command line compressor : C:\Program Files (x86)\Exact Audio Copy\FLAC\FLAC.EXE
Additional command line options : -6 -V -T "ARTIST=%artist%" -T "TITLE=%title%" -T "ALBUM=%albumtitle%" -T "DATE=%year%" -T "TRACKNUMBER=%tracknr%" -T "GENRE=%genre%" -T "COMMENT=%comment%" -T "BAND=%albuminterpret%" -T "ALBUMARTIST=%albuminterpret%" -T "COMPOSER=%composer%" %haslyrics%–tag-from-file=LYRICS="%lyricsfile%"%haslyrics% -T "DISCNUMBER=%cdnumber%" -T "TOTALDISCS=%totalcds%" -T "TOTALTRACKS=%numtracks%" %hascover%–picture="%coverfile%"%hascover% %source% -o %dest%


TOC of the extracted CD

Track | Start | Length | Start sector | End sector
––––––––––––––––––––––––––––-
1 | 0:00.00 | 3:07.56 | 0 | 14080
2 | 3:07.56 | 0:47.14 | 14081 | 17619
3 | 3:54.70 | 2:36.60 | 17620 | 29379
4 | 6:31.55 | 0:51.61 | 29380 | 33265
5 | 7:23.41 | 2:57.46 | 33266 | 46586
6 | 10:21.12 | 0:18.33 | 46587 | 47969
7 | 10:39.45 | 4:20.44 | 47970 | 67513
8 | 15:00.14 | 2:18.13 | 67514 | 77876
9 | 17:18.27 | 3:02.34 | 77877 | 91560
10 | 20:20.61 | 1:16.14 | 91561 | 97274
11 | 21:37.00 | 2:42.66 | 97275 | 109490
12 | 24:19.66 | 0:46.11 | 109491 | 112951
13 | 25:06.02 | 3:19.37 | 112952 | 127913
14 | 28:25.39 | 2:42.68 | 127914 | 140131
15 | 31:08.32 | 4:22.37 | 140132 | 159818
16 | 35:30.69 | 0:41.34 | 159819 | 162927
17 | 36:12.28 | 2:43.67 | 162928 | 175219
18 | 38:56.20 | 0:27.60 | 175220 | 177304
19 | 39:24.05 | 3:50.42 | 177305 | 194596
20 | 43:14.47 | 0:50.00 | 194597 | 198346
21 | 44:04.47 | 3:35.25 | 198347 | 214496
22 | 47:39.72 | 1:48.36 | 214497 | 222632
23 | 49:28.33 | 1:59.05 | 222633 | 231562
24 | 51:27.38 | 3:47.48 | 231563 | 248635
25 | 55:15.11 | 0:53.20 | 248636 | 252630
26 | 56:08.31 | 2:48.21 | 252631 | 265251
27 | 58:56.52 | 0:59.60 | 265252 | 269736
28 | 59:56.37 | 5:12.66 | 269737 | 293202
29 | 65:09.28 | 1:04.72 | 293203 | 298074
30 | 66:14.25 | 3:31.03 | 298075 | 313902
31 | 69:45.28 | 3:35.35 | 313903 | 330062


Range status and errors

Selected range

Filename C:\EACRip\HANDEL\01 - MESSIAH\Handel Edition Vol. 4 - Messiah. Samson. Arias (Raymond Leppard, et al.) (Warner 2008)\CD5 - Samson (3)\Handel - Samson (Disc 3) - Raymond Leppard.wav

Peak level 85.7 %
Extraction speed 9.6 X
Range quality 100.0 %
Test CRC 72FFC2EB
Copy CRC 72FFC2EB
Copy OK

No errors occurred


AccurateRip summary

Track 1 not present in database
Track 2 not present in database
Track 3 not present in database
Track 4 not present in database
Track 5 not present in database
Track 6 not present in database
Track 7 not present in database
Track 8 not present in database
Track 9 not present in database
Track 10 not present in database
Track 11 not present in database
Track 12 not present in database
Track 13 not present in database
Track 14 not present in database
Track 15 not present in database
Track 16 not present in database
Track 17 not present in database
Track 18 not present in database
Track 19 not present in database
Track 20 not present in database
Track 21 not present in database
Track 22 not present in database
Track 23 not present in database
Track 24 not present in database
Track 25 not present in database
Track 26 not present in database
Track 27 not present in database
Track 28 not present in database
Track 29 not present in database
Track 30 not present in database
Track 31 not present in database

None of the tracks are present in the AccurateRip database

End of status report

–– CUETools DB Plugin V2.1.6

[CTDB TOCID: 4pVi02ohaVAXhwhZTPEetjOf9sQ-] found
Submit result: 4pVi02ohaVAXhwhZTPEetjOf9sQ- has been confirmed
Track | CTDB Status
1 | (2/2) Accurately ripped
2 | (2/2) Accurately ripped
3 | (2/2) Accurately ripped
4 | (2/2) Accurately ripped
5 | (2/2) Accurately ripped
6 | (2/2) Accurately ripped
7 | (2/2) Accurately ripped
8 | (2/2) Accurately ripped
9 | (2/2) Accurately ripped
10 | (2/2) Accurately ripped
11 | (2/2) Accurately ripped
12 | (2/2) Accurately ripped
13 | (2/2) Accurately ripped
14 | (2/2) Accurately ripped
15 | (2/2) Accurately ripped
16 | (2/2) Accurately ripped
17 | (2/2) Accurately ripped
18 | (2/2) Accurately ripped
19 | (2/2) Accurately ripped
20 | (2/2) Accurately ripped
21 | (2/2) Accurately ripped
22 | (2/2) Accurately ripped
23 | (2/2) Accurately ripped
24 | (2/2) Accurately ripped
25 | (2/2) Accurately ripped
26 | (2/2) Accurately ripped
27 | (2/2) Accurately ripped
28 | (2/2) Accurately ripped
29 | (2/2) Accurately ripped
30 | (2/2) Accurately ripped
31 | (2/2) Accurately ripped


==== Log checksum 6CCEFAB291A46D534F4842D33704681074FC901D73B3DA3069506AD3FF47694E ====


Exact Audio Copy V1.5 from 20. February 2020

EAC extraction logfile from 21. October 2020, 15:20

Marilyn Horne, Jennifer Larmore / Handel Edition, Vol. 4, CD 6 - Arias

Used drive : ATAPI iHAS124 F Adapter: 1 ID: 0

Read mode : Secure
Utilize accurate stream : Yes
Defeat audio cache : Yes
Make use of C2 pointers : No

Read offset correction : 6
Overread into Lead-In and Lead-Out : No
Fill up missing offset samples with silence : Yes
Delete leading and trailing silent blocks : No
Null samples used in CRC calculations : Yes
Used interface : Native Win32 interface for Win NT & 2000

Used output format : User Defined Encoder
Selected bitrate : 1024 kBit/s
Quality : High
Add ID3 tag : No
Command line compressor : C:\Program Files (x86)\Exact Audio Copy\FLAC\FLAC.EXE
Additional command line options : -6 -V -T "ARTIST=%artist%" -T "TITLE=%title%" -T "ALBUM=%albumtitle%" -T "DATE=%year%" -T "TRACKNUMBER=%tracknr%" -T "GENRE=%genre%" -T "COMMENT=%comment%" -T "BAND=%albuminterpret%" -T "ALBUMARTIST=%albuminterpret%" -T "COMPOSER=%composer%" %haslyrics%–tag-from-file=LYRICS="%lyricsfile%"%haslyrics% -T "DISCNUMBER=%cdnumber%" -T "TOTALDISCS=%totalcds%" -T "TOTALTRACKS=%numtracks%" %hascover%–picture="%coverfile%"%hascover% %source% -o %dest%


TOC of the extracted CD

Track | Start | Length | Start sector | End sector
––––––––––––––––––––––––––––-
1 | 0:00.00 | 3:49.44 | 0 | 17218
2 | 3:49.44 | 9:48.22 | 17219 | 61340
3 | 13:37.66 | 4:55.10 | 61341 | 83475
4 | 18:33.01 | 4:42.27 | 83476 | 104652
5 | 23:15.28 | 4:17.03 | 104653 | 123930
6 | 27:32.31 | 4:52.60 | 123931 | 145890
7 | 32:25.16 | 2:24.05 | 145891 | 156695
8 | 34:49.21 | 5:03.73 | 156696 | 179493
9 | 39:53.19 | 3:52.06 | 179494 | 196899
10 | 43:45.25 | 3:35.03 | 196900 | 213027
11 | 47:20.28 | 7:18.39 | 213028 | 245916
12 | 54:38.67 | 10:31.19 | 245917 | 293260
13 | 65:10.11 | 5:05.06 | 293261 | 316141
14 | 70:15.17 | 6:31.15 | 316142 | 345481
15 | 76:46.32 | 3:41.56 | 345482 | 362112


Range status and errors

Selected range

Filename C:\EACRip\HANDEL\01 - MESSIAH\Handel Edition Vol. 4 - Messiah. Samson. Arias (Raymond Leppard, et al.) (Warner 2008)\CD6 - Arias\Handel Edition, Vol. 4, CD 6 - Arias - Marilyn Horne, Jennifer Larmore.wav

Peak level 100.0 %
Extraction speed 9.9 X
Range quality 100.0 %
Test CRC 6248B3A4
Copy CRC 6248B3A4
Copy OK

No errors occurred


AccurateRip summary

Track 1 not present in database
Track 2 not present in database
Track 3 not present in database
Track 4 not present in database
Track 5 not present in database
Track 6 not present in database
Track 7 not present in database
Track 8 not present in database
Track 9 not present in database
Track 10 not present in database
Track 11 not present in database
Track 12 not present in database
Track 13 not present in database
Track 14 not present in database
Track 15 not present in database

None of the tracks are present in the AccurateRip database

End of status report

–– CUETools DB Plugin V2.1.6

[CTDB TOCID: pthWbtA6DZt0dOVMJIBykbTWbWQ-] found
Submit result: pthWbtA6DZt0dOVMJIBykbTWbWQ- has been confirmed
Track | CTDB Status
1 | (2/2) Accurately ripped
2 | (2/2) Accurately ripped
3 | (2/2) Accurately ripped
4 | (2/2) Accurately ripped
5 | (2/2) Accurately ripped
6 | (2/2) Accurately ripped
7 | (2/2) Accurately ripped
8 | (2/2) Accurately ripped
9 | (2/2) Accurately ripped
10 | (2/2) Accurately ripped
11 | (2/2) Accurately ripped
12 | (2/2) Accurately ripped
13 | (2/2) Accurately ripped
14 | (2/2) Accurately ripped
15 | (2/2) Accurately ripped


==== Log checksum 9262DBE64D04602C920B3E09CB0993C2A3764A063B6CA8921BF4A07402048FBC ====

Handel Edition Vol. 4 - Messiah; Samson; Arias from Rinaldo and other operas [6CDs] (2008)

Thanks to the original releaser