Tags
Language
Tags

Hanoi Rocks - Self Destruction Blues (1982) [Japanese Ed.]

Posted By: v3122
Hanoi Rocks - Self Destruction Blues (1982) [Japanese Ed.]

Hanoi Rocks - Self Destruction Blues (1982)
EAC | Flac(Image) + Cue + Log & MP3 CBR 320Kbps
1988 | Mercury, 23PD-107 | ~ 266 or 97 Mb | Artwork(jpg) -> 6.46 Mb
Hard Rock, Glam Rock

Hanoi Rocks resolutely break no bounds on the band's third studio effort, Self Destruction Blues, but then again, anyone expecting that was in the wrong place; those expecting obvious nods to the likes of Ziggy-era Bowie, Mott the Hoople, and the like, though, would be in heaven. Michael Monroe's confident singing, if nowhere near as wonderfully unhinged as the Scandinavian hard rock monsters of the '90s, does the job with the right amount of implied strut and sleaze; if anything, the bizarrely sweet backing vocals on many songs seem to undercut what he's trying to do. Andy McCoy and Nasty Suicide do their expected riff-and-roll, Sam Yaffa doesn't disgrace himself on bass, and the end result is entertaining – if not mind-blowing – fun. The genre exercise of the title track works better than some might have thought, with Monroe blowing on his harmonica in prime Chicago electric blues style and getting a reasonable wail going (the production on the track intentionally sounds old, to boot). The best moments, though, come from the unexpected moments – check the low-key verses on "Café Avenue," with Monroe quietly purring tales of decadence and surviving on the streets, or the giddy pop nuttiness of "Desperados," one of the least threatening, but still fun, rough-guy songs ever. "Kill City" finds drummer Gyp Casino – who was replaced by Razzle after recording and prior to the album's release – pulling off a bit of introductory percussion that might not be out of place on a Santana record. However, the of-the-time synth line on "Whispers in the Dark" should be taken out and shot.

by Ned Raggett, allmusic
Hanoi Rocks - Self Destruction Blues (1982):

Hanoi Rocks - Self Destruction Blues (1982) [Japanese Ed.]

Tracklist:

01. Love's An Injection (03:23)
02. I Want You (03:14)
03. Cafe Avenue (03:22)
04. Nothing New (03:19)
05. Kill City (04:26)
06. Self Destruction Blues (02:44)
07. Beer And A Cigarette (03:20)
08. Whispers In The Dark (03:35)
09. Taxi Driver (04:12)
10. Desperados (03:59)
11. Problem Child (02:01)
12. Dead By X'Mas (02:59)

Michael Monroe – vocals, sax, drums on #15
Andy McCoy – guitars
Nasty Suicide – guitars
Sam Yaffa – bass
Gyp Casino – drums on #1, #3-4 and #6-14

Exact Audio Copy V0.99 prebeta 4 from 23. January 2008

EAC extraction logfile from 12. June 2010, 15:43

Hanoi Rocks / Self Destruction Blues

Used drive : ASUS DRW-20B1LT Adapter: 1 ID: 1

Read mode : Secure
Utilize accurate stream : Yes
Defeat audio cache : Yes
Make use of C2 pointers : No

Read offset correction : 6
Overread into Lead-In and Lead-Out : No
Fill up missing offset samples with silence : Yes
Delete leading and trailing silent blocks : No
Null samples used in CRC calculations : Yes
Used interface : Native Win32 interface for Win NT & 2000
Gap handling : Appended to previous track

Used output format : User Defined Encoder
Selected bitrate : 320 kBit/s
Quality : High
Add ID3 tag : No
Command line compressor : C:\Program Files\Exact Audio Copy\Flac\flac.exe
Additional command line options : -8 -V -T "ARTIST=%a" -T "TITLE=%t" -T "ALBUM=%g" -T "DATE=%y" -T "TRACKNUMBER=%n" -T "GENRE=%m" -T "COMMENT=EAC FLAC -8" %s


TOC of the extracted CD

Track | Start | Length | Start sector | End sector
––––––––––––––––––––––––––––-
1 | 0:00.00 | 3:24.72 | 0 | 15371
2 | 3:24.72 | 3:15.58 | 15372 | 30054
3 | 6:40.55 | 3:23.27 | 30055 | 45306
4 | 10:04.07 | 3:21.00 | 45307 | 60381
5 | 13:25.07 | 4:27.73 | 60382 | 80479
6 | 17:53.05 | 2:46.70 | 80480 | 92999
7 | 20:40.00 | 3:22.47 | 93000 | 108196
8 | 24:02.47 | 3:35.70 | 108197 | 124391
9 | 27:38.42 | 4:13.40 | 124392 | 143406
10 | 31:52.07 | 4:00.55 | 143407 | 161461
11 | 35:52.62 | 2:02.68 | 161462 | 170679
12 | 37:55.55 | 2:59.10 | 170680 | 184114


Track 1

Filename K:\EACrips\Hanoi Rocks - Self Destruction Blues\01 - Love's An Injection.wav

Pre-gap length 0:00:02.00

Peak level 74.6 %
Track quality 100.0 %
Test CRC BBC11610
Copy CRC BBC11610
Track not present in AccurateRip database
Copy OK

Track 2

Filename K:\EACrips\Hanoi Rocks - Self Destruction Blues\02 - I Want You.wav

Pre-gap length 0:00:01.56

Peak level 76.6 %
Track quality 100.0 %
Test CRC 7AE74EA4
Copy CRC 7AE74EA4
Track not present in AccurateRip database
Copy OK

Track 3

Filename K:\EACrips\Hanoi Rocks - Self Destruction Blues\03 - Cafe Avenue.wav

Pre-gap length 0:00:02.50

Peak level 84.7 %
Track quality 100.0 %
Test CRC C3167BD6
Copy CRC C3167BD6
Track not present in AccurateRip database
Copy OK

Track 4

Filename K:\EACrips\Hanoi Rocks - Self Destruction Blues\04 - Nothing New.wav

Pre-gap length 0:00:01.20

Peak level 71.0 %
Track quality 100.0 %
Test CRC B69D57D0
Copy CRC B69D57D0
Track not present in AccurateRip database
Copy OK

Track 5

Filename K:\EACrips\Hanoi Rocks - Self Destruction Blues\05 - Kill City.wav

Pre-gap length 0:00:01.73

Peak level 59.7 %
Track quality 99.9 %
Test CRC 403C4848
Copy CRC 403C4848
Track not present in AccurateRip database
Copy OK

Track 6

Filename K:\EACrips\Hanoi Rocks - Self Destruction Blues\06 - Self Destruction Blues.wav

Pre-gap length 0:00:01.33

Peak level 50.7 %
Track quality 100.0 %
Test CRC F944EE3D
Copy CRC F944EE3D
Track not present in AccurateRip database
Copy OK

Track 7

Filename K:\EACrips\Hanoi Rocks - Self Destruction Blues\07 - Beer And A Cigarette.wav

Pre-gap length 0:00:02.17

Peak level 75.7 %
Track quality 100.0 %
Test CRC EE855107
Copy CRC EE855107
Track not present in AccurateRip database
Copy OK

Track 8

Filename K:\EACrips\Hanoi Rocks - Self Destruction Blues\08 - Whispers In The Dark.wav

Pre-gap length 0:00:01.89

Peak level 63.9 %
Track quality 100.0 %
Test CRC 8CD606CB
Copy CRC 8CD606CB
Track not present in AccurateRip database
Copy OK

Track 9

Filename K:\EACrips\Hanoi Rocks - Self Destruction Blues\09 - Taxi Driver.wav

Pre-gap length 0:00:01.49

Peak level 62.3 %
Track quality 100.0 %
Test CRC D359733B
Copy CRC D359733B
Track not present in AccurateRip database
Copy OK

Track 10

Filename K:\EACrips\Hanoi Rocks - Self Destruction Blues\10 - Desperados.wav

Pre-gap length 0:00:01.20

Peak level 60.4 %
Track quality 99.9 %
Test CRC 9C750E55
Copy CRC 9C750E55
Track not present in AccurateRip database
Copy OK

Track 11

Filename K:\EACrips\Hanoi Rocks - Self Destruction Blues\11 - Problem Child.wav

Pre-gap length 0:00:01.82

Peak level 62.4 %
Track quality 100.0 %
Test CRC 1DA84E9B
Copy CRC 1DA84E9B
Track not present in AccurateRip database
Copy OK

Track 12

Filename K:\EACrips\Hanoi Rocks - Self Destruction Blues\12 - Dead By X'mas.wav

Pre-gap length 0:00:02.13

Peak level 68.9 %
Track quality 100.0 %
Test CRC F81A5ECF
Copy CRC F81A5ECF
Track not present in AccurateRip database
Copy OK


None of the tracks are present in the AccurateRip database

No errors occurred

End of status report


[CUETools log; Date: 04.07.2020 18:14:30; Version: 2.1.4]
[AccurateRip ID: 00129151-00ad90f7-8809960c] found.
Track [ CRC | V2 ] Status
01 [c457daa0|e6519ef0] (0+2/4) Accurately ripped
02 [45d9dbc4|3cdf3b83] (0+2/4) Accurately ripped
03 [907d4865|1c45be04] (0+2/4) Accurately ripped
04 [30574736|5af187de] (0+2/4) Accurately ripped
05 [683cd24b|c55265b2] (0+2/4) Accurately ripped
06 [9fdecbff|e7375b5f] (0+2/4) Accurately ripped
07 [574ef795|862d200e] (0+2/4) Accurately ripped
08 [e9465b57|ed48cf2d] (0+2/4) Accurately ripped
09 [4dac5c4c|49ff2e9f] (0+2/4) Accurately ripped
10 [ab517b9e|aeb9a285] (0+2/5) Accurately ripped
11 [bb394cb6|b62e7c65] (0+2/5) Accurately ripped
12 [1a0b3504|80f7e1f7] (0+2/5) Accurately ripped
Offsetted by 1026:
01 [aad018fa] (0/4) No match (V2 was not tested)
02 [cace92c8] (0/4) No match (V2 was not tested)
03 [581666da] (0/4) No match (V2 was not tested)
04 [4ad0048c] (0/4) No match (V2 was not tested)
05 [d271b90d] (0/4) No match (V2 was not tested)
06 [66946705] (0/4) No match (V2 was not tested)
07 [9a5fdcee] (0/4) No match (V2 was not tested)
08 [133fd443] (0/4) No match (V2 was not tested)
09 [eae07c44] (0/4) No match (V2 was not tested)
10 [951a6452] (0/5) No match (V2 was not tested)
11 [ac245bf2] (0/5) No match (V2 was not tested)
12 [d6d2cae4] (0/5) No match (V2 was not tested)

Track Peak [ CRC32 ] [W/O NULL] [ LOG ]
– 84,7 [F3D1561D] [F91BBB18]
01 74,6 [BBC11610] [97CE9228] CRC32
02 76,6 [7AE74EA4] [F4AEE48E] CRC32
03 84,7 [C3167BD6] [437933A1] CRC32
04 71,0 [B69D57D0] [FDC6B714] CRC32
05 59,7 [403C4848] [F0499112] CRC32
06 50,7 [F944EE3D] [CA9A2A52] CRC32
07 75,7 [EE855107] [A73A41D1] CRC32
08 63,9 [8CD606CB] [1244D5A7] CRC32
09 62,3 [D359733B] [A5EEDD6E] CRC32
10 60,4 [9C750E55] [870ED5BD] CRC32
11 62,4 [1DA84E9B] [004BC672] CRC32
12 68,9 [F81A5ECF] [6AD5BC12] CRC32


Hanoi Rocks - Self Destruction Blues (1982) [Japanese Ed.]

All thanks go to the original releaser

Hanoi Rocks in my Blog

Download Hanoi Rocks - Self Destruction Blues (1982):