Tags
Language
Tags

Hans-Christoph Rademann, Dresdner Kammerchor - Heinrich Schütz: Complete Recording, Box III [9CDs+DVD] (2019)

Posted By: ArlegZ
Hans-Christoph Rademann, Dresdner Kammerchor - Heinrich Schütz: Complete Recording, Box III [9CDs+DVD] (2019)

Hans-Christoph Rademann, Dresdner Kammerchor - Heinrich Schütz: Die Gesamteinspielung / Complete Recording, Box III [9CDs+DVD] (2019)
EAC | FLAC | Image (Cue & Log) ~ 2,84 Gb + 1.29 Gb (bonus) | Total time: 10:21:18 | Scans included
Classical | Label: Carus | # 83.043 | Recorded: 2016-2018

The Heinrich Schütz Complete Recording with the Dresdner Kammerchor under Hans-Christoph Rademann has set new artistic and editorial standards. Now the third of three box sets is being released. It encompasses Volumes 15 to 20 of the Complete Recording. A worthy conclusion to this award-winning series.

Performer:
Dresdner Kammerchor
Dresdner Barockorchester
Hans-Christoph Rademann, conductor

Contents:
Vol. 15 Becker-Psalter (CD 20)
Vol. 16 Schwanengesang (CD 21)
Vol. 17 Kleine geistliche Konzerte II (CD 22–23)
Vol. 18 Symphoniae Sacrae II (CD 24–25)
Vol. 19 Madrigale & Hochzeitsmusiken (CD 26)
Vol. 20 Psalmen & Friedensmusiken (CD 27–28)


CD 20: Becker-Psalter
01. Becker-Psalter: Der Herr sprach zu meim Herren, SWV 208
02. Was haben doch die Leut im Sinn, SWV 98
03. Ach Herr, mein Gott, straf mich doch nicht, SWV 102
04. Aus tiefer Not schrei ich zu dir, SWV 235
05. Es ist ein Freud dem Herzen mein, SWV 227
06. Mit Dank wir sollen loben, SWV 104
07. Wer nicht sitzt im Gottlosen Rat, SWV 97
08. Wie sehr lieblich und schöne, SWV 181
09. Wohl dem, der in Gottesfurcht steht, SWV 233
10. Ich heb mein Augen sehnlich auf, SWV 226
11. Danket dem Herren, gebt ihm Ehr, SWV 241
12. Der Herr ist mein getreuer Hirt, SWV 120
13. Ich will von Herzen danken Gott dem Herren, SWV 209
14. Singet dem Herrn ein neues Lied, SWV 196
15. Jauchzet dem Herren, alle Welt, SWV 198
16. An Wasserflüssen Babylon, SWV 242
17. Nun lob, mein Seel, den Herren, SWV 201
18. Wenn Gott einmal erlösen wird, SWV 231
19. Nicht uns, nicht uns, Herr, lieber Gott, SWV 213
20. Lobt Gott in seinem Heiligtum, SWV 255 und 256

CD 21: Schwanengesang
01. Psalm 119. SWV 482
02. Psalm 119. SWV 483
03. Psalm 119. SWV 484
04. Psalm 119. SWV 485
05. Psalm 119. SWV 486
06. Psalm 119. SWV 487
07. Psalm 119. SWV 488
08. Psalm 119. SWV 489
09. Psalm 119. SWV 490
10. Psalm 119. SWV 491
11. Psalm 119. SWV 492
12. Psalm 100. SWV 493
13. German Magnificat. SWV 494

CD 22: Kleine geistliche Konzerte II (1)
01. Veni Sancte Spiritus
02. Habe deine Lust an dem Herren
03. Rorate coeli desuper
04. Sei gegrüßet, Maria
05. Joseph, du Sohn David
06. Verbum caro factum est
07. Hodie Christus natus est
08. Allein Gott in der Höh sei Ehr
09. Ich liege und schlafe
10. Meister, wir haben die ganze Nacht
11. Bone Jesu, verbum Patris
12. Wann unsre Augen schlafen ein
13. Ist Gott für uns, wer mag wider uns sein
14. Was hast du verwirket
15. O Jesu, nomen dulce
16. Aufer immensam, Deus, aufer iram

CD 23: Kleine geistliche Konzerte II (2)
01. Jubilate Deo omnis terra
02. Ich beuge meine Knie gegen den Vater
03. Ich will den Herren loben
04. Die Furcht des Herren
05. Die Stimm des Herren gehet auf den Wassern
06. Quemadmodum desiderat cervus
07. Ich ruf zu dir, Herr Jesu Christ
08. Was betrübst du dich, meine Seele
09. Herr, ich hoffe darauf, dass du so gnädig bist
10. Herr, wenn ich nur dich habe
11. Wer will uns scheiden von der Liebe
12. O misericordissime Jesu
13. Ich bin jung gewesen und bin alt worden
14. Die Seele Christi heilige mich
15. Ich bin die Auferstehung und das Leben

CD 24: Symphoniae Sacrae II (1)
01. Mein Herz ist bereit, SWV 341
02. Singet dem Herren ein neues Lied, SWV 342
03. Herr, unser Herrscher, SWV 343
04. Meine Seele erhebt den Herren, SWV 344
05. Der Herr ist meine Stärke, SWV 345
06. Ich werde nicht sterben (Erster Teil), SWV 346
07. Ich danke dir, Herr (Anderer Teil), SWV 347
08. Herzlich lieb hab ich dich, o Herr, SWV 348
09. Frohlocket mit Händen, SWV 349
10. Lobet den Herrn in seinem Heiligtum, SWV 350
11. Hütet euch, dass eure Herzen, SWV 351
12. Herr, nun lässest du deinen Diener, SWV 352
13. Was betrübst du dich, meine Seele, SWV 353
14. Verleih uns Frieden (Erster Teil), SWV 354
15. Gib unsern Fürsten (Anderer Teil), SWV 355

CD 25: Symphoniae Sacrae II (2)
01. Es steh Gott auf, SWV 356
02. Wie ein Rubin, SWV 357
03. Iss dein Brot mit Freuden, SWV 358
04. Der Herr ist mein Licht und mein Heil, SWV 359
05. Zweierlei bitte ich, Herr, von dir, SWV 360
06. Herr, neige deine Himmel, SWV 361
07. Von Aufgang der Sonnen, SWV 362
08. Lobet den Herrn, alle Heiden, SWV 363
09. Die, so ihr den Herren fürchtet, SWV 364
10. Drei schöne Dinge seind, SWV 365
11. Von Gott will ich nicht lassen, SWV 366
12. Freuet euch des Herren, ihr Gerechten, SWV 367

CD 26: Madrigale & Hochzeitsmusiken
01. Siehe, wie fein und lieblich ist's, SWV 48
02. Saget den Gästen, SWV 459
03. Itzt blicken durch des Himmels Saal, SWV 460
04. Nachdem ich lag in meinem öden Bette, SWV 451
05. Lässt Salomon sein Bette nicht umgeben, SWV 452
06. Ich beschwöre euch, ihr Töchter zu Jerusalem, SWV 339
07. Ach, wie soll ich doch in Freuden leben, SWV 474
08. Die Erde trinkt für sich, SWV 438
09. Liebster, sagt in süßem Schmerzen, SWV 441
10. Stehe auf, meine Freundin, SWV 498
11. Wohl dem, der ein tugendsam Weib hat, SWV 20
12. Haus und Güter erbet man von Eltern, SWV 21
13. Glück zu dem Helikon, SWV 96
14. Wie wenn der Adler sich aus seiner Klippe schwingt, SWV 434
15. Freue dich des Weibes deiner Jugend, SWV 453

CD 27: Psalmen & Friedensmusiken (1)
01. Wo der Herr nicht das Haus bauet (Psalm 127), SWV 473
02. Herr, wer wird wohnen in deiner Hütten (Psalm 15), SWV 466
03. Veni Sancte Spiritus, SWV 475
04. Wo Gott, der Herr, nicht bei uns hält (Psalm 124), SWV 467
05. An den Wassern zu Babel (Psalm 137), SWV 500
06. Herr, der du bist vormals genädig gewest (Psalm 85), SWV 461
07. Das ist mir lieb (Psalm 116), SWV 51
08. Herr, unser Herrscher (Psalm 8), SWV 449
09. Auf dich, Herr, traue ich (Psalm 7), SWV 462

CD 28: Psalmen & Friedensmusiken (2)
01. Da pacem, Domine, SWV 465
02. Gesang der drei Männer im feurigen Ofen, SWV 448
03. Tugend ist der beste Freund, SWV 442
04. Danklied "Fürstliche Gnade zu Wasser und Lande", SWV 368
05. Teutoniam dudum belli, SWV 338
06. Syncharma musicum "En novus Elysiis", SWV 49
07. Vater Abraham, erbarme dich mein, SWV 477
08. Osterdialog "Weib, was weinest du", SWV 443
09. Mit dem Amphion zwar, SWV 501
10. Trostlied, SWV 502




Exact Audio Copy V1.3 from 2. September 2016

EAC extraction logfile from 5. March 2020, 23:03

Magdalena Kircheis, Isabel Schicketanz, Birgit Jacobi, Franziska Neumann, Stefan Kunath, Aneta Petrasova, Tobias Mathger, Marti / Schutz - Complete Recordings Vol. 15 (Box III - CD 20) Becker-Psalter

Used drive : ATAPI iHAS124 F Adapter: 1 ID: 0

Read mode : Secure
Utilize accurate stream : Yes
Defeat audio cache : Yes
Make use of C2 pointers : No

Read offset correction : 6
Overread into Lead-In and Lead-Out : No
Fill up missing offset samples with silence : Yes
Delete leading and trailing silent blocks : No
Null samples used in CRC calculations : Yes
Used interface : Native Win32 interface for Win NT & 2000

Used output format : User Defined Encoder
Selected bitrate : 1024 kBit/s
Quality : High
Add ID3 tag : No
Command line compressor : C:\Program Files (x86)\Exact Audio Copy\FLAC\FLAC.EXE
Additional command line options : -6 -V -T "ARTIST=%artist%" -T "TITLE=%title%" -T "ALBUM=%albumtitle%" -T "DATE=%year%" -T "TRACKNUMBER=%tracknr%" -T "GENRE=%genre%" -T "COMMENT=%comment%" -T "BAND=%albuminterpret%" -T "ALBUMARTIST=%albuminterpret%" -T "COMPOSER=%composer%" %haslyrics%–tag-from-file=LYRICS="%lyricsfile%"%haslyrics% -T "DISCNUMBER=%cdnumber%" -T "TOTALDISCS=%totalcds%" -T "TOTALTRACKS=%numtracks%" %hascover%–picture="%coverfile%"%hascover% %source% -o %dest%


TOC of the extracted CD

Track | Start | Length | Start sector | End sector
––––––––––––––––––––––––––––-
1 | 0:00.00 | 3:20.44 | 0 | 15043
2 | 3:20.44 | 5:08.17 | 15044 | 38160
3 | 8:28.61 | 3:07.18 | 38161 | 52203
4 | 11:36.04 | 3:46.05 | 52204 | 69158
5 | 15:22.09 | 2:44.52 | 69159 | 81510
6 | 18:06.61 | 2:59.51 | 81511 | 94986
7 | 21:06.37 | 2:17.18 | 94987 | 105279
8 | 23:23.55 | 4:35.66 | 105280 | 125970
9 | 27:59.46 | 1:53.64 | 125971 | 134509
10 | 29:53.35 | 3:24.19 | 134510 | 149828
11 | 33:17.54 | 9:03.22 | 149829 | 190575
12 | 42:21.01 | 2:30.18 | 190576 | 201843
13 | 44:51.19 | 6:04.51 | 201844 | 229194
14 | 50:55.70 | 2:13.35 | 229195 | 239204
15 | 53:09.30 | 1:25.39 | 239205 | 245618
16 | 54:34.69 | 5:39.53 | 245619 | 271096
17 | 60:14.47 | 4:01.61 | 271097 | 289232
18 | 64:16.33 | 2:02.01 | 289233 | 298383
19 | 66:18.34 | 4:23.10 | 298384 | 318118
20 | 70:41.44 | 2:33.40 | 318119 | 329633


Range status and errors

Selected range

Filename C:\EACRip\HEINRICH SCHUTZ - COMPLETE RECORDINGS [Carus, Boxes I-III]\BOX III\CD 20 - Becker-Psalter\Schutz - Complete Recordings Vol. 15 (Box III - CD 20) Becker-Psalter - Hans-Christoph Rademann.wav

Peak level 93.7 %
Extraction speed 9.2 X
Range quality 100.0 %
Test CRC 2986882C
Copy CRC 2986882C
Copy OK

No errors occurred


AccurateRip summary

Track 1 cannot be verified as accurate (confidence 4) [75DA37CF], AccurateRip returned [27C8F42C] (AR v2)
Track 2 cannot be verified as accurate (confidence 4) [F9434A26], AccurateRip returned [C945BF21] (AR v2)
Track 3 cannot be verified as accurate (confidence 4) [BAF7A3D8], AccurateRip returned [8BA5214B] (AR v2)
Track 4 cannot be verified as accurate (confidence 4) [C6236038], AccurateRip returned [CE58E69C] (AR v2)
Track 5 cannot be verified as accurate (confidence 4) [5FD554FA], AccurateRip returned [41B9FC22] (AR v2)
Track 6 cannot be verified as accurate (confidence 4) [D589010A], AccurateRip returned [A678F693] (AR v2)
Track 7 cannot be verified as accurate (confidence 4) [A32FABBB], AccurateRip returned [5651CF4A] (AR v2)
Track 8 cannot be verified as accurate (confidence 4) [C586DF3E], AccurateRip returned [C40E844D] (AR v2)
Track 9 cannot be verified as accurate (confidence 4) [7D0DA939], AccurateRip returned [B0A76748] (AR v2)
Track 10 cannot be verified as accurate (confidence 4) [738B99C7], AccurateRip returned [E875DCD2] (AR v2)
Track 11 cannot be verified as accurate (confidence 4) [5A9988C3], AccurateRip returned [65687938] (AR v2)
Track 12 cannot be verified as accurate (confidence 4) [288780D0], AccurateRip returned [376699EE] (AR v2)
Track 13 cannot be verified as accurate (confidence 4) [1D5E7AC3], AccurateRip returned [256CCB7A] (AR v2)
Track 14 cannot be verified as accurate (confidence 4) [87E40CDD], AccurateRip returned [C2D33A7B] (AR v2)
Track 15 cannot be verified as accurate (confidence 4) [8845F8FA], AccurateRip returned [B8D35AF2] (AR v2)
Track 16 cannot be verified as accurate (confidence 4) [A455044B], AccurateRip returned [1D399619] (AR v2)
Track 17 cannot be verified as accurate (confidence 4) [C4A0574E], AccurateRip returned [89FF8244] (AR v2)
Track 18 cannot be verified as accurate (confidence 4) [FC795DAB], AccurateRip returned [6A2A9BCD] (AR v2)
Track 19 cannot be verified as accurate (confidence 4) [5E75771B], AccurateRip returned [D9EF9151] (AR v2)
Track 20 cannot be verified as accurate (confidence 4) [D07DF477], AccurateRip returned [1A503F92] (AR v2)

No tracks could be verified as accurate
You may have a different pressing from the one(s) in the database

End of status report

–– CUETools DB Plugin V2.1.6

[CTDB TOCID: t7i1QaFjQVeG9ZTPkb65VXtD5Gk-] found
Submit result: t7i1QaFjQVeG9ZTPkb65VXtD5Gk- has been confirmed
Track | CTDB Status
1 | (18/18) Accurately ripped
2 | (18/18) Accurately ripped
3 | (18/18) Accurately ripped
4 | (18/18) Accurately ripped
5 | (18/18) Accurately ripped
6 | (18/18) Accurately ripped
7 | (18/18) Accurately ripped
8 | (18/18) Accurately ripped
9 | (18/18) Accurately ripped
10 | (18/18) Accurately ripped
11 | (18/18) Accurately ripped
12 | (18/18) Accurately ripped
13 | (18/18) Accurately ripped
14 | (18/18) Accurately ripped
15 | (18/18) Accurately ripped
16 | (18/18) Accurately ripped
17 | (18/18) Accurately ripped
18 | (18/18) Accurately ripped
19 | (18/18) Accurately ripped
20 | (18/18) Accurately ripped


==== Log checksum FA8E33936B6C4FB7D449F0152F8039FBAEEDA69A4682258A164E770AAF276F8F ====


Exact Audio Copy V1.3 from 2. September 2016

EAC extraction logfile from 5. March 2020, 23:33

Dorothee Mields, Gerlinde Sämann, David Erler, Stefan Kunath, Georg Poplutz, Tobias Mäthger, Martin Schicketanz, Felix Schwandt / Schutz - Complete Recordings Vol. 16 (Box III - CD 21) Der Schwanengesang

Used drive : ATAPI iHAS124 F Adapter: 1 ID: 0

Read mode : Secure
Utilize accurate stream : Yes
Defeat audio cache : Yes
Make use of C2 pointers : No

Read offset correction : 6
Overread into Lead-In and Lead-Out : No
Fill up missing offset samples with silence : Yes
Delete leading and trailing silent blocks : No
Null samples used in CRC calculations : Yes
Used interface : Native Win32 interface for Win NT & 2000

Used output format : User Defined Encoder
Selected bitrate : 1024 kBit/s
Quality : High
Add ID3 tag : No
Command line compressor : C:\Program Files (x86)\Exact Audio Copy\FLAC\FLAC.EXE
Additional command line options : -6 -V -T "ARTIST=%artist%" -T "TITLE=%title%" -T "ALBUM=%albumtitle%" -T "DATE=%year%" -T "TRACKNUMBER=%tracknr%" -T "GENRE=%genre%" -T "COMMENT=%comment%" -T "BAND=%albuminterpret%" -T "ALBUMARTIST=%albuminterpret%" -T "COMPOSER=%composer%" %haslyrics%–tag-from-file=LYRICS="%lyricsfile%"%haslyrics% -T "DISCNUMBER=%cdnumber%" -T "TOTALDISCS=%totalcds%" -T "TOTALTRACKS=%numtracks%" %hascover%–picture="%coverfile%"%hascover% %source% -o %dest%


TOC of the extracted CD

Track | Start | Length | Start sector | End sector
––––––––––––––––––––––––––––-
1 | 0:00.01 | 4:48.63 | 1 | 21663
2 | 4:48.64 | 4:57.00 | 21664 | 43938
3 | 9:45.64 | 5:05.64 | 43939 | 66877
4 | 14:51.53 | 5:38.00 | 66878 | 92227
5 | 20:29.53 | 6:27.72 | 92228 | 121324
6 | 26:57.50 | 6:07.67 | 121325 | 148916
7 | 33:05.42 | 7:17.37 | 148917 | 181728
8 | 40:23.04 | 6:29.10 | 181729 | 210913
9 | 46:52.14 | 5:43.45 | 210914 | 236683
10 | 52:35.59 | 7:01.74 | 236684 | 268332
11 | 59:37.58 | 6:42.73 | 268333 | 298555
12 | 66:20.56 | 6:07.55 | 298556 | 326135
13 | 72:28.36 | 6:34.64 | 326136 | 355749


Range status and errors

Selected range

Filename C:\EACRip\HEINRICH SCHUTZ - COMPLETE RECORDINGS [Carus, Boxes I-III]\BOX III\CD 21 - Schwanengesang\Schutz - Complete Recordings Vol. 16 (Box III - CD 21) Der Schwanengesang - Hans-Christoph Rademann.wav

Peak level 96.9 %
Extraction speed 9.8 X
Range quality 100.0 %
Test CRC B0FF5CB9
Copy CRC B0FF5CB9
Copy OK

No errors occurred


AccurateRip summary

Track 1 cannot be verified as accurate (confidence 4) [61751E30], AccurateRip returned [324E4719] (AR v2)
Track 2 cannot be verified as accurate (confidence 4) [AE023C19], AccurateRip returned [C2E46EDE] (AR v2)
Track 3 cannot be verified as accurate (confidence 4) [11F69728], AccurateRip returned [A6BA8D50] (AR v2)
Track 4 cannot be verified as accurate (confidence 4) [DF693ECA], AccurateRip returned [D726F375] (AR v2)
Track 5 cannot be verified as accurate (confidence 4) [E083F922], AccurateRip returned [0CDC8F89] (AR v2)
Track 6 cannot be verified as accurate (confidence 4) [30EED5D6], AccurateRip returned [CD6E4121] (AR v2)
Track 7 cannot be verified as accurate (confidence 4) [76CA0616], AccurateRip returned [31027773] (AR v2)
Track 8 cannot be verified as accurate (confidence 4) [8D4B2282], AccurateRip returned [1789ADEB] (AR v2)
Track 9 cannot be verified as accurate (confidence 4) [75053F06], AccurateRip returned [D0359BC5] (AR v2)
Track 10 cannot be verified as accurate (confidence 4) [B54AD975], AccurateRip returned [86BC8F02] (AR v2)
Track 11 cannot be verified as accurate (confidence 4) [3F56721D], AccurateRip returned [C5425CB8] (AR v2)
Track 12 cannot be verified as accurate (confidence 4) [88AE024C], AccurateRip returned [A318CBE6] (AR v2)
Track 13 cannot be verified as accurate (confidence 4) [3D9F357B], AccurateRip returned [1F1F4728] (AR v2)

No tracks could be verified as accurate
You may have a different pressing from the one(s) in the database

End of status report

–– CUETools DB Plugin V2.1.6

[CTDB TOCID: ByystuQt7KJBXY_0SBRfkySZQqs-] found
Submit result: ByystuQt7KJBXY_0SBRfkySZQqs- has been confirmed
Track | CTDB Status
1 | (20/20) Accurately ripped
2 | (20/20) Accurately ripped
3 | (20/20) Accurately ripped
4 | (20/20) Accurately ripped
5 | (20/20) Accurately ripped
6 | (20/20) Accurately ripped
7 | (20/20) Accurately ripped
8 | (20/20) Accurately ripped
9 | (20/20) Accurately ripped
10 | (20/20) Accurately ripped
11 | (20/20) Accurately ripped
12 | (20/20) Accurately ripped
13 | (20/20) Accurately ripped


==== Log checksum F83F3F74CD9EE5466CC256B7D17480377BD508812119D0C2B6287B59594D3212 ====


Exact Audio Copy V1.3 from 2. September 2016

EAC extraction logfile from 6. March 2020, 0:04

Gerlinde Sämann, Isabel Schicketanz, Maria Stosiek, David Erler, Georg Poplutz, Tobias Mäthger, Tobias Berndt, Felix Schwandtke / Schutz - Complete Recordings Vol. 17 (Box III - CD 22) Kleine geistliche Konzerte II (I)

Used drive : ATAPI iHAS124 F Adapter: 1 ID: 0

Read mode : Secure
Utilize accurate stream : Yes
Defeat audio cache : Yes
Make use of C2 pointers : No

Read offset correction : 6
Overread into Lead-In and Lead-Out : No
Fill up missing offset samples with silence : Yes
Delete leading and trailing silent blocks : No
Null samples used in CRC calculations : Yes
Used interface : Native Win32 interface for Win NT & 2000

Used output format : User Defined Encoder
Selected bitrate : 1024 kBit/s
Quality : High
Add ID3 tag : No
Command line compressor : C:\Program Files (x86)\Exact Audio Copy\FLAC\FLAC.EXE
Additional command line options : -6 -V -T "ARTIST=%artist%" -T "TITLE=%title%" -T "ALBUM=%albumtitle%" -T "DATE=%year%" -T "TRACKNUMBER=%tracknr%" -T "GENRE=%genre%" -T "COMMENT=%comment%" -T "BAND=%albuminterpret%" -T "ALBUMARTIST=%albuminterpret%" -T "COMPOSER=%composer%" %haslyrics%–tag-from-file=LYRICS="%lyricsfile%"%haslyrics% -T "DISCNUMBER=%cdnumber%" -T "TOTALDISCS=%totalcds%" -T "TOTALTRACKS=%numtracks%" %hascover%–picture="%coverfile%"%hascover% %source% -o %dest%


TOC of the extracted CD

Track | Start | Length | Start sector | End sector
––––––––––––––––––––––––––––-
1 | 0:00.00 | 4:30.04 | 0 | 20253
2 | 4:30.04 | 5:01.23 | 20254 | 42851
3 | 9:31.27 | 2:28.31 | 42852 | 53982
4 | 11:59.58 | 5:49.49 | 53983 | 80206
5 | 17:49.32 | 2:52.71 | 80207 | 93177
6 | 20:42.28 | 3:57.54 | 93178 | 111006
7 | 24:40.07 | 3:38.32 | 111007 | 127388
8 | 28:18.39 | 4:11.30 | 127389 | 146243
9 | 32:29.69 | 3:26.45 | 146244 | 161738
10 | 35:56.39 | 1:47.26 | 161739 | 169789
11 | 37:43.65 | 4:22.09 | 169790 | 189448
12 | 42:05.74 | 2:45.41 | 189449 | 201864
13 | 44:51.40 | 2:51.74 | 201865 | 214763
14 | 47:43.39 | 3:41.42 | 214764 | 231380
15 | 51:25.06 | 3:05.44 | 231381 | 245299
16 | 54:30.50 | 7:02.64 | 245300 | 277013


Range status and errors

Selected range

Filename C:\EACRip\HEINRICH SCHUTZ - COMPLETE RECORDINGS [Carus, Boxes I-III]\BOX III\CD 22 - Kleine geistliche Konzerte II (I)\Schutz - Complete Recordings Vol. 17 (Box III - CD 22) Kleine geistliche Konzerte II (I) - Ludger Remy.wav

Peak level 93.2 %
Extraction speed 8.8 X
Range quality 99.9 %
Test CRC D031868E
Copy CRC D031868E
Copy OK

No errors occurred


AccurateRip summary

Track 1 cannot be verified as accurate (confidence 2) [D5EA8A62], AccurateRip returned [7CFD66CC] (AR v2)
Track 2 cannot be verified as accurate (confidence 2) [929CCADA], AccurateRip returned [D04C9862] (AR v2)
Track 3 cannot be verified as accurate (confidence 2) [CBDEA3D8], AccurateRip returned [EF974FC5] (AR v2)
Track 4 cannot be verified as accurate (confidence 2) [282135F7], AccurateRip returned [111CBB50] (AR v2)
Track 5 cannot be verified as accurate (confidence 2) [848F8C5A], AccurateRip returned [532FD8CB] (AR v2)
Track 6 cannot be verified as accurate (confidence 2) [7F60568B], AccurateRip returned [AC116777] (AR v2)
Track 7 cannot be verified as accurate (confidence 2) [5821FF5C], AccurateRip returned [A48FD774] (AR v2)
Track 8 cannot be verified as accurate (confidence 2) [2C607801], AccurateRip returned [B3F5255E] (AR v2)
Track 9 cannot be verified as accurate (confidence 2) [CF51C775], AccurateRip returned [EE7D0E20] (AR v2)
Track 10 cannot be verified as accurate (confidence 2) [E03B0FE0], AccurateRip returned [EF4B7B0D] (AR v2)
Track 11 cannot be verified as accurate (confidence 2) [D96F5BB3], AccurateRip returned [89A00C83] (AR v2)
Track 12 cannot be verified as accurate (confidence 2) [4F76FF59], AccurateRip returned [49ADFE1B] (AR v2)
Track 13 cannot be verified as accurate (confidence 2) [5E0344C7], AccurateRip returned [1966EE1A] (AR v2)
Track 14 cannot be verified as accurate (confidence 2) [319D2E62], AccurateRip returned [AB987104] (AR v2)
Track 15 cannot be verified as accurate (confidence 2) [445255E5], AccurateRip returned [A566FC3B] (AR v2)
Track 16 cannot be verified as accurate (confidence 2) [ED5A339E], AccurateRip returned [D3296425] (AR v2)

No tracks could be verified as accurate
You may have a different pressing from the one(s) in the database

End of status report

–– CUETools DB Plugin V2.1.6

[CTDB TOCID: XW0Wyci0FV8JOSoGZWlMTk9ikyM-] found
Submit result: XW0Wyci0FV8JOSoGZWlMTk9ikyM- has been confirmed
Track | CTDB Status
1 | (10/10) Accurately ripped
2 | (10/10) Accurately ripped
3 | (10/10) Accurately ripped
4 | (10/10) Accurately ripped
5 | (10/10) Accurately ripped
6 | (10/10) Accurately ripped
7 | (10/10) Accurately ripped
8 | (10/10) Accurately ripped
9 | (10/10) Accurately ripped
10 | (10/10) Accurately ripped
11 | (10/10) Accurately ripped
12 | (10/10) Accurately ripped
13 | (10/10) Accurately ripped
14 | (10/10) Accurately ripped
15 | (10/10) Accurately ripped
16 | (10/10) Accurately ripped


==== Log checksum 150C4DFD50D08F4F9526F7208C6D9804C10DA426DA1BC6358B3563FE49016B28 ====


Exact Audio Copy V1.3 from 2. September 2016

EAC extraction logfile from 6. March 2020, 0:53

Gerlinde Sämann, Isabel Schicketanz, Maria Stosiek, David Erler, Georg Poplutz, Tobias Mäthger, Tobias Berndt, Felix Schwandtke / Schutz - Complete Recordings Vol. 17 (Box III - CD 23) Kleine geistliche Konzerte II (II)

Used drive : ATAPI iHAS124 F Adapter: 1 ID: 0

Read mode : Secure
Utilize accurate stream : Yes
Defeat audio cache : Yes
Make use of C2 pointers : No

Read offset correction : 6
Overread into Lead-In and Lead-Out : No
Fill up missing offset samples with silence : Yes
Delete leading and trailing silent blocks : No
Null samples used in CRC calculations : Yes
Used interface : Native Win32 interface for Win NT & 2000

Used output format : User Defined Encoder
Selected bitrate : 1024 kBit/s
Quality : High
Add ID3 tag : No
Command line compressor : C:\Program Files (x86)\Exact Audio Copy\FLAC\FLAC.EXE
Additional command line options : -6 -V -T "ARTIST=%artist%" -T "TITLE=%title%" -T "ALBUM=%albumtitle%" -T "DATE=%year%" -T "TRACKNUMBER=%tracknr%" -T "GENRE=%genre%" -T "COMMENT=%comment%" -T "BAND=%albuminterpret%" -T "ALBUMARTIST=%albuminterpret%" -T "COMPOSER=%composer%" %haslyrics%–tag-from-file=LYRICS="%lyricsfile%"%haslyrics% -T "DISCNUMBER=%cdnumber%" -T "TOTALDISCS=%totalcds%" -T "TOTALTRACKS=%numtracks%" %hascover%–picture="%coverfile%"%hascover% %source% -o %dest%


TOC of the extracted CD

Track | Start | Length | Start sector | End sector
––––––––––––––––––––––––––––-
1 | 0:00.00 | 5:17.08 | 0 | 23782
2 | 5:17.08 | 3:09.55 | 23783 | 38012
3 | 8:26.63 | 3:19.49 | 38013 | 52986
4 | 11:46.37 | 1:57.59 | 52987 | 61820
5 | 13:44.21 | 3:58.10 | 61821 | 79680
6 | 17:42.31 | 7:34.03 | 79681 | 113733
7 | 25:16.34 | 2:25.36 | 113734 | 124644
8 | 27:41.70 | 3:31.23 | 124645 | 140492
9 | 31:13.18 | 3:15.31 | 140493 | 155148
10 | 34:28.49 | 3:12.21 | 155149 | 169569
11 | 37:40.70 | 3:12.05 | 169570 | 183974
12 | 40:53.00 | 4:22.18 | 183975 | 203642
13 | 45:15.18 | 2:40.60 | 203643 | 215702
14 | 47:56.03 | 4:15.03 | 215703 | 234830
15 | 52:11.06 | 3:47.46 | 234831 | 251901


Range status and errors

Selected range

Filename C:\EACRip\HEINRICH SCHUTZ - COMPLETE RECORDINGS [Carus, Boxes I-III]\BOX III\CD 23 - Kleine geistliche Konzerte II (II)\Schutz - Complete Recordings Vol. 17 (Box III - CD 23) Kleine geistliche Konzerte II (II) - Ludger Remy.wav

Peak level 93.1 %
Extraction speed 8.7 X
Range quality 100.0 %
Test CRC 4B257997
Copy CRC 4B257997
Copy OK

No errors occurred


AccurateRip summary

Track 1 cannot be verified as accurate (confidence 2) [4D236663], AccurateRip returned [B84EA63F] (AR v2)
Track 2 cannot be verified as accurate (confidence 2) [BB6D0B8C], AccurateRip returned [E53575C2] (AR v2)
Track 3 cannot be verified as accurate (confidence 2) [DD7A4925], AccurateRip returned [CDFABB9B] (AR v2)
Track 4 cannot be verified as accurate (confidence 2) [44A6445B], AccurateRip returned [BA3CF01A] (AR v2)
Track 5 cannot be verified as accurate (confidence 2) [EDE85CE7], AccurateRip returned [8D6EA84D] (AR v2)
Track 6 cannot be verified as accurate (confidence 2) [62A89EFF], AccurateRip returned [65728EEB] (AR v2)
Track 7 cannot be verified as accurate (confidence 2) [41775013], AccurateRip returned [4039FE8C] (AR v2)
Track 8 cannot be verified as accurate (confidence 2) [E70B5B1E], AccurateRip returned [99456B9E] (AR v2)
Track 9 cannot be verified as accurate (confidence 2) [AA95B3C1], AccurateRip returned [9350D927] (AR v2)
Track 10 cannot be verified as accurate (confidence 2) [E8D8C589], AccurateRip returned [706BDADC] (AR v2)
Track 11 cannot be verified as accurate (confidence 2) [7BDC8E75], AccurateRip returned [EF65219C] (AR v2)
Track 12 cannot be verified as accurate (confidence 2) [DB593703], AccurateRip returned [246842F4] (AR v2)
Track 13 cannot be verified as accurate (confidence 2) [FDA2DBED], AccurateRip returned [C76DF843] (AR v2)
Track 14 cannot be verified as accurate (confidence 2) [636911E4], AccurateRip returned [CBD659C0] (AR v2)
Track 15 cannot be verified as accurate (confidence 2) [5E8F3E3E], AccurateRip returned [53D698A9] (AR v2)

No tracks could be verified as accurate
You may have a different pressing from the one(s) in the database

End of status report

–– CUETools DB Plugin V2.1.6

[CTDB TOCID: XfawkEm5HASquAPNobTsBhFBzwQ-] found
Submit result: XfawkEm5HASquAPNobTsBhFBzwQ- has been confirmed
Track | CTDB Status
1 | (9/9) Accurately ripped
2 | (9/9) Accurately ripped
3 | (9/9) Accurately ripped
4 | (9/9) Accurately ripped
5 | (9/9) Accurately ripped
6 | (9/9) Accurately ripped
7 | (9/9) Accurately ripped
8 | (9/9) Accurately ripped
9 | (9/9) Accurately ripped
10 | (9/9) Accurately ripped
11 | (9/9) Accurately ripped
12 | (9/9) Accurately ripped
13 | (9/9) Accurately ripped
14 | (9/9) Accurately ripped
15 | (9/9) Accurately ripped


==== Log checksum F6F1239B1DBC45C75DD28BC866C3AE5DCAC7EE8B7EE2B4D88D08D78AB660A3C6 ====


Exact Audio Copy V1.3 from 2. September 2016

EAC extraction logfile from 6. March 2020, 1:51

Dorothee Mields, Isabel Schicketanz, David Erler, Georg Poplutz, Tobias Mäthger, Felix Schwandtke, Felix Rumpf / Schutz - Complete Recordings Vol. 18 (Box III - CD 24) Symphoniae Sacrae II (I)

Used drive : ATAPI iHAS124 F Adapter: 1 ID: 0

Read mode : Secure
Utilize accurate stream : Yes
Defeat audio cache : Yes
Make use of C2 pointers : No

Read offset correction : 6
Overread into Lead-In and Lead-Out : No
Fill up missing offset samples with silence : Yes
Delete leading and trailing silent blocks : No
Null samples used in CRC calculations : Yes
Used interface : Native Win32 interface for Win NT & 2000

Used output format : User Defined Encoder
Selected bitrate : 1024 kBit/s
Quality : High
Add ID3 tag : No
Command line compressor : C:\Program Files (x86)\Exact Audio Copy\FLAC\FLAC.EXE
Additional command line options : -6 -V -T "ARTIST=%artist%" -T "TITLE=%title%" -T "ALBUM=%albumtitle%" -T "DATE=%year%" -T "TRACKNUMBER=%tracknr%" -T "GENRE=%genre%" -T "COMMENT=%comment%" -T "BAND=%albuminterpret%" -T "ALBUMARTIST=%albuminterpret%" -T "COMPOSER=%composer%" %haslyrics%–tag-from-file=LYRICS="%lyricsfile%"%haslyrics% -T "DISCNUMBER=%cdnumber%" -T "TOTALDISCS=%totalcds%" -T "TOTALTRACKS=%numtracks%" %hascover%–picture="%coverfile%"%hascover% %source% -o %dest%


TOC of the extracted CD

Track | Start | Length | Start sector | End sector
––––––––––––––––––––––––––––-
1 | 0:00.00 | 4:00.03 | 0 | 18002
2 | 4:00.03 | 4:32.22 | 18003 | 38424
3 | 8:32.25 | 5:19.50 | 38425 | 62399
4 | 13:52.00 | 7:02.13 | 62400 | 94062
5 | 20:54.13 | 3:00.55 | 94063 | 107617
6 | 23:54.68 | 4:43.41 | 107618 | 128883
7 | 28:38.34 | 4:13.10 | 128884 | 147868
8 | 32:51.44 | 4:22.08 | 147869 | 167526
9 | 37:13.52 | 4:23.15 | 167527 | 187266
10 | 41:36.67 | 4:37.38 | 187267 | 208079
11 | 46:14.30 | 4:52.70 | 208080 | 230049
12 | 51:07.25 | 3:58.02 | 230050 | 247901
13 | 55:05.27 | 5:42.71 | 247902 | 273622
14 | 60:48.23 | 3:36.27 | 273623 | 289849
15 | 64:24.50 | 4:09.34 | 289850 | 308558


Range status and errors

Selected range

Filename C:\EACRip\HEINRICH SCHUTZ - COMPLETE RECORDINGS [Carus, Boxes I-III]\BOX III\CD 24 - Symphoniae Sacrae II (I)\Schutz - Complete Recordings Vol. 18 (Box III - CD 24) Symphoniae Sacrae II (I) - Hans-Christoph Rademann.wav

Peak level 97.7 %
Extraction speed 9.1 X
Range quality 99.9 %
Test CRC 8A534D1C
Copy CRC 8A534D1C
Copy OK

No errors occurred


AccurateRip summary

Track 1 cannot be verified as accurate (confidence 2) [7E29E130], AccurateRip returned [2FC2EC1F] (AR v2)
Track 2 cannot be verified as accurate (confidence 2) [592B4CA2], AccurateRip returned [58FBA28B] (AR v2)
Track 3 cannot be verified as accurate (confidence 2) [9394E7B4], AccurateRip returned [80FFA178] (AR v2)
Track 4 cannot be verified as accurate (confidence 2) [B2092B9F], AccurateRip returned [D39227BF] (AR v2)
Track 5 cannot be verified as accurate (confidence 2) [BAE3B844], AccurateRip returned [663D1020] (AR v2)
Track 6 cannot be verified as accurate (confidence 2) [ECBA0231], AccurateRip returned [F9973F3F] (AR v2)
Track 7 cannot be verified as accurate (confidence 2) [98E6383D], AccurateRip returned [BA7770FD] (AR v2)
Track 8 cannot be verified as accurate (confidence 2) [4A09BC47], AccurateRip returned [893401DA] (AR v2)
Track 9 cannot be verified as accurate (confidence 2) [17ECC55D], AccurateRip returned [477A14A7] (AR v2)
Track 10 cannot be verified as accurate (confidence 2) [F250924D], AccurateRip returned [79970D3D] (AR v2)
Track 11 cannot be verified as accurate (confidence 2) [69AE7DE0], AccurateRip returned [A36B11AD] (AR v2)
Track 12 cannot be verified as accurate (confidence 2) [394F3C84], AccurateRip returned [F9EFF69B] (AR v2)
Track 13 cannot be verified as accurate (confidence 2) [935F2E42], AccurateRip returned [E49AA1CE] (AR v2)
Track 14 cannot be verified as accurate (confidence 2) [764C457D], AccurateRip returned [898F9708] (AR v2)
Track 15 cannot be verified as accurate (confidence 2) [FA3B19F8], AccurateRip returned [E641BE06] (AR v2)

No tracks could be verified as accurate
You may have a different pressing from the one(s) in the database

End of status report

–– CUETools DB Plugin V2.1.6

[CTDB TOCID: CbruzmnUYfx2N3u6TbB5tUl2H84-] found
Submit result: CbruzmnUYfx2N3u6TbB5tUl2H84- has been confirmed
Track | CTDB Status
1 | (12/12) Accurately ripped
2 | (12/12) Accurately ripped
3 | (12/12) Accurately ripped
4 | (12/12) Accurately ripped
5 | (12/12) Accurately ripped
6 | (12/12) Accurately ripped
7 | (12/12) Accurately ripped
8 | (12/12) Accurately ripped
9 | (12/12) Accurately ripped
10 | (12/12) Accurately ripped
11 | (12/12) Accurately ripped
12 | (12/12) Accurately ripped
13 | (12/12) Accurately ripped
14 | (12/12) Accurately ripped
15 | (12/12) Accurately ripped


==== Log checksum D53387C461BB70A405BF7EDE50FAA4242607AFE5A48DA41F21390146074C5E34 ====


Exact Audio Copy V1.3 from 2. September 2016

EAC extraction logfile from 6. March 2020, 2:20

Dorothee Mields, Isabel Schicketanz, David Erler, Georg Poplutz, Tobias Mäthger, Felix Schwandtke, Felix Rumpf / Schutz - Complete Recordings Vol. 18 (Box III - CD 25) Symphoniae Sacrae II (II)

Used drive : ATAPI iHAS124 F Adapter: 1 ID: 0

Read mode : Secure
Utilize accurate stream : Yes
Defeat audio cache : Yes
Make use of C2 pointers : No

Read offset correction : 6
Overread into Lead-In and Lead-Out : No
Fill up missing offset samples with silence : Yes
Delete leading and trailing silent blocks : No
Null samples used in CRC calculations : Yes
Used interface : Native Win32 interface for Win NT & 2000

Used output format : User Defined Encoder
Selected bitrate : 1024 kBit/s
Quality : High
Add ID3 tag : No
Command line compressor : C:\Program Files (x86)\Exact Audio Copy\FLAC\FLAC.EXE
Additional command line options : -6 -V -T "ARTIST=%artist%" -T "TITLE=%title%" -T "ALBUM=%albumtitle%" -T "DATE=%year%" -T "TRACKNUMBER=%tracknr%" -T "GENRE=%genre%" -T "COMMENT=%comment%" -T "BAND=%albuminterpret%" -T "ALBUMARTIST=%albuminterpret%" -T "COMPOSER=%composer%" %haslyrics%–tag-from-file=LYRICS="%lyricsfile%"%haslyrics% -T "DISCNUMBER=%cdnumber%" -T "TOTALDISCS=%totalcds%" -T "TOTALTRACKS=%numtracks%" %hascover%–picture="%coverfile%"%hascover% %source% -o %dest%


TOC of the extracted CD

Track | Start | Length | Start sector | End sector
––––––––––––––––––––––––––––-
1 | 0:00.00 | 6:21.03 | 0 | 28577
2 | 6:21.03 | 2:53.21 | 28578 | 41573
3 | 9:14.24 | 4:16.42 | 41574 | 60815
4 | 13:30.66 | 5:29.45 | 60816 | 85535
5 | 19:00.36 | 6:05.06 | 85536 | 112916
6 | 25:05.42 | 4:32.24 | 112917 | 133340
7 | 29:37.66 | 5:12.27 | 133341 | 156767
8 | 34:50.18 | 3:32.45 | 156768 | 172712
9 | 38:22.63 | 4:40.66 | 172713 | 193778
10 | 43:03.54 | 8:30.57 | 193779 | 232085
11 | 51:34.36 | 8:07.60 | 232086 | 268670
12 | 59:42.21 | 5:26.35 | 268671 | 293155


Range status and errors

Selected range

Filename C:\EACRip\HEINRICH SCHUTZ - COMPLETE RECORDINGS [Carus, Boxes I-III]\BOX III\CD 25 - Symphoniae Sacrae II (II)\Schutz - Complete Recordings Vol. 18 (Box III - CD 25) Symphoniae Sacrae II (II) - Hans-Christoph Rademann.wav

Peak level 97.7 %
Extraction speed 8.1 X
Range quality 99.9 %
Test CRC C0CB56D0
Copy CRC C0CB56D0
Copy OK

No errors occurred


AccurateRip summary

Track 1 cannot be verified as accurate (confidence 2) [773BA05B], AccurateRip returned [500B5BA9] (AR v2)
Track 2 cannot be verified as accurate (confidence 2) [4D12D7B6], AccurateRip returned [D9A9EA58] (AR v2)
Track 3 cannot be verified as accurate (confidence 2) [0DB668F3], AccurateRip returned [A4D6E0C8] (AR v2)
Track 4 cannot be verified as accurate (confidence 2) [86E5BDED], AccurateRip returned [1797B94B] (AR v2)
Track 5 cannot be verified as accurate (confidence 2) [D93E182B], AccurateRip returned [9D1F0BD2] (AR v2)
Track 6 cannot be verified as accurate (confidence 2) [703252F9], AccurateRip returned [6DB1DFF7] (AR v2)
Track 7 cannot be verified as accurate (confidence 2) [0D2A69EA], AccurateRip returned [9690D5EC] (AR v2)
Track 8 cannot be verified as accurate (confidence 2) [F302B040], AccurateRip returned [918B1B37] (AR v2)
Track 9 cannot be verified as accurate (confidence 2) [5F64BD5D], AccurateRip returned [CED02402] (AR v2)
Track 10 cannot be verified as accurate (confidence 2) [A10EA1F6], AccurateRip returned [230DAD53] (AR v2)
Track 11 cannot be verified as accurate (confidence 2) [A964B523], AccurateRip returned [981DA6DB] (AR v2)
Track 12 cannot be verified as accurate (confidence 2) [9ECF369A], AccurateRip returned [5B9691D3] (AR v2)

No tracks could be verified as accurate
You may have a different pressing from the one(s) in the database

End of status report

–– CUETools DB Plugin V2.1.6

[CTDB TOCID: g3a3WyJD81uZIs0OVCEuq5INdkA-] found
Submit result: g3a3WyJD81uZIs0OVCEuq5INdkA- has been confirmed
Track | CTDB Status
1 | (10/10) Accurately ripped
2 | (10/10) Accurately ripped
3 | (10/10) Accurately ripped
4 | (10/10) Accurately ripped
5 | (10/10) Accurately ripped
6 | (10/10) Accurately ripped
7 | (10/10) Accurately ripped
8 | (10/10) Accurately ripped
9 | (10/10) Accurately ripped
10 | (10/10) Accurately ripped
11 | (10/10) Accurately ripped
12 | (10/10) Accurately ripped


==== Log checksum BA07A9C28D952CC71473CDFACE9D8524D76E0F75F2A520D553D5CB0C82A9AF6D ====


Exact Audio Copy V1.3 from 2. September 2016

EAC extraction logfile from 6. March 2020, 3:15

Dorothee Mields, Isabel Schicketanz, David Erler, Georg Poplutz, Tobias Mäthger, Felix Schwandtke / Schutz - Complete Recordings Vol. 19 (Box III - CD 26) Madrigale & Hochzeitsmusiken

Used drive : ATAPI iHAS124 F Adapter: 1 ID: 0

Read mode : Secure
Utilize accurate stream : Yes
Defeat audio cache : Yes
Make use of C2 pointers : No

Read offset correction : 6
Overread into Lead-In and Lead-Out : No
Fill up missing offset samples with silence : Yes
Delete leading and trailing silent blocks : No
Null samples used in CRC calculations : Yes
Used interface : Native Win32 interface for Win NT & 2000

Used output format : User Defined Encoder
Selected bitrate : 1024 kBit/s
Quality : High
Add ID3 tag : No
Command line compressor : C:\Program Files (x86)\Exact Audio Copy\FLAC\FLAC.EXE
Additional command line options : -6 -V -T "ARTIST=%artist%" -T "TITLE=%title%" -T "ALBUM=%albumtitle%" -T "DATE=%year%" -T "TRACKNUMBER=%tracknr%" -T "GENRE=%genre%" -T "COMMENT=%comment%" -T "BAND=%albuminterpret%" -T "ALBUMARTIST=%albuminterpret%" -T "COMPOSER=%composer%" %haslyrics%–tag-from-file=LYRICS="%lyricsfile%"%haslyrics% -T "DISCNUMBER=%cdnumber%" -T "TOTALDISCS=%totalcds%" -T "TOTALTRACKS=%numtracks%" %hascover%–picture="%coverfile%"%hascover% %source% -o %dest%


TOC of the extracted CD

Track | Start | Length | Start sector | End sector
––––––––––––––––––––––––––––-
1 | 0:00.00 | 6:54.29 | 0 | 31078
2 | 6:54.29 | 6:31.29 | 31079 | 60432
3 | 13:25.58 | 7:31.64 | 60433 | 94321
4 | 20:57.47 | 5:02.18 | 94322 | 116989
5 | 25:59.65 | 5:58.10 | 116990 | 143849
6 | 31:58.00 | 7:27.58 | 143850 | 177432
7 | 39:25.58 | 3:47.34 | 177433 | 194491
8 | 43:13.17 | 2:03.20 | 194492 | 203736
9 | 45:16.37 | 4:11.42 | 203737 | 222603
10 | 49:28.04 | 7:49.68 | 222604 | 257846
11 | 57:17.72 | 6:38.54 | 257847 | 287750
12 | 63:56.51 | 4:37.47 | 287751 | 308572
13 | 68:34.23 | 2:32.41 | 308573 | 320013
14 | 71:06.64 | 3:21.07 | 320014 | 335095
15 | 74:27.71 | 4:12.53 | 335096 | 354048


Range status and errors

Selected range

Filename C:\EACRip\HEINRICH SCHUTZ - COMPLETE RECORDINGS [Carus, Boxes I-III]\BOX III\CD 26 - Madrigale, Hochzeitsmusiken\Schutz - Complete Recordings Vol. 19 (Box III - CD 26) Madrigale & Hochzeitsmusiken - Hans-Christoph Rademann.wav

Peak level 96.6 %
Extraction speed 9.7 X
Range quality 100.0 %
Test CRC 861F7F90
Copy CRC 861F7F90
Copy OK

No errors occurred


AccurateRip summary

Track 1 accurately ripped (confidence 4) [E1A83D50] (AR v2)
Track 2 accurately ripped (confidence 4) [FA2BB7E1] (AR v2)
Track 3 accurately ripped (confidence 4) [114FB445] (AR v2)
Track 4 accurately ripped (confidence 4) [5009E680] (AR v2)
Track 5 accurately ripped (confidence 4) [273D107A] (AR v2)
Track 6 accurately ripped (confidence 4) [DE447FB4] (AR v2)
Track 7 accurately ripped (confidence 4) [4EBB4175] (AR v2)
Track 8 accurately ripped (confidence 4) [A6535F4B] (AR v2)
Track 9 accurately ripped (confidence 4) [74B3FA62] (AR v2)
Track 10 accurately ripped (confidence 4) [C04E90C3] (AR v2)
Track 11 accurately ripped (confidence 4) [2CDC002B] (AR v2)
Track 12 accurately ripped (confidence 4) [8F58DF4B] (AR v2)
Track 13 accurately ripped (confidence 4) [DD77BE64] (AR v2)
Track 14 accurately ripped (confidence 4) [A675C92A] (AR v2)
Track 15 accurately ripped (confidence 4) [561DCAB1] (AR v2)

All tracks accurately ripped

End of status report

–– CUETools DB Plugin V2.1.6

[CTDB TOCID: 0hTjGIbTM9PbxHk8zN6p1EYtYmQ-] found
Submit result: 0hTjGIbTM9PbxHk8zN6p1EYtYmQ- has been confirmed
Track | CTDB Status
1 | (9/9) Accurately ripped
2 | (9/9) Accurately ripped
3 | (9/9) Accurately ripped
4 | (9/9) Accurately ripped
5 | (9/9) Accurately ripped
6 | (9/9) Accurately ripped
7 | (9/9) Accurately ripped
8 | (9/9) Accurately ripped
9 | (9/9) Accurately ripped
10 | (9/9) Accurately ripped
11 | (9/9) Accurately ripped
12 | (9/9) Accurately ripped
13 | (9/9) Accurately ripped
14 | (9/9) Accurately ripped
15 | (9/9) Accurately ripped


==== Log checksum 7D99B3CDAC797A7ADDCFB5728BBCF7AF25CE45EE1079935EB2C893EDF16E4CA5 ====


Exact Audio Copy V1.3 from 2. September 2016

EAC extraction logfile from 6. March 2020, 3:53

Gerlinde Sämann, Isabel Schicketanz, Maria Stosiek, David Erler, Stefan Kunath, Georg Poplutz, Tobias Mäthger, Felix Schwandtke / Schutz - Complete Recordings Vol. 20 (Box III - CD 27) Psalmen & Friedensmusiken

Used drive : ATAPI iHAS124 F Adapter: 1 ID: 0

Read mode : Secure
Utilize accurate stream : Yes
Defeat audio cache : Yes
Make use of C2 pointers : No

Read offset correction : 6
Overread into Lead-In and Lead-Out : No
Fill up missing offset samples with silence : Yes
Delete leading and trailing silent blocks : No
Null samples used in CRC calculations : Yes
Used interface : Native Win32 interface for Win NT & 2000

Used output format : User Defined Encoder
Selected bitrate : 1024 kBit/s
Quality : High
Add ID3 tag : No
Command line compressor : C:\Program Files (x86)\Exact Audio Copy\FLAC\FLAC.EXE
Additional command line options : -6 -V -T "ARTIST=%artist%" -T "TITLE=%title%" -T "ALBUM=%albumtitle%" -T "DATE=%year%" -T "TRACKNUMBER=%tracknr%" -T "GENRE=%genre%" -T "COMMENT=%comment%" -T "BAND=%albuminterpret%" -T "ALBUMARTIST=%albuminterpret%" -T "COMPOSER=%composer%" %haslyrics%–tag-from-file=LYRICS="%lyricsfile%"%haslyrics% -T "DISCNUMBER=%cdnumber%" -T "TOTALDISCS=%totalcds%" -T "TOTALTRACKS=%numtracks%" %hascover%–picture="%coverfile%"%hascover% %source% -o %dest%


TOC of the extracted CD

Track | Start | Length | Start sector | End sector
––––––––––––––––––––––––––––-
1 | 0:00.00 | 6:21.09 | 0 | 28583
2 | 6:21.09 | 6:42.04 | 28584 | 58737
3 | 13:03.13 | 6:25.71 | 58738 | 87683
4 | 19:29.09 | 4:49.17 | 87684 | 109375
5 | 24:18.26 | 6:01.56 | 109376 | 136506
6 | 30:20.07 | 11:46.16 | 136507 | 189472
7 | 42:06.23 | 12:47.23 | 189473 | 247020
8 | 54:53.46 | 5:21.07 | 247021 | 271102
9 | 60:14.53 | 8:45.50 | 271103 | 310527


Range status and errors

Selected range

Filename C:\EACRip\HEINRICH SCHUTZ - COMPLETE RECORDINGS [Carus, Boxes I-III]\BOX III\CD 27 - Psalmen & Friedensmusiken\Schutz - Complete Recordings Vol. 20 (Box III - CD 27) Psalmen & Friedensmusiken - Hans-Christoph Rademann.wav

Peak level 98.4 %
Extraction speed 9.2 X
Range quality 99.9 %
Test CRC F645DF2E
Copy CRC F645DF2E
Copy OK

No errors occurred


AccurateRip summary

Track 1 accurately ripped (confidence 3) [501EE6AA] (AR v2)
Track 2 accurately ripped (confidence 3) [7057715F] (AR v2)
Track 3 accurately ripped (confidence 3) [92D5E2A4] (AR v2)
Track 4 accurately ripped (confidence 3) [AA3301D6] (AR v2)
Track 5 accurately ripped (confidence 3) [E6B6C411] (AR v2)
Track 6 accurately ripped (confidence 3) [4693C450] (AR v2)
Track 7 accurately ripped (confidence 3) [903113CF] (AR v2)
Track 8 accurately ripped (confidence 3) [F3B0A879] (AR v2)
Track 9 accurately ripped (confidence 3) [B271A140] (AR v2)

All tracks accurately ripped

End of status report

–– CUETools DB Plugin V2.1.6

[CTDB TOCID: YL2SWcI.C4ZIN2e1_qWoTT.asH0-] found
Submit result: YL2SWcI.C4ZIN2e1_qWoTT.asH0- has been confirmed
Track | CTDB Status
1 | (10/10) Accurately ripped
2 | (10/10) Accurately ripped
3 | (10/10) Accurately ripped
4 | (10/10) Accurately ripped
5 | (10/10) Accurately ripped
6 | (10/10) Accurately ripped
7 | (10/10) Accurately ripped
8 | (10/10) Accurately ripped
9 | (10/10) Accurately ripped


==== Log checksum 83A44A25A4974D26005745F999F336597B3E9C772F1004D75E2492FF941DD348 ====


Exact Audio Copy V1.3 from 2. September 2016

EAC extraction logfile from 6. March 2020, 11:13

Gerlinde Sämann, Isabel Schicketanz, Maria Stosiek, Dorothee Mields, David Erler, Stefan Kunath, Georg Poplutz, Tobias Mäthger, / Schutz - Complete Recordings Vol. 20 (Box III - CD 28) Psalmen & Friedensmusiken (II)

Used drive : ATAPI iHAS124 F Adapter: 1 ID: 0

Read mode : Secure
Utilize accurate stream : Yes
Defeat audio cache : Yes
Make use of C2 pointers : No

Read offset correction : 6
Overread into Lead-In and Lead-Out : No
Fill up missing offset samples with silence : Yes
Delete leading and trailing silent blocks : No
Null samples used in CRC calculations : Yes
Used interface : Native Win32 interface for Win NT & 2000

Used output format : User Defined Encoder
Selected bitrate : 1024 kBit/s
Quality : High
Add ID3 tag : No
Command line compressor : C:\Program Files (x86)\Exact Audio Copy\FLAC\FLAC.EXE
Additional command line options : -6 -V -T "ARTIST=%artist%" -T "TITLE=%title%" -T "ALBUM=%albumtitle%" -T "DATE=%year%" -T "TRACKNUMBER=%tracknr%" -T "GENRE=%genre%" -T "COMMENT=%comment%" -T "BAND=%albuminterpret%" -T "ALBUMARTIST=%albuminterpret%" -T "COMPOSER=%composer%" %haslyrics%–tag-from-file=LYRICS="%lyricsfile%"%haslyrics% -T "DISCNUMBER=%cdnumber%" -T "TOTALDISCS=%totalcds%" -T "TOTALTRACKS=%numtracks%" %hascover%–picture="%coverfile%"%hascover% %source% -o %dest%


TOC of the extracted CD

Track | Start | Length | Start sector | End sector
––––––––––––––––––––––––––––-
1 | 0:00.00 | 5:19.35 | 0 | 23959
2 | 5:19.35 | 8:01.59 | 23960 | 60093
3 | 13:21.19 | 5:44.32 | 60094 | 85925
4 | 19:05.51 | 5:53.56 | 85926 | 112456
5 | 24:59.32 | 4:50.20 | 112457 | 134226
6 | 29:49.52 | 5:12.43 | 134227 | 157669
7 | 35:02.20 | 10:54.52 | 157670 | 206771
8 | 45:56.72 | 4:06.37 | 206772 | 225258
9 | 50:03.34 | 15:51.69 | 225259 | 296652
10 | 65:55.28 | 3:56.12 | 296653 | 314364


Range status and errors

Selected range

Filename C:\EACRip\HEINRICH SCHUTZ - COMPLETE RECORDINGS [Carus, Boxes I-III]\BOX III\CD 28 - Psalmen & Friedensmusiken (II)\Schutz - Complete Recordings Vol. 20 (Box III - CD 28) Psalmen & Friedensmusiken (II) - Hans-Christoph Rademann.wav

Peak level 96.9 %
Extraction speed 9.4 X
Range quality 100.0 %
Test CRC 0FBB05F1
Copy CRC 0FBB05F1
Copy OK

No errors occurred


AccurateRip summary

Track 1 accurately ripped (confidence 2) [B5085910] (AR v2)
Track 2 accurately ripped (confidence 2) [3965B7AD] (AR v2)
Track 3 accurately ripped (confidence 2) [ECE5689D] (AR v2)
Track 4 accurately ripped (confidence 2) [4460B6C1] (AR v2)
Track 5 accurately ripped (confidence 2) [91FECCA6] (AR v2)
Track 6 accurately ripped (confidence 2) [10B753E7] (AR v2)
Track 7 accurately ripped (confidence 2) [7A8E32DD] (AR v2)
Track 8 accurately ripped (confidence 2) [56CE1C0A] (AR v2)
Track 9 accurately ripped (confidence 2) [5AF1F9C2] (AR v2)
Track 10 accurately ripped (confidence 2) [3F739F81] (AR v2)

All tracks accurately ripped

End of status report

–– CUETools DB Plugin V2.1.6

[CTDB TOCID: .QDa0ZWNHslSt4YjNtfv_pE36W0-] found
Submit result: .QDa0ZWNHslSt4YjNtfv_pE36W0- has been confirmed
Track | CTDB Status
1 | (12/12) Accurately ripped
2 | (12/12) Accurately ripped
3 | (12/12) Accurately ripped
4 | (12/12) Accurately ripped
5 | (12/12) Accurately ripped
6 | (12/12) Accurately ripped
7 | (12/12) Accurately ripped
8 | (12/12) Accurately ripped
9 | (12/12) Accurately ripped
10 | (12/12) Accurately ripped


==== Log checksum FA5B294C34818AE8EB332FE89703E15767C5A391BEF2FBDA6E770E18A657EB2B ====


Hans-Christoph Rademann, Dresdner Kammerchor - Heinrich Schütz: Complete Recording, Box III [9CDs+DVD] (2019)

Thanks to the original releaser