Subcategories

Harvey Mason - Earthmover (1976) [Japanese Reissue 2000]

Posted By: Designol
Harvey Mason - Earthmover (1976) [Japanese Reissue 2000]

Harvey Mason - Earthmover (1976) [Japanese Reissue 2000]
EAC | FLAC | Image (Cue&Log) ~ 269 Mb | Mp3 (CBR320) ~ 105 Mb | Scans included
Jazz-Funk | Label: Arista/BMG | # BVCJ-37112, 74321-74948-2 | Time: 00:40:47

In the 1970s, Harvey Mason was one of those busy L.A.-based sessions players who had one foot in jazz and the other in R&B. The drummer backed his share of soul heavyweights (including Earth, Wind & Fire, Aretha Franklin, James Brown and the Brothers Johnson), but he never lost his jazz chops. Recorded in 1976, Earthmover is among the mostly instrumental albums that Mason provided during his stay at Arista. This self-produced LP, which finds him trying to balance commercial and creative considerations, is a mixed bag. Some of the material is strong, especially the cerebral fusion item "No Lands Man" (which boasts Jan Hammer on keyboards) and the funky "Bertha Baptist." And the contemplative "First Summer" is an enjoyable track that reminds the listener of the underrated Hawaiian funk/fusion outfit Seawind, which isn't surprising because it was co-written and arranged by Seawind's Bob Wilson. Meanwhile, some of the more commercial jazz-funk and pop-jazz tracks are less impressive and tend to sound overproduced. But while Earthmover is uneven, it has more ups than downs. Overall, this isn't a bad record, although Mason is capable of being more consistent.

Review by Alex Henderson, Allmusic.com

Harvey Mason at Allmusic
Harvey Mason Website
Harvey Mason at Wiki

Tracklist:

01. K. Y. and the Curb (04:58)
02. Sho Nuff Groove (03:56)
03. The Mase (04:11)
04. Sweet Mercy (05:50)
05. Earthmover Prelude (00:58)
06. Bertha Baptist (05:44)
07. First Summer (06:09)
08. No Lands Man (04:22)
09. When I'm with You (live version) (04:25)


Exact Audio Copy V1.0 beta 3 from 29. August 2011

Отчёт EAC об извлечении, выполненном 29. июня 2014, 18:14

Harvey Mason / Earthmover

Дисковод: Optiarc DVD RW AD-7203S Adapter: 5 ID: 0

Режим чтения : Достоверность
Использование точного потока : Да
Отключение кэша аудио : Да
Использование указателей C2 : Нет

Коррекция смещения при чтении : 48
Способность читать области Lead-in и Lead-out : Нет
Заполнение пропущенных сэмплов тишиной : Да
Удаление блоков с тишиной в начале и конце : Нет
При вычислениях CRC использовались нулевые сэмплы : Да
Интерфейс : Встроенный Win32-интерфейс для Win NT/2000

Выходной формат : Пользовательский кодировщик
Выбранный битрейт : 128 kBit/s
Качество : Высокий
Добавление ID3-тега : Нет
Утилита сжатия : C:\Program Files (x86)\Exact Audio Copy\Flac\flac.exe
Дополнительные параметры : -V -8 -T "Date=%year%" -T "Genre=%genre%" %source%


TOC извлечённого CD

Трек | Старт | Длительность | Начальный сектор | Конечный сектор
––––––––––––––––––––––––––––––––––-
1 | 0:00.00 | 4:58.05 | 0 | 22354
2 | 4:58.05 | 3:56.32 | 22355 | 40086
3 | 8:54.37 | 4:13.18 | 40087 | 59079
4 | 13:07.55 | 5:54.15 | 59080 | 85644
5 | 19:01.70 | 0:58.27 | 85645 | 90021
6 | 20:00.22 | 5:46.20 | 90022 | 115991
7 | 25:46.42 | 6:12.35 | 115992 | 143926
8 | 31:59.02 | 4:22.10 | 143927 | 163586
9 | 36:21.12 | 4:25.40 | 163587 | 183501


Характеристики диапазона извлечения и сообщения об ошибках

Выбранный диапазон

Имя файла D:\Music\Harvey Mason - Earthmover (1976)\Harvey Mason - Earthmover.wav

Пиковый уровень 97.9 %
Скорость извлечения 3.7 X
Качество диапазона 100.0 %
CRC теста 6C0F9F8E
CRC копии 6C0F9F8E
Копирование… OK

Ошибок не произошло


AccurateRip: сводка

Трек 1 точность не определена (достоверность 1) [BCFEB260], AccurateRip вернул [B1C97743] (AR v2)
Трек 2 точность не определена (достоверность 1) [E7F9D0D5], AccurateRip вернул [82C4F1FF] (AR v2)
Трек 3 точность не определена (достоверность 1) [BC8290D1], AccurateRip вернул [01F3B4A0] (AR v2)
Трек 4 точность не определена (достоверность 1) [2BC1DA6C], AccurateRip вернул [FC9B8381] (AR v2)
Трек 5 точность не определена (достоверность 1) [490456CC], AccurateRip вернул [0F09461F] (AR v2)
Трек 6 точность не определена (достоверность 1) [86C2B6E7], AccurateRip вернул [D67DF49F] (AR v2)
Трек 7 точность не определена (достоверность 1) [EB5D5B44], AccurateRip вернул [3F1470F6] (AR v2)
Трек 8 точность не определена (достоверность 1) [78BC9B81], AccurateRip вернул [8E19FAC6] (AR v2)
Трек 9 точность не определена (достоверность 1) [78B797B5], AccurateRip вернул [EFA5DE42] (AR v2)

Ни один трек не прошёл проверки на точность
В вашей базе может быть иной вариант штамповки диска

Конец отчёта

==== Контрольная сумма отчёта 34A2120053C859BCB49D4F5643FC1608FEA4D61DC183156A481D72FEA97626BE ====

foobar2000 1.2 / Dynamic Range Meter 1.1.1
log date: 2014-07-05 21:47:06

––––––––––––––––––––––––––––––––––––––––
Analyzed: Harvey Mason / Earthmover
––––––––––––––––––––––––––––––––––––––––

DR Peak RMS Duration Track
––––––––––––––––––––––––––––––––––––––––
DR9 -0.18 dB -10.69 dB 4:58 01-K. Y. and the Curb
DR8 -0.18 dB -10.63 dB 3:56 02-Sho Nuff Groove
DR9 -0.18 dB -11.05 dB 4:13 03-The Mase
DR9 -0.18 dB -12.83 dB 5:54 04-Sweet Mercy
DR11 -0.18 dB -14.42 dB 0:58 05-Earthmover Prelude
DR11 -0.18 dB -14.04 dB 5:46 06-Bertha Baptist
DR13 -0.18 dB -16.97 dB 6:12 07-First Summer
DR10 -0.18 dB -11.29 dB 4:22 08-No Lands Man
DR9 -0.18 dB -10.43 dB 4:26 09-When I'm with You (live version)
––––––––––––––––––––––––––––––––––––––––

Number of tracks: 9
Official DR value: DR10

Samplerate: 44100 Hz
Channels: 2
Bits per sample: 16
Bitrate: 882 kbps
Codec: FLAC
================================================================================

Harvey Mason - Earthmover (1976) [Japanese Reissue 2000]

Harvey Mason - Earthmover (1976) [Japanese Reissue 2000]