Subcategories

Helen Shapiro - The Best Of The EMI Years (1991)

Posted By: Designol
Helen Shapiro - The Best Of The EMI Years (1991)

Helen Shapiro - The Best Of The EMI Years (1991)
EAC | FLAC | Tracks (Cue&Log) ~ 292 Mb | Mp3 (CBR320) ~ 119 Mb | Scans ~ 67 Mb | 00:52:00
AM Pop, Vocal Pop, British Invasion, Early Pop/Rock | Label: EMI | # CDP 7 96448 2

Helen Shapiro is remembered today by younger pop culture buffs as the slightly awkward actress/singer in Richard Lester's 1962 debut feature film, It's Trad, Dad. From 1961 until 1963, however, Shapiro was England's teenage pop music queen, at one point selling 40,000 copies daily of her biggest single, "Walking Back to Happiness," during a 19-week chart run. A deceptively young 14 when she was discovered, Shapiro had a rich, expressive voice properly sounding like the property of someone twice as old, and she matured into a seasoned professional very quickly.

She grew up in London's East End and was performing with a ukulele at age nine as part of a school group – supposedly called Susie & the Hula Hoops, whose members included a young Mark Feld (aka Marc Bolan) – that used to sing their own versions of Elvis Presley and Buddy Holly songs. She subsequently sang with her brother Ron Shapiro's trad jazz turned skiffle outfit at local clubs before enrolling in classes at Maurice Burman's music school in London. Burman was so taken with Helen Shapiro's voice that he waived the tuition to keep her as a student. He later brought her to the attention of Norrie Paramor, then one of EMI's top pop producers (responsible for signing Cliff Richard & the Shadows). Shapiro's voice was so mature that Paramor refused to believe from the evidence on a tape that it belonged to a 14-year-old until she came to his office and belted out "St. Louis Blues." She cut her first single, "Please Don't Treat Me Like a Child," a few weeks later and broke onto the British charts in 1961.

That record was an extraordinary effort for a 14-year-old. Shapiro's voice showed the maturity and sensibilities of someone far beyond their teen years; her depth of emotion, coupled with the richness of her singing, made her an extraordinary new phenomenon on the British pop scene. She surprised everyone once again with her second single, a slow ballad called "You Don't Know," which managed to appeal to listeners across several age groups and hit number one in England. This was followed by the greatest recording of her career, "Walking Back to Happiness," which scaled the top of the charts with far greater total sales. Ironically, she'd never wanted to cut it; she felt it sounded hopelessly corny and old-fashioned, but her singing invested the song with such depth that it transcended any limitations in the writing.

This was to be the last time Shapiro would top the charts. Her next record, "Tell Me What He Said" (written by Jeff Barry) was held out of the top spot by the Shadows' "Wonderful Land." In April of 1962, Shapiro made her movie debut in Lester's It's Trad, Dad, but her single of "Let's Talk About Love" (featured in the movie) never broke the Top 20. Shapiro next turned back to the songwriting team of John Schroeder and Mike Hawker, who had written "Walking Back to Happiness" and "You Don't Know," for what proved to be her last Top Ten record, "Little Miss Lonely." She made the charts once more with "Keep Away From Other Girls," the first song by Burt Bacharach to make the British Top 40. During this period, Shapiro also got the opportunity to record Neil Sedaka's "Little Devil," and the two later became friends when Sedaka toured England.

Listening to Shapiro's records nearly 40 years later, it's amazing to think that her hit-making career lasted only two years. She was equally at home belting out "The Birth of the Blues," imparting a surprisingly blues-influenced feeling to "A Teenager in Love," or oozing pre-feminist defiance in "Walking Back to Happiness," and by rights should have been able to find a niche on the charts well into the middle and late '60s. The incongruity of a 15-year-old who might usually be spending her time in high school doing a song like "Walking Back to Happiness" was lost in the more innocent era in which she worked.

Shapiro wasn't remotely as soul-influenced as Dusty Springfield (though Shapiro's Helen in Nashville album from 1963 does sort of anticipate Dusty in Memphis), or a raspy shouter like Lulu, and there wasn't much of the cool teenager in her in the style of Sandie Shaw or the wounded teen softness of Lesley Gore. Rather, Shapiro was much more of a female pop/rock crooner, almost a distaff Bobby Darin with a style all her own, and should have been able to cut a path for herself well into the '60s in the music marketplace.
It wasn't to be, however. After appearing in her second movie, Play It Cool, which starred Billy Fury, Shapiro faded from the charts, although she didn't disappear from the British musical consciousness. She still headlined tours in the United Kingdom and in early 1963, she made the acquaintance of a support act that had been newly signed to EMI: the Beatles. She headlined the Beatles' first national tour of England and Shapiro and the group enjoyed each other's company. At 16, she was much more the seasoned professional than the older Liverpool quartet, who loved her voice and her unassuming manner. She sang with them on the bus, advised them to make "From Me to You" their next record after "Please Please Me," and they, in turn, wrote "Misery" for her. Astonishingly, EMI – not yet sensing the golden touch that the Beatles (who had yet to cut their first LP) would soon reveal – declined to give Shapiro the chance to record a Lennon-McCartney tune, costing her the chance to become the first artist to cover a Lennon-McCartney song just at the point when the Beatles were about to sweep all before them in the pop charts.

There's no telling what Shapiro, with her rich intonation, could have done with that downbeat little diamond in the rough in the early Lennon-McCartney song bag. Shapiro had another chance at an even more promising song later in 1963 when she went to cut an album in Nashville. In a session backed by the likes of Grady Martin and Boots Randolph, she cut the very first recording of "It's My Party." And again, EMI failed to get behind the single, sitting on its release until a virtual unknown named Lesley Gore got her rendition out first on Mercury and topped the U.S. charts. Shapiro's career at EMI ended in 1963 and her periodic attempts to resume recording at Pye, DJM, and Arista over the next decade failed to generate any chart action.

Shapiro has busied herself over the years very successfully as an actress, appearing as Nancy in Lionel Bart's musical Oliver and appearing on British soap operas as well. She has remained an attraction on the cabaret circuit over the decades and was well-known enough as a pop culture figure to justify the release of a best-of CD in Japan in the early '90s. She also cut albums devoted to the music of Duke Ellington and Johnny Mercer.

Bruce Eder, Allmusic.com

Helen Shapiro - The Best Of The EMI Years (1991)



Tracklist:

01. Tip Toe Through the Tulips (2:22)
02. Don't Treat Me Like a Child (2:36)
03. You Don't Know (2:41)
04. Walkin' Back to Happiness (2:31)
05. The Birth of the Blues (2:51)
06. Tell Me What He Said (2:48)
07. Little Miss Lonely (2:56)
08. St. Louis Blues (4:46)
09. A Teenager in Love (2:21)
10. Let's Talk About Love (1:56)
11. Keep Away From Other Girls (2:26)
12. Lipstick on Your Collar (2:20)
13. Little Devil (2:30)
14. Queen for Tonight (2:11)
15. I Want to Be Happy (2:20)
16. Look Who It Is (2:15)
17. Woe Is Me (2:04)
18. All Alone Am I (2:45)
19. Fever (2:26)
20. Walk on By (2:52)


Exact Audio Copy V1.0 beta 3 from 29. August 2011

EAC extraction logfile from 22. April 2014, 21:32

Helen Shapiro / The Best of the EMI Years

Used drive : Optiarc DVD RW AD-7280S Adapter: 3 ID: 0

Read mode : Secure
Utilize accurate stream : Yes
Defeat audio cache : Yes
Make use of C2 pointers : No

Read offset correction : 48
Overread into Lead-In and Lead-Out : No
Fill up missing offset samples with silence : Yes
Delete leading and trailing silent blocks : No
Null samples used in CRC calculations : Yes
Used interface : Native Win32 interface for Win NT & 2000
Gap handling : Appended to previous track

Used output format : User Defined Encoder
Selected bitrate : 768 kBit/s
Quality : High
Add ID3 tag : No
Command line compressor : C:\Program Files\Exact Audio Copy\Flac\flac.exe
Additional command line options : -V -8 -T "Genre=%genre%" -T "Artist=%artist%" -T "Title=%title%" -T "Album=%albumtitle%" -T "Date=%year%" -T "Tracknumber=%tracknr%" -T "Comment=%comment%" %source%


TOC of the extracted CD

Track | Start | Length | Start sector | End sector
––––––––––––––––––––––––––––-
1 | 0:00.33 | 2:22.17 | 33 | 10699
2 | 2:22.50 | 2:35.38 | 10700 | 22362
3 | 4:58.13 | 2:41.22 | 22363 | 34459
4 | 7:39.35 | 2:31.20 | 34460 | 45804
5 | 10:10.55 | 2:51.33 | 45805 | 58662
6 | 13:02.13 | 2:47.70 | 58663 | 71257
7 | 15:50.08 | 2:56.37 | 71258 | 84494
8 | 18:46.45 | 4:46.30 | 84495 | 105974
9 | 23:33.00 | 2:20.53 | 105975 | 116527
10 | 25:53.53 | 1:56.15 | 116528 | 125242
11 | 27:49.68 | 2:26.00 | 125243 | 136192
12 | 30:15.68 | 2:19.55 | 136193 | 146672
13 | 32:35.48 | 2:29.50 | 146673 | 157897
14 | 35:05.23 | 2:11.25 | 157898 | 167747
15 | 37:16.48 | 2:20.22 | 167748 | 178269
16 | 39:36.70 | 2:15.35 | 178270 | 188429
17 | 41:52.30 | 2:04.05 | 188430 | 197734
18 | 43:56.35 | 2:45.23 | 197735 | 210132
19 | 46:41.58 | 2:26.30 | 210133 | 221112
20 | 49:08.13 | 2:51.60 | 221113 | 233997


Track 1

Filename D:\CD\Helen Shapiro - The Best Of The EMI Years\01. Tip Toe Through the Tulips.wav

Pre-gap length 0:00:02.33

Peak level 100.0 %
Extraction speed 2.1 X
Track quality 100.0 %
Test CRC B9BAB362
Copy CRC B9BAB362
Accurately ripped (confidence 4) [09B09522] (AR v2)
Copy OK

Track 2

Filename D:\CD\Helen Shapiro - The Best Of The EMI Years\02. Don't Treat Me Like a Child.wav

Pre-gap length 0:00:01.35

Peak level 80.3 %
Extraction speed 2.3 X
Track quality 100.0 %
Test CRC A4071E45
Copy CRC A4071E45
Accurately ripped (confidence 4) [71892A95] (AR v2)
Copy OK

Track 3

Filename D:\CD\Helen Shapiro - The Best Of The EMI Years\03. You Don't Know.wav

Pre-gap length 0:00:02.05

Peak level 75.8 %
Extraction speed 2.4 X
Track quality 100.0 %
Test CRC FE685185
Copy CRC FE685185
Accurately ripped (confidence 4) [A8A22AE9] (AR v2)
Copy OK

Track 4

Filename D:\CD\Helen Shapiro - The Best Of The EMI Years\04. Walkin' Back to Happiness.wav

Pre-gap length 0:00:01.02

Peak level 90.7 %
Extraction speed 2.6 X
Track quality 100.0 %
Test CRC DC17BBB0
Copy CRC DC17BBB0
Accurately ripped (confidence 4) [C7A90BCD] (AR v2)
Copy OK

Track 5

Filename D:\CD\Helen Shapiro - The Best Of The EMI Years\05. The Birth of the Blues.wav

Pre-gap length 0:00:01.07

Peak level 96.7 %
Extraction speed 2.8 X
Track quality 100.0 %
Test CRC B0C77B30
Copy CRC B0C77B30
Accurately ripped (confidence 4) [ED59545C] (AR v2)
Copy OK

Track 6

Filename D:\CD\Helen Shapiro - The Best Of The EMI Years\06. Tell Me What He Said.wav

Pre-gap length 0:00:01.35

Peak level 84.6 %
Extraction speed 2.9 X
Track quality 100.0 %
Test CRC 446C4BC4
Copy CRC 446C4BC4
Accurately ripped (confidence 4) [CBC33999] (AR v2)
Copy OK

Track 7

Filename D:\CD\Helen Shapiro - The Best Of The EMI Years\07. Little Miss Lonely.wav

Pre-gap length 0:00:01.10

Peak level 84.0 %
Extraction speed 3.1 X
Track quality 100.0 %
Test CRC C901A005
Copy CRC C901A005
Accurately ripped (confidence 4) [127B7053] (AR v2)
Copy OK

Track 8

Filename D:\CD\Helen Shapiro - The Best Of The EMI Years\08. St. Louis Blues.wav

Pre-gap length 0:00:01.32

Peak level 91.8 %
Extraction speed 3.5 X
Track quality 100.0 %
Test CRC 82A8BA58
Copy CRC 82A8BA58
Accurately ripped (confidence 4) [54886B88] (AR v2)
Copy OK

Track 9

Filename D:\CD\Helen Shapiro - The Best Of The EMI Years\09. A Teenager in Love.wav

Pre-gap length 0:00:01.45

Peak level 92.8 %
Extraction speed 3.2 X
Track quality 100.0 %
Test CRC F85014CF
Copy CRC F85014CF
Accurately ripped (confidence 4) [147B2AEC] (AR v2)
Copy OK

Track 10

Filename D:\CD\Helen Shapiro - The Best Of The EMI Years\10. Let's Talk About Love.wav

Pre-gap length 0:00:01.10

Peak level 88.1 %
Extraction speed 2.6 X
Track quality 99.9 %
Test CRC 0240C483
Copy CRC 0240C483
Accurately ripped (confidence 4) [01721FD6] (AR v2)
Copy OK

Track 11

Filename D:\CD\Helen Shapiro - The Best Of The EMI Years\11. Keep Away From Other Girls.wav

Pre-gap length 0:00:00.60

Peak level 75.0 %
Extraction speed 3.5 X
Track quality 100.0 %
Test CRC CA02BAD5
Copy CRC CA02BAD5
Accurately ripped (confidence 4) [1E23F259] (AR v2)
Copy OK

Track 12

Filename D:\CD\Helen Shapiro - The Best Of The EMI Years\12. Lipstick on Your Collar.wav

Pre-gap length 0:00:01.05

Peak level 92.5 %
Extraction speed 3.5 X
Track quality 100.0 %
Test CRC 1964F3B3
Copy CRC 1964F3B3
Accurately ripped (confidence 4) [480146D8] (AR v2)
Copy OK

Track 13

Filename D:\CD\Helen Shapiro - The Best Of The EMI Years\13. Little Devil.wav

Pre-gap length 0:00:01.10

Peak level 98.9 %
Extraction speed 3.7 X
Track quality 100.0 %
Test CRC 5BE0E939
Copy CRC 5BE0E939
Accurately ripped (confidence 4) [F5BCC0FE] (AR v2)
Copy OK

Track 14

Filename D:\CD\Helen Shapiro - The Best Of The EMI Years\14. Queen for Tonight.wav

Pre-gap length 0:00:01.73

Peak level 89.1 %
Extraction speed 3.6 X
Track quality 100.0 %
Test CRC 68C716C3
Copy CRC 68C716C3
Accurately ripped (confidence 4) [CE7433FF] (AR v2)
Copy OK

Track 15

Filename D:\CD\Helen Shapiro - The Best Of The EMI Years\15. I Want to Be Happy.wav

Pre-gap length 0:00:01.50

Peak level 100.0 %
Extraction speed 3.8 X
Track quality 100.0 %
Test CRC A002A66B
Copy CRC A002A66B
Accurately ripped (confidence 4) [85109EB7] (AR v2)
Copy OK

Track 16

Filename D:\CD\Helen Shapiro - The Best Of The EMI Years\16. Look Who It Is.wav

Pre-gap length 0:00:01.35

Peak level 81.4 %
Extraction speed 3.2 X
Track quality 99.9 %
Test CRC 00D9ED60
Copy CRC 00D9ED60
Accurately ripped (confidence 4) [AE59308F] (AR v2)
Copy OK

Track 17

Filename D:\CD\Helen Shapiro - The Best Of The EMI Years\17. Woe Is Me.wav

Pre-gap length 0:00:01.55

Peak level 89.7 %
Extraction speed 3.8 X
Track quality 100.0 %
Test CRC B35A1BA6
Copy CRC B35A1BA6
Accurately ripped (confidence 4) [96D39680] (AR v2)
Copy OK

Track 18

Filename D:\CD\Helen Shapiro - The Best Of The EMI Years\18. All Alone Am I.wav

Pre-gap length 0:00:01.35

Peak level 60.2 %
Extraction speed 3.5 X
Track quality 99.9 %
Test CRC 8AFC11B8
Copy CRC 8AFC11B8
Accurately ripped (confidence 4) [D80896EB] (AR v2)
Copy OK

Track 19

Filename D:\CD\Helen Shapiro - The Best Of The EMI Years\19. Fever.wav

Pre-gap length 0:00:01.33

Peak level 71.8 %
Extraction speed 3.5 X
Track quality 99.9 %
Test CRC 2E01AB41
Copy CRC 2E01AB41
Accurately ripped (confidence 4) [04E5CF4B] (AR v2)
Copy OK

Track 20

Filename D:\CD\Helen Shapiro - The Best Of The EMI Years\20. Walk on By.wav

Pre-gap length 0:00:01.58

Peak level 80.3 %
Extraction speed 4.3 X
Track quality 100.0 %
Test CRC 6AE6B14E
Copy CRC 6AE6B14E
Accurately ripped (confidence 4) [5DDE6DBF] (AR v2)
Copy OK


All tracks accurately ripped

No errors occurred

End of status report

==== Log checksum 292CA5FD2DE82A15CA4C9DEAF579D36E6D51FCC86A89C86CF0F26813F39E6C58 ====

foobar2000 1.2 / Dynamic Range Meter 1.1.1
log date: 2018-06-25 00:54:25

––––––––––––––––––––––––––––––––––––––––
Analyzed: Helen Shapiro / The Best of the EMI Years
––––––––––––––––––––––––––––––––––––––––

DR Peak RMS Duration Track
––––––––––––––––––––––––––––––––––––––––
DR13 0.00 dB -15.14 dB 2:22 01-Tip Toe Through the Tulips
DR11 -1.90 dB -14.88 dB 2:36 02-Don't Treat Me Like a Child
DR11 -2.40 dB -15.19 dB 2:41 03-You Don't Know
DR12 -0.85 dB -15.57 dB 2:31 04-Walkin' Back to Happiness
DR13 -0.28 dB -16.19 dB 2:51 05-The Birth of the Blues
DR10 -1.45 dB -13.89 dB 2:48 06-Tell Me What He Said
DR11 -1.51 dB -15.48 dB 2:56 07-Little Miss Lonely
DR11 -0.74 dB -15.58 dB 4:46 08-St. Louis Blues
DR12 -0.64 dB -15.82 dB 2:21 09-A Teenager in Love
DR10 -1.09 dB -13.20 dB 1:56 10-Let's Talk About Love
DR11 -2.49 dB -14.23 dB 2:26 11-Keep Away From Other Girls
DR13 -0.67 dB -16.99 dB 2:20 12-Lipstick on Your Collar
DR14 -0.09 dB -17.57 dB 2:30 13-Little Devil
DR11 -1.00 dB -14.69 dB 2:11 14-Queen for Tonight
DR12 0.00 dB -15.74 dB 2:20 15-I Want to Be Happy
DR12 -1.78 dB -14.71 dB 2:15 16-Look Who It Is
DR12 -0.94 dB -14.23 dB 2:04 17-Woe Is Me
DR10 -4.40 dB -16.18 dB 2:45 18-All Alone Am I
DR10 -2.88 dB -14.61 dB 2:26 19-Fever
DR11 -1.90 dB -15.97 dB 2:52 20-Walk on By
––––––––––––––––––––––––––––––––––––––––

Number of tracks: 20
Official DR value: DR12

Samplerate: 44100 Hz
Channels: 2
Bits per sample: 16
Bitrate: 780 kbps
Codec: FLAC
================================================================================

Helen Shapiro - The Best Of The EMI Years (1991)

Helen Shapiro - The Best Of The EMI Years (1991)

All thanks to original releaser - bachelor-62

More interesting music in My Blog