Subcategories
Tags
Language
Tags

Hello - Complete Singles Collection (2021)

Posted By: popsakov
Hello - Complete Singles Collection (2021)

Hello - Complete Singles Collection (2021)
2CD | EAC Rip | FLAC (Img) + Cue + Log ~ 942 Mb | MP3 CBR320 ~ 342 Mb
Full Scans | 00:58:05 + 01:09:58 | RAR 5% Recovery
Cherry Red Records / 7T's Records #GLAM CDD 179
Glam Rock / Glitter / AM Pop / Disco

Hello were one of the more exciting bands of the mid-'70s glam explosion in the U.K., cutting some effervescent, almost giddy slabs of wax bolstered by thundering drums, heavy guitars, huge hooks, and boyish vocals. Not too many were hits, but a quick run through this collection of singles and their flip sides makes it clear that many more should have been. Starting in 1972 with the boogie glam of "You Move Me" and ending with a solo single from their drummer Jeff Allen from 1982, the collection covers a decade's worth of worthy attempts to scale the charts as tastes and sounds shifted around them. 1974's rocked-out cover of the Exciters' "Tell Him" was their biggest hit, reaching number six on the U.K. singles chart. 1975's "New York Groove'' was their other biggie; it didn't make it as far, but it has had a much longer shelf life and still sounds fresh decades later. Much of this collection does. The band were always game for anything, and their enthusiasm surges through the speakers whether they were tackling more oldies like their romp through "Bend Me Shape Me," doling out whip-smart proto-metal on "Another School Day," showing off some impressive soft rock chops on "Shine on Silver Light," dipping a sequined toe into the disco craze with 1979's "Feel This Thing," or even surfing the new wave under the name Local Boy Makes Good with 1981's "Horoscope." Along the way, there are some really fun hidden gems uncovered – the romping "Out of Our Heads" is a frothy Small Faces-meets-Sweet rocker, "Seven Rainy Nights" is sterling AM radio pop worthy of Neil Diamond, and 1978's hard-rocking "Too Much Hesitating" could have been a hit in some alternate universe – and there's never a moment where the band sound anything less than fun. Their discography has been served up in various manners, but this collection is the best way to chart their eventful trip through the musical landscape of the day.

~ Tim Sendra, All Music

***************

Track List CD1:

01. You Move Me [2:50]
02. Ask Your Mama [2:40]
03. C'mon [2:35]
04. The Wench [2:52]
05. Another School Day [2:52]
06. C'mon Get Together [2:54]
07. Tell Him [3:09]
08. Lightning [2:49]
09. Games Up [2:51]
10. Do It All Night [2:59]
11. Bend Me Shape Me [2:20]
12. We Gotta Go [2:56]
13. New York Groove [2:46]
14. Little Miss Mystery [3:39]
15. Star Studded Sham [2:55]
16. Jenny Dream [2:48]
17. Teenage Revolution [2:40]
18. Keep Us Off The Streets [2:59]
19. Love Stealer [3:33]
20. Out Of Our Heads [3:08]

Exact Audio Copy V1.3 from 2. September 2016

EAC extraction logfile from 13. June 2021, 7:30

Hello / Complete Singles Collection (Disc 1)

Used drive : PIONEER BD-RW BDR-212M Adapter: 1 ID: 0

Read mode : Secure
Utilize accurate stream : Yes
Defeat audio cache : Yes
Make use of C2 pointers : No

Read offset correction : 667
Overread into Lead-In and Lead-Out : No
Fill up missing offset samples with silence : Yes
Delete leading and trailing silent blocks : No
Null samples used in CRC calculations : Yes
Used interface : Native Win32 interface for Win NT & 2000

Used output format : Internal WAV Routines
Sample format : 44.100 Hz; 16 Bit; Stereo


TOC of the extracted CD

Track | Start | Length | Start sector | End sector
––––––––––––––––––––––––––––-
1 | 0:00.00 | 2:49.18 | 0 | 12692
2 | 2:49.18 | 2:39.12 | 12693 | 24629
3 | 5:28.30 | 2:34.22 | 24630 | 36201
4 | 8:02.52 | 2:51.15 | 36202 | 49041
5 | 10:53.67 | 2:51.18 | 49042 | 61884
6 | 13:45.10 | 2:53.37 | 61885 | 74896
7 | 16:38.47 | 3:08.19 | 74897 | 89015
8 | 19:46.66 | 2:49.00 | 89016 | 101690
9 | 22:35.66 | 2:50.72 | 101691 | 114512
10 | 25:26.63 | 2:58.55 | 114513 | 127917
11 | 28:25.43 | 2:19.30 | 127918 | 138372
12 | 30:44.73 | 2:55.28 | 138373 | 151525
13 | 33:40.26 | 2:45.43 | 151526 | 163943
14 | 36:25.69 | 3:38.10 | 163944 | 180303
15 | 40:04.04 | 2:54.66 | 180304 | 193419
16 | 42:58.70 | 2:47.07 | 193420 | 205951
17 | 45:46.02 | 2:39.53 | 205952 | 217929
18 | 48:25.55 | 2:58.39 | 217930 | 231318
19 | 51:24.19 | 3:32.48 | 231319 | 247266
20 | 54:56.67 | 3:07.61 | 247267 | 261352


Range status and errors

Selected range

Filename C:\Users\arthu\Desktop\Hello - Complete Singles Collection (Disc 1).wav

Peak level 98.8 %
Extraction speed 7.4 X
Range quality 99.9 %
Test CRC CDDDE0CE
Copy CRC CDDDE0CE
Copy OK

No errors occurred


AccurateRip summary

Track 1 not present in database
Track 2 not present in database
Track 3 not present in database
Track 4 not present in database
Track 5 not present in database
Track 6 not present in database
Track 7 not present in database
Track 8 not present in database
Track 9 not present in database
Track 10 not present in database
Track 11 not present in database
Track 12 not present in database
Track 13 not present in database
Track 14 not present in database
Track 15 not present in database
Track 16 not present in database
Track 17 not present in database
Track 18 not present in database
Track 19 not present in database
Track 20 not present in database

None of the tracks are present in the AccurateRip database

End of status report

–– CUETools DB Plugin V2.1.6

[CTDB TOCID: nQg0KrWWfQQ2J8GxoowJ0CXj_H4-] found
Submit result: nQg0KrWWfQQ2J8GxoowJ0CXj_H4- has been confirmed
Track | CTDB Status
1 | (1/1) Accurately ripped
2 | (1/1) Accurately ripped
3 | (1/1) Accurately ripped
4 | (1/1) Accurately ripped
5 | (1/1) Accurately ripped
6 | (1/1) Accurately ripped
7 | (1/1) Accurately ripped
8 | (1/1) Accurately ripped
9 | (1/1) Accurately ripped
10 | (1/1) Accurately ripped
11 | (1/1) Accurately ripped
12 | (1/1) Accurately ripped
13 | (1/1) Accurately ripped
14 | (1/1) Accurately ripped
15 | (1/1) Accurately ripped
16 | (1/1) Accurately ripped
17 | (1/1) Accurately ripped
18 | (1/1) Accurately ripped
19 | (1/1) Accurately ripped
20 | (1/1) Accurately ripped


==== Log checksum D496EB381F52E978D50D0D843F123B3328C9A6774BEA7DFDB000E5DD3CFF6FB3 ====

Track List CD2:

01. Seven Rainy Days [3:06]
02. Rebel [3:06]
03. Let It Rock [3:29]
04. Another School Day [Lp Mix] [2:52]
05. Shine On Silver Light [3:11]
06. Gotta Lotta Soul [3:04]
07. Good Old Usa [3:04]
08. Midnight Strangers [3:02]
09. Heart Get Ready For Love [3:12]
10. Voodoo Eyes [3:24]
11. Slow Motion [3:12]
12. The In Place [3:33]
13. Hi Ho Silver Lining [3:19]
14. Too Much Hesitating [3:25]
15. Feel This Thing [4:56]
16. Back Seat Talking [3:12]
17. FEEL THIS THING [12' Extended Version] [7:00]
18. HOROSCOPE [Local Boy Makes Good] [3:24]
19. HYPNOTIC RHYTHM [Local Boy Makes Good] [3:16]
20. GOOD TIMES [Jeff Allen] [3:21]

Exact Audio Copy V1.3 from 2. September 2016

EAC extraction logfile from 17. June 2021, 18:29

Hello / Complete Singles Collection (Disc 2)

Used drive : PIONEER BD-RW BDR-212M Adapter: 1 ID: 0

Read mode : Secure
Utilize accurate stream : Yes
Defeat audio cache : Yes
Make use of C2 pointers : No

Read offset correction : 667
Overread into Lead-In and Lead-Out : No
Fill up missing offset samples with silence : Yes
Delete leading and trailing silent blocks : No
Null samples used in CRC calculations : Yes
Used interface : Native Win32 interface for Win NT & 2000

Used output format : Internal WAV Routines
Sample format : 44.100 Hz; 16 Bit; Stereo


TOC of the extracted CD

Track | Start | Length | Start sector | End sector
––––––––––––––––––––––––––––-
1 | 0:00.00 | 3:05.61 | 0 | 13935
2 | 3:05.61 | 3:05.10 | 13936 | 27820
3 | 6:10.71 | 3:28.42 | 27821 | 43462
4 | 9:39.38 | 2:52.00 | 43463 | 56362
5 | 12:31.38 | 3:10.15 | 56363 | 70627
6 | 15:41.53 | 3:03.30 | 70628 | 84382
7 | 18:45.08 | 3:03.32 | 84383 | 98139
8 | 21:48.40 | 3:01.20 | 98140 | 111734
9 | 24:49.60 | 3:11.33 | 111735 | 126092
10 | 28:01.18 | 3:23.22 | 126093 | 141339
11 | 31:24.40 | 3:11.45 | 141340 | 155709
12 | 34:36.10 | 3:32.10 | 155710 | 171619
13 | 38:08.20 | 3:18.54 | 171620 | 186523
14 | 41:26.74 | 3:24.12 | 186524 | 201835
15 | 44:51.11 | 4:55.30 | 201836 | 223990
16 | 49:46.41 | 3:11.42 | 223991 | 238357
17 | 52:58.08 | 6:59.43 | 238358 | 269825
18 | 59:57.51 | 3:23.46 | 269826 | 285096
19 | 63:21.22 | 3:15.30 | 285097 | 299751
20 | 66:36.52 | 3:20.73 | 299752 | 314824


Range status and errors

Selected range

Filename C:\Users\arthu\Desktop\Hello - Complete Singles Collection (Disc 2).wav

Peak level 98.8 %
Extraction speed 8.3 X
Range quality 100.0 %
Test CRC 35CEB269
Copy CRC 35CEB269
Copy OK

No errors occurred


AccurateRip summary

Track 1 not present in database
Track 2 not present in database
Track 3 not present in database
Track 4 not present in database
Track 5 not present in database
Track 6 not present in database
Track 7 not present in database
Track 8 not present in database
Track 9 not present in database
Track 10 not present in database
Track 11 not present in database
Track 12 not present in database
Track 13 not present in database
Track 14 not present in database
Track 15 not present in database
Track 16 not present in database
Track 17 not present in database
Track 18 not present in database
Track 19 not present in database
Track 20 not present in database

None of the tracks are present in the AccurateRip database

End of status report

–– CUETools DB Plugin V2.1.6

[CTDB TOCID: 5bnSLjeUXWiV0q67t2GIsqWCPr4-] found
Submit result: 5bnSLjeUXWiV0q67t2GIsqWCPr4- has been confirmed
Track | CTDB Status
1 | (1/1) Accurately ripped
2 | (1/1) Accurately ripped
3 | (1/1) Accurately ripped
4 | (1/1) Accurately ripped
5 | (1/1) Accurately ripped
6 | (1/1) Accurately ripped
7 | (1/1) Accurately ripped
8 | (1/1) Accurately ripped
9 | (1/1) Accurately ripped
10 | (1/1) Accurately ripped
11 | (1/1) Accurately ripped
12 | (1/1) Accurately ripped
13 | (1/1) Accurately ripped
14 | (1/1) Accurately ripped
15 | (1/1) Accurately ripped
16 | (1/1) Accurately ripped
17 | (1/1) Accurately ripped
18 | (1/1) Accurately ripped
19 | (1/1) Accurately ripped
20 | (1/1) Accurately ripped


==== Log checksum 60D8C77667F79522F77522ED8AE9EDA403A9DB9A0B2CFF173A2F3072BA78B3D4 ====

All thanks go to London

>>> My Blog <<<

DOWNLOAD: