Subcategories
Tags
Language
Tags

Helloween - Helloween (2021) {Japanese Limited Edition}

Posted By: popsakov
Helloween - Helloween (2021) {Japanese Limited Edition}

Helloween - Helloween (2021) {Japanese Limited Edition}
2CD | EAC Rip | FLAC (Img) + Cue + Log ~ 627 Mb | MP3 CBR320 ~ 202 Mb
Full Scans ~ 352 Mb | 01:05:05 + 00:18:43 | RAR 5% Recovery
Heavy Metal, Power Metal | Victor Entertainment #VIZP-167

It was the wish of thousands of fans, challenging Andi Deris, Michael Kiske, Michael Weikath, Kai Hansen, Markus Grosskopf, Sascha Gerstner and Dani Löble during their PUMPKINS UNITED WORLD TOUR tour — and their dream came true! With this new album, simply called HELLOWEEN, the band opens a new chapter after 35 years of a glorious career. The future of one of the most influential metal bands will now include three singers. Originally planned for live performances alone, it is the birth of a unique metal alliance of seven! HELLOWEEN is one of the most respectable metal bands and the pioneer of German melodic speed Metal. On the road since 1984, HELLOWEEN has performed in all major festivals in the world: Rock in Rio, Wacken, Loudpark in Japan or Polish Woodstock, exciting more than half a million fans as headliners. Over a global career spanning more than three decades, the band has toured countless around the world and performed spectacular concerts with bands like Iron Maiden, Scorpions and Ozzy Osbourne. HELLOWEEN has released 15 studio albums and 4 live albums, has received 14 Gold-Awards and 6 Platinum-Awards and has sold more than 10 million albums to date.

This Japanese Limited Edition features digi-book packaging and comes with a bonus CD with three new songs, including a exclusive bonus track "We are Real." Also includes message for fans in Japan.

***************

Track List CD1:

01. Out For The Glory [7:19]
02. Fear Of The Fallen [5:39]
03. Best Time [3:36]
04. Mass Pollution [4:15]
05. Angels [4:43]
06. Rise Without Chains [4:57]
07. Indestructible [4:43]
08. Robot King [7:08]
09. Cyanide [3:30]
10. Down In The Dumps [6:02]
11. Orbit [1:05]
12. Skyfall [12:12]

Exact Audio Copy V1.6 from 23. October 2020

EAC extraction logfile from 22. June 2021, 10:00

Helloween / Helloween (VIZP-167) CD1

Used drive : PIONEER DVD-RW DVR-221 Adapter: 1 ID: 0

Read mode : Secure
Utilize accurate stream : Yes
Defeat audio cache : Yes
Make use of C2 pointers : No

Read offset correction : 6
Overread into Lead-In and Lead-Out : No
Fill up missing offset samples with silence : Yes
Delete leading and trailing silent blocks : No
Null samples used in CRC calculations : Yes
Used interface : Installed external ASPI interface

Used output format : User Defined Encoder
Selected bitrate : 1024 kBit/s
Quality : High
Add ID3 tag : No
Command line compressor : C:\Program Files\Exact Audio Copy\FLAC\FLAC.EXE
Additional command line options : -V -8 -T "Date=%year%" -T "Genre=%genre%" -T "COMMENT=Ripped by Hellwings71" -8 -V %source%


TOC of the extracted CD

Track | Start | Length | Start sector | End sector
––––––––––––––––––––––––––––-
1 | 0:00.00 | 7:18.72 | 0 | 32921
2 | 7:18.72 | 5:38.56 | 32922 | 58327
3 | 12:57.53 | 3:35.57 | 58328 | 74509
4 | 16:33.35 | 4:14.62 | 74510 | 93621
5 | 20:48.22 | 4:42.19 | 93622 | 114790
6 | 25:30.41 | 4:56.15 | 114791 | 137005
7 | 30:26.56 | 4:42.63 | 137006 | 158218
8 | 35:09.44 | 7:07.67 | 158219 | 190310
9 | 42:17.36 | 3:29.27 | 190311 | 206012
10 | 45:46.63 | 6:01.22 | 206013 | 233109
11 | 51:48.10 | 1:04.49 | 233110 | 237958
12 | 52:52.59 | 12:11.18 | 237959 | 292801


Range status and errors

Selected range

Filename E:\Program Files\CD Images\Hellwings71\Helloween - Helloween 2021 (Japanese Complete Limited Edition) (2CD) (Lossless)\CD1\Helloween - Helloween (VIZP-167) CD1.wav

Peak level 98.7 %
Extraction speed 8.2 X
Range quality 99.9 %
Test CRC 56C13F7F
Copy CRC 56C13F7F
Copy OK

No errors occurred


AccurateRip summary

Track 1 not present in database
Track 2 not present in database
Track 3 not present in database
Track 4 not present in database
Track 5 not present in database
Track 6 not present in database
Track 7 not present in database
Track 8 not present in database
Track 9 not present in database
Track 10 not present in database
Track 11 not present in database
Track 12 not present in database

None of the tracks are present in the AccurateRip database

End of status report

–– CUETools DB Plugin V2.1.6

[CTDB TOCID: OQYJNbThP_9D0nWHzwi2Ir3Q3lo-] found
Submit result: OQYJNbThP_9D0nWHzwi2Ir3Q3lo- has been confirmed
Track | CTDB Status
1 | (133/133) Accurately ripped
2 | (133/133) Accurately ripped
3 | (133/133) Accurately ripped
4 | (133/133) Accurately ripped
5 | (133/133) Accurately ripped
6 | (133/133) Accurately ripped
7 | (133/133) Accurately ripped
8 | (133/133) Accurately ripped
9 | (133/133) Accurately ripped
10 | (133/133) Accurately ripped
11 | (133/133) Accurately ripped
12 | (132/133) Accurately ripped


==== Log checksum DB505181660C94A0EC1956A64501611C564F989ACFA081C02BE2205DED26B2D2 ====

Track List CD2:

01. Golden Times [4:48]
02. Save My Hide [3:12]
03. Pumpkins United [6:20]
04. We Are Real (Japanese Bonus Track) [4:25]

Exact Audio Copy V1.6 from 23. October 2020

EAC extraction logfile from 22. June 2021, 10:17

Helloween / Helloween (VIZP-167) CD2

Used drive : PIONEER DVD-RW DVR-221 Adapter: 1 ID: 0

Read mode : Secure
Utilize accurate stream : Yes
Defeat audio cache : Yes
Make use of C2 pointers : No

Read offset correction : 6
Overread into Lead-In and Lead-Out : No
Fill up missing offset samples with silence : Yes
Delete leading and trailing silent blocks : No
Null samples used in CRC calculations : Yes
Used interface : Installed external ASPI interface

Used output format : User Defined Encoder
Selected bitrate : 1024 kBit/s
Quality : High
Add ID3 tag : No
Command line compressor : C:\Program Files\Exact Audio Copy\FLAC\FLAC.EXE
Additional command line options : -V -8 -T "Date=%year%" -T "Genre=%genre%" -T "COMMENT=Ripped by Hellwings71" -8 -V %source%


TOC of the extracted CD

Track | Start | Length | Start sector | End sector
––––––––––––––––––––––––––––-
1 | 0:00.00 | 4:47.52 | 0 | 21576
2 | 4:47.52 | 3:11.29 | 21577 | 35930
3 | 7:59.06 | 6:19.14 | 35931 | 64369
4 | 14:18.20 | 4:24.26 | 64370 | 84195


Range status and errors

Selected range

Filename E:\Program Files\CD Images\Hellwings71\Helloween - Helloween 2021 (Japanese Complete Limited Edition) (2CD) (Lossless)\CD2\Helloween - Helloween (VIZP-167) CD2.wav

Peak level 98.7 %
Extraction speed 3.5 X
Range quality 100.0 %
Test CRC DD6C24A1
Copy CRC DD6C24A1
Copy OK

No errors occurred


AccurateRip summary

Track 1 not present in database
Track 2 not present in database
Track 3 not present in database
Track 4 not present in database

None of the tracks are present in the AccurateRip database

End of status report

–– CUETools DB Plugin V2.1.6

[CTDB TOCID: t7FWMBo0bL_wMWig0Hh1.JZnio0-] found
Submit result: t7FWMBo0bL_wMWig0Hh1.JZnio0- has been confirmed
Track | CTDB Status
1 | (47/47) Accurately ripped
2 | (47/47) Accurately ripped
3 | (47/47) Accurately ripped
4 | (47/47) Accurately ripped


==== Log checksum 28F18B1D1AD352BDD7C81DE63CCBE1CEA568F271798181179618B996D12497C2 ====

All thanks go to hellwings71

>>> Helloween in my Blog <<<

DOWNLOAD: