Subcategories

Henri Demarquette & Vanessa Benelli Mosell - Echoes: Philip Glass & Sergei Rachmaninov (2018)

Posted By: Designol
Henri Demarquette & Vanessa Benelli Mosell - Echoes: Philip Glass & Sergei Rachmaninov (2018)

Henri Demarquette & Vanessa Benelli Mosell - Echoes: Philip Glass & Sergei Rachmaninov (2018)
EAC | FLAC | Image (Cue&Log) ~ 248 Mb | Mp3 (CBR320) ~ 161 Mb | Scans included
Genre: Classical | Label: Decca | # 481 629-9 | Time: 00:59:59

Pianist Vanessa Benelli Mosell and cellist Henri Demarquette find common ground between Philip Glass and Rachmoninov in this release that revels in both composers passion for sonic storytelling. Presenting a program of personal, dramatic and spiritual music, Mosell and Demarquette perform these selections with intimate ardor.

Henri Demarquette & Vanessa Benelli Mosell - Echoes: Philip Glass & Sergei Rachmaninov (2018)



Henri Demarquette & Vanessa Benelli Mosell - Echoes: Philip Glass & Sergei Rachmaninov (2018)



Tracklist:

Philip Glass (b. 1937)
01. Opening (6:30)

Sergei Rachmaninov (1873-1943)
02. Vocalise Op. 34 No.14 - Lentamente, Molto cantabile (5:27)

Philip Glass
03. Tissue No.2 (3:09)

Sergei Rachmaninov
Sonata In G Minor For Cello & Piano, Op.19
04. I - Lento (12:58)
05. II - Allegro scherzando (6:01)
06. III - Andante (5:31)
07. IV - Allegro mosso (10:50)

Philip Glass
08. Tissue No.7 (3:26)

Sergei Rachmaninov
09. The secret night Op.4 No.3 - Lento (2:23)

Philip Glass
10. The Poet Act (3:44)


Exact Audio Copy V1.0 beta 4 from 7. December 2014

EAC extraction logfile from 16. June 2018, 13:08

Philip Glass & Sergei Rachmaninov / Echoes

Used drive : TSSTcorpDVDWBD TS-LB23A Adapter: 1 ID: 0

Read mode : Secure
Utilize accurate stream : Yes
Defeat audio cache : Yes
Make use of C2 pointers : No

Read offset correction : 6
Overread into Lead-In and Lead-Out : No
Fill up missing offset samples with silence : Yes
Delete leading and trailing silent blocks : No
Null samples used in CRC calculations : Yes
Used interface : Native Win32 interface for Win NT & 2000

Used output format : User Defined Encoder
Selected bitrate : 128 kBit/s
Quality : High
Add ID3 tag : Yes
Command line compressor : C:\Program Files (x86)\Exact Audio Copy\Flac\flac.exe
Additional command line options : -T "COMMENT=Ripped by GFox" -V -8 %source%


TOC of the extracted CD

Track | Start | Length | Start sector | End sector
––––––––––––––––––––––––––––-
1 | 0:00.00 | 6:30.29 | 0 | 29278
2 | 6:30.29 | 5:26.46 | 29279 | 53774
3 | 11:57.00 | 3:09.22 | 53775 | 67971
4 | 15:06.22 | 12:58.05 | 67972 | 126326
5 | 28:04.27 | 6:01.07 | 126327 | 153408
6 | 34:05.34 | 5:30.55 | 153409 | 178213
7 | 39:36.14 | 10:49.58 | 178214 | 226946
8 | 50:25.72 | 3:25.61 | 226947 | 242382
9 | 53:51.58 | 2:22.41 | 242383 | 253073
10 | 56:14.24 | 3:44.17 | 253074 | 269890


Range status and errors

Selected range

Filename D:\Downloads\Philip Glass & Sergei Rachmaninov - Echoes.wav

Peak level 93.3 %
Extraction speed 1.7 X
Range quality 99.9 %
Test CRC 2DE8D731
Copy CRC 2DE8D731
Copy OK

No errors occurred


AccurateRip summary

Track 1 accurately ripped (confidence 2) [2B258C30] (AR v2)
Track 2 accurately ripped (confidence 2) [FC67485B] (AR v2)
Track 3 accurately ripped (confidence 2) [A9D69A69] (AR v2)
Track 4 accurately ripped (confidence 2) [CDDE8B04] (AR v2)
Track 5 accurately ripped (confidence 2) [28580456] (AR v2)
Track 6 accurately ripped (confidence 2) [706186E2] (AR v2)
Track 7 accurately ripped (confidence 2) [3B109EFB] (AR v2)
Track 8 accurately ripped (confidence 2) [34190229] (AR v2)
Track 9 accurately ripped (confidence 2) [F64B2907] (AR v2)
Track 10 accurately ripped (confidence 2) [2C5170CA] (AR v2)

All tracks accurately ripped

End of status report

==== Log checksum 213218D252EE8A2339721ADCF3D36463C806BDED354CB9560E77C6BB215C9F3C ====

foobar2000 1.2 / Dynamic Range Meter 1.1.1
log date: 2018-06-17 16:07:31

––––––––––––––––––––––––––––––––––––––––
Analyzed: Henri Demarquette & Vanessa Benelli Mosell / Echoes: Philip Glass & Sergei Rachmaninov
––––––––––––––––––––––––––––––––––––––––

DR Peak RMS Duration Track
––––––––––––––––––––––––––––––––––––––––
DR11 -6.53 dB -21.24 dB 6:30 01-Glass - Opening
DR11 -3.40 dB -20.62 dB 5:27 02-Rachmaninov - Vocalise Op. 34 No.14 - Lentamente, Molto cantabile
DR11 -6.72 dB -21.31 dB 3:09 03-Glass - Tissue No.2
DR12 -1.73 dB -18.08 dB 12:58 04-Rachmaninov - Sonate Op.19 - I - Lento
DR12 -2.20 dB -18.53 dB 6:01 05-Rachmaninov - Sonate Op.19 - II - Allegro scherzando
DR12 -2.82 dB -18.99 dB 5:31 06-Rachmaninov - Sonate Op.19 - III - Andante
DR11 -1.02 dB -16.89 dB 10:50 07-Rachmaninov - Sonate Op.19 - IV - Allegro mosso
DR12 -8.57 dB -26.26 dB 3:26 08-Glass - Tissue No.7
DR11 -0.60 dB -17.82 dB 2:23 09-Rachmaninov - The secret night Op.4 No.3 - Lento
DR12 -8.47 dB -24.48 dB 3:44 10-Glass - The Poet Act
––––––––––––––––––––––––––––––––––––––––

Number of tracks: 10
Official DR value: DR11

Samplerate: 44100 Hz
Channels: 2
Bits per sample: 16
Bitrate: 524 kbps
Codec: FLAC
================================================================================

Henri Demarquette & Vanessa Benelli Mosell - Echoes: Philip Glass & Sergei Rachmaninov (2018)