Tags
Language
Tags

Henri Crolla - Le Long Des Rues [Recorded 1956-1960] (2009)

Posted By:
Henri Crolla - Le Long Des Rues [Recorded 1956-1960] (2009)

Henri Crolla - Le Long Des Rues [Recorded 1956-1960] (2009)
EAC Rip | FLAC (tracks+.cue+log) - 525 MB | MP3 CBR 320 kbps (LAME 3.93) - 264 MB | Covers - 11 MB
Genre: Guitar Jazz, Easy Listening, Gypsy Jazz | RAR 3% Rec. | Label: Universal Music France (531 210-0)

Henri Crolla (1920-1960) was an Italian jazz guitarist and film composer. Born in Naples, Campania, Italy, to a family of itinerant Neapolitan musicians, he moved with his family to Porte de Choisy in France in 1922 following the rise of fascism in Italy. One of his neighbours was a young Django Reinhardt, with whose family he became close. He also put to music many poems from Prévert's Paroles with Joseph Kosma.
CD 1 Tracklist:

Le Long Des Rues…
01. À Paris Dans Chaque Faubourg
02. Sous Les Ponts De Paris
03. Sur Les Quais Du Vieux Paris
04. J'ai Deux Amours
05. Sous Les Toits De Paris
06. Paris, Je T'aime D'amour
07. En Avril À Paris
08. Revoir Paris (Retour À Paris)

Bonsoir Chérie
09. Tout Est Permis Quand On S'aime
10. Le Chaland Qui Passe
11. Si Jolie
12. Ramona
13. My Melancholy Baby
14. Little White Lies
15. Vous Qui Passez Sans Me Voir
16. Premier Rendez-Vous
17. Amour, Mon Cher Amour
18. Rose-Marie
19. Poinciana
20. Bonsoir Chérie

Total time: 54:56

CD 2 Tracklist:

C'est Pour Toi Que Je Joue
01. O Guitares
02. Porte De Choisy
03. Sérénade À Une Parisienne
04. Gas-Oil
05. Les Deux Plumes
06. Improvisation I
07. Mon Chien
08. Léon La Lune
09. Paradis
10. La Chapelle
11. Saint Paul De Vence
12. Bues II
13. Improvisation II

Inédits: Esquisses Pour Le Cinéma
14. Saint-Tropez Blues
15. Tumbleweed
16. Générique
17. Alain & Arnie
18. Fugue
19. Souvenir D'Henri
20. Loterie
21. Usine
22. Voulez-Vous Danser Avec Moi
23. Monsieur Petit Louis
24. Paris A Le Coeur Tendre

Total time: 57:06

Exact Audio Copy V0.99 prebeta 5 from 4. May 2009

EAC extraction logfile from 21. July 2010, 18:41

Henri Crolla / Le long des rues (CD1)

Used drive : PLEXTOR DVDR PX-860A Adapter: 0 ID: 0

Read mode : Secure
Utilize accurate stream : Yes
Defeat audio cache : Yes
Make use of C2 pointers : No

Read offset correction : 96
Overread into Lead-In and Lead-Out : No
Fill up missing offset samples with silence : Yes
Delete leading and trailing silent blocks : No
Null samples used in CRC calculations : Yes
Used interface : Native Win32 interface for Win NT & 2000
Gap handling : Appended to previous track

Used output format : User Defined Encoder
Selected bitrate : 768 kBit/s
Quality : High
Add ID3 tag : No
Command line compressor : C:\Program Files\FLAC\flac.exe
Additional command line options : -8 -V -T "ARTIST=%a" -T "TITLE=%t" -T "ALBUM=%g" -T "DATE=%y" -T "TRACKNUMBER=%n" -T "TOTALTRACKS=%x" -T "GENRE=%m" -T "ALBUM ARTIST=%v" -T "ALBUMARTIST=%v" -T "COMMENT=EAC V0.99 prebeta 5, Secure Mode, Test & Copy, Accurat


TOC of the extracted CD

Track | Start | Length | Start sector | End sector
––––––––––––––––––––––––––––-
1 | 0:00.00 | 3:04.71 | 0 | 13870
2 | 3:04.71 | 2:25.09 | 13871 | 24754
3 | 5:30.05 | 3:21.60 | 24755 | 39889
4 | 8:51.65 | 2:09.26 | 39890 | 49590
5 | 11:01.16 | 3:26.02 | 49591 | 65042
6 | 14:27.18 | 2:35.37 | 65043 | 76704
7 | 17:02.55 | 2:27.22 | 76705 | 87751
8 | 19:30.02 | 2:33.40 | 87752 | 99266
9 | 22:03.42 | 2:22.12 | 99267 | 109928
10 | 24:25.54 | 2:52.12 | 109929 | 122840
11 | 27:17.66 | 2:55.67 | 122841 | 136032
12 | 30:13.58 | 2:47.30 | 136033 | 148587
13 | 33:01.13 | 2:18.00 | 148588 | 158937
14 | 35:19.13 | 2:37.30 | 158938 | 170742
15 | 37:56.43 | 3:06.62 | 170743 | 184754
16 | 41:03.30 | 2:07.03 | 184755 | 194282
17 | 43:10.33 | 2:39.43 | 194283 | 206250
18 | 45:50.01 | 2:57.19 | 206251 | 219544
19 | 48:47.20 | 3:26.12 | 219545 | 235006
20 | 52:13.32 | 2:42.38 | 235007 | 247194


Track 1

Filename M:\DL\Henri Crolla - Le long des rues (CD1) (2009) [FLAC]\01 - A Paris dans chaque faubourg.wav

Pre-gap length 0:00:02.00

Peak level 79.2 %
Track quality 99.9 %
Test CRC 66CF2E91
Copy CRC 66CF2E91
Accurately ripped (confidence 2) [5340523F]
Copy OK

Track 2

Filename M:\DL\Henri Crolla - Le long des rues (CD1) (2009) [FLAC]\02 - Sous les ponts de Paris.wav

Peak level 71.1 %
Track quality 99.9 %
Test CRC 04786D4A
Copy CRC 04786D4A
Accurately ripped (confidence 2) [6FA3DC42]
Copy OK

Track 3

Filename M:\DL\Henri Crolla - Le long des rues (CD1) (2009) [FLAC]\03 - Sur les quais du vieux Paris.wav

Peak level 71.0 %
Track quality 100.0 %
Test CRC D88244B9
Copy CRC D88244B9
Accurately ripped (confidence 2) [024B2750]
Copy OK

Track 4

Filename M:\DL\Henri Crolla - Le long des rues (CD1) (2009) [FLAC]\04 - J'ai deux amours.wav

Peak level 79.7 %
Track quality 100.0 %
Test CRC AFBFE62D
Copy CRC AFBFE62D
Accurately ripped (confidence 2) [EF21FF28]
Copy OK

Track 5

Filename M:\DL\Henri Crolla - Le long des rues (CD1) (2009) [FLAC]\05 - Sous les toits de Paris.wav

Peak level 79.0 %
Track quality 100.0 %
Test CRC 37DCB811
Copy CRC 37DCB811
Accurately ripped (confidence 2) [A872304E]
Copy OK

Track 6

Filename M:\DL\Henri Crolla - Le long des rues (CD1) (2009) [FLAC]\06 - Paris, je t'aime d'amour.wav

Peak level 83.8 %
Track quality 100.0 %
Test CRC F884A938
Copy CRC F884A938
Accurately ripped (confidence 2) [FED21E25]
Copy OK

Track 7

Filename M:\DL\Henri Crolla - Le long des rues (CD1) (2009) [FLAC]\07 - En avril a Paris.wav

Peak level 75.2 %
Track quality 100.0 %
Test CRC 004FF6B4
Copy CRC 004FF6B4
Accurately ripped (confidence 2) [E6717F42]
Copy OK

Track 8

Filename M:\DL\Henri Crolla - Le long des rues (CD1) (2009) [FLAC]\08 - Revoir Paris.wav

Peak level 94.7 %
Track quality 100.0 %
Test CRC 84831B5B
Copy CRC 84831B5B
Accurately ripped (confidence 2) [5947728B]
Copy OK

Track 9

Filename M:\DL\Henri Crolla - Le long des rues (CD1) (2009) [FLAC]\09 - Tout est permis quand on s'aime.wav

Pre-gap length 0:00:02.13

Peak level 88.7 %
Track quality 100.0 %
Test CRC 0FB70EC7
Copy CRC 0FB70EC7
Accurately ripped (confidence 2) [6189C246]
Copy OK

Track 10

Filename M:\DL\Henri Crolla - Le long des rues (CD1) (2009) [FLAC]\10 - Le chaland qui passe.wav

Peak level 83.7 %
Track quality 100.0 %
Test CRC 89327D8E
Copy CRC 89327D8E
Accurately ripped (confidence 2) [1FCFC4FB]
Copy OK

Track 11

Filename M:\DL\Henri Crolla - Le long des rues (CD1) (2009) [FLAC]\11 - Si jolie.wav

Peak level 80.3 %
Track quality 100.0 %
Test CRC 607F55CD
Copy CRC 607F55CD
Accurately ripped (confidence 2) [7961262E]
Copy OK

Track 12

Filename M:\DL\Henri Crolla - Le long des rues (CD1) (2009) [FLAC]\12 - Ramona.wav

Peak level 73.9 %
Track quality 100.0 %
Test CRC 0221C8D1
Copy CRC 0221C8D1
Accurately ripped (confidence 2) [B7F925BD]
Copy OK

Track 13

Filename M:\DL\Henri Crolla - Le long des rues (CD1) (2009) [FLAC]\13 - My melancholy baby.wav

Peak level 84.2 %
Track quality 100.0 %
Test CRC 2E4183DD
Copy CRC 2E4183DD
Accurately ripped (confidence 2) [6FF1D59A]
Copy OK

Track 14

Filename M:\DL\Henri Crolla - Le long des rues (CD1) (2009) [FLAC]\14 - Little white lies.wav

Peak level 76.6 %
Track quality 99.9 %
Test CRC F389D45B
Copy CRC F389D45B
Accurately ripped (confidence 2) [7B36D7B3]
Copy OK

Track 15

Filename M:\DL\Henri Crolla - Le long des rues (CD1) (2009) [FLAC]\15 - Vous qui passez sans me voir.wav

Peak level 40.3 %
Track quality 100.0 %
Test CRC AE235F1B
Copy CRC AE235F1B
Accurately ripped (confidence 2) [380831AF]
Copy OK

Track 16

Filename M:\DL\Henri Crolla - Le long des rues (CD1) (2009) [FLAC]\16 - Premier rendez-vous.wav

Peak level 85.7 %
Track quality 100.0 %
Test CRC 92505F87
Copy CRC 92505F87
Accurately ripped (confidence 2) [646C372B]
Copy OK

Track 17

Filename M:\DL\Henri Crolla - Le long des rues (CD1) (2009) [FLAC]\17 - Amour, mon cher amour.wav

Peak level 43.5 %
Track quality 100.0 %
Test CRC 35E2E8A0
Copy CRC 35E2E8A0
Accurately ripped (confidence 2) [6ACB5560]
Copy OK

Track 18

Filename M:\DL\Henri Crolla - Le long des rues (CD1) (2009) [FLAC]\18 - Rose-Marie.wav

Peak level 64.2 %
Track quality 100.0 %
Test CRC 90A19908
Copy CRC 90A19908
Accurately ripped (confidence 2) [5EB4A539]
Copy OK

Track 19

Filename M:\DL\Henri Crolla - Le long des rues (CD1) (2009) [FLAC]\19 - Poinciana.wav

Peak level 63.6 %
Track quality 100.0 %
Test CRC BD9313DF
Copy CRC BD9313DF
Accurately ripped (confidence 2) [4C5CF17E]
Copy OK

Track 20

Filename M:\DL\Henri Crolla - Le long des rues (CD1) (2009) [FLAC]\20 - Bonsoir cherie.wav

Peak level 68.9 %
Track quality 100.0 %
Test CRC A488119F
Copy CRC A488119F
Accurately ripped (confidence 2) [520A8A0C]
Copy OK


All tracks accurately ripped

No errors occurred

End of status report

[CUETools log; Date: 28.07.2021 13:21:10; Version: 2.1.4]
[CTDB TOCID: Y6P4.QRTrwdqv7TmVZnf0YnDQMY-] found.
Track | CTDB Status
1 | (7/7) Accurately ripped
2 | (7/7) Accurately ripped
3 | (7/7) Accurately ripped
4 | (7/7) Accurately ripped
5 | (7/7) Accurately ripped
6 | (7/7) Accurately ripped
7 | (7/7) Accurately ripped
8 | (7/7) Accurately ripped
9 | (7/7) Accurately ripped
10 | (7/7) Accurately ripped
11 | (7/7) Accurately ripped
12 | (7/7) Accurately ripped
13 | (5/7) Accurately ripped
14 | (7/7) Accurately ripped
15 | (6/7) Accurately ripped
16 | (7/7) Accurately ripped
17 | (7/7) Accurately ripped
18 | (7/7) Accurately ripped
19 | (7/7) Accurately ripped
20 | (7/7) Accurately ripped
[AccurateRip ID: 00278906-0241cdf0-1f0cdf14] found.
Track [ CRC | V2 ] Status
01 [5340523f|ca3383d8] (3+3/6) Accurately ripped
02 [6fa3dc42|ea1d49a3] (3+3/6) Accurately ripped
03 [024b2750|b3d45708] (3+3/6) Accurately ripped
04 [ef21ff28|420fdf4e] (3+3/6) Accurately ripped
05 [a872304e|271ed9fd] (3+3/6) Accurately ripped
06 [fed21e25|2aefc0f5] (3+3/6) Accurately ripped
07 [e6717f42|0182f7ad] (3+3/6) Accurately ripped
08 [5947728b|84f22fff] (3+3/6) Accurately ripped
09 [6189c246|80a18f52] (3+3/6) Accurately ripped
10 [1fcfc4fb|620f459d] (3+3/6) Accurately ripped
11 [7961262e|f43b963c] (3+3/6) Accurately ripped
12 [b7f925bd|79d80601] (3+3/6) Accurately ripped
13 [6ff1d59a|7c2a80ee] (3+3/6) Accurately ripped
14 [7b36d7b3|f1af46db] (3+3/6) Accurately ripped
15 [380831af|6601d871] (3+3/6) Accurately ripped
16 [646c372b|52558f61] (3+3/6) Accurately ripped
17 [6acb5560|e7f65a30] (3+3/6) Accurately ripped
18 [5eb4a539|6cc3fc5c] (3+3/6) Accurately ripped
19 [4c5cf17e|5bed46a5] (3+3/6) Accurately ripped
20 [520a8a0c|25eaf20c] (3+3/6) Accurately ripped

Track Peak [ CRC32 ] [W/O NULL] [ LOG ]
– 94,7 [074851B5] [422DD95F]
01 79,2 [66CF2E91] [B06BC198] CRC32
02 71,1 [04786D4A] [5DB47564] CRC32
03 71,0 [D88244B9] [A9C94E82] CRC32
04 79,7 [AFBFE62D] [B7A8CA12] CRC32
05 79,0 [37DCB811] [69127C4C] CRC32
06 83,8 [F884A938] [1D3B76A7] CRC32
07 75,2 [004FF6B4] [554875CD] CRC32
08 94,7 [84831B5B] [6607A26F] CRC32
09 88,7 [0FB70EC7] [384E0B04] CRC32
10 83,7 [89327D8E] [2E768A6A] CRC32
11 80,3 [607F55CD] [3DAFC6C0] CRC32
12 73,9 [0221C8D1] [CA113887] CRC32
13 84,2 [2E4183DD] [E1BEE514] CRC32
14 76,6 [F389D45B] [DD5D8DEB] CRC32
15 40,3 [AE235F1B] [D3ECCF36] CRC32
16 85,7 [92505F87] [24DC00A5] CRC32
17 43,5 [35E2E8A0] [BA76556A] CRC32
18 64,2 [90A19908] [021E04A6] CRC32
19 63,6 [BD9313DF] [0CFF3DCB] CRC32
20 68,9 [A488119F] [1578D6F5] CRC32

Exact Audio Copy V0.99 prebeta 5 from 4. May 2009

EAC extraction logfile from 21. July 2010, 19:14

Henri Crolla / Le long des rues (CD2)

Used drive : PLEXTOR DVDR PX-860A Adapter: 0 ID: 0

Read mode : Secure
Utilize accurate stream : Yes
Defeat audio cache : Yes
Make use of C2 pointers : No

Read offset correction : 96
Overread into Lead-In and Lead-Out : No
Fill up missing offset samples with silence : Yes
Delete leading and trailing silent blocks : No
Null samples used in CRC calculations : Yes
Used interface : Native Win32 interface for Win NT & 2000
Gap handling : Appended to previous track

Used output format : User Defined Encoder
Selected bitrate : 768 kBit/s
Quality : High
Add ID3 tag : No
Command line compressor : C:\Program Files\FLAC\flac.exe
Additional command line options : -8 -V -T "ARTIST=%a" -T "TITLE=%t" -T "ALBUM=%g" -T "DATE=%y" -T "TRACKNUMBER=%n" -T "TOTALTRACKS=%x" -T "GENRE=%m" -T "ALBUM ARTIST=%v" -T "ALBUMARTIST=%v" -T "COMMENT=EAC V0.99 prebeta 5, Secure Mode, Test & Copy, Accurat


TOC of the extracted CD

Track | Start | Length | Start sector | End sector
––––––––––––––––––––––––––––-
1 | 0:00.00 | 1:30.18 | 0 | 6767
2 | 1:30.18 | 2:12.08 | 6768 | 16675
3 | 3:42.26 | 1:28.41 | 16676 | 23316
4 | 5:10.67 | 1:25.70 | 23317 | 29761
5 | 6:36.62 | 1:30.74 | 29762 | 36585
6 | 8:07.61 | 2:40.73 | 36586 | 48658
7 | 10:48.59 | 2:06.26 | 48659 | 58134
8 | 12:55.10 | 1:34.45 | 58135 | 65229
9 | 14:29.55 | 2:27.11 | 65230 | 76265
10 | 16:56.66 | 1:40.42 | 76266 | 83807
11 | 18:37.33 | 3:06.51 | 83808 | 97808
12 | 21:44.09 | 3:04.23 | 97809 | 111631
13 | 24:48.32 | 2:25.16 | 111632 | 122522
14 | 27:13.48 | 3:18.41 | 122523 | 137413
15 | 30:32.14 | 2:20.55 | 137414 | 147968
16 | 32:52.69 | 3:48.05 | 147969 | 165073
17 | 36:40.74 | 1:09.16 | 165074 | 170264
18 | 37:50.15 | 1:23.31 | 170265 | 176520
19 | 39:13.46 | 1:55.40 | 176521 | 185185
20 | 41:09.11 | 3:42.15 | 185186 | 201850
21 | 44:51.26 | 2:43.04 | 201851 | 214079
22 | 47:34.30 | 3:07.39 | 214080 | 228143
23 | 50:41.69 | 3:49.73 | 228144 | 245391
24 | 54:31.67 | 2:34.09 | 245392 | 256950


Track 1

Filename M:\DL\Henri Crolla - Le long des rues (CD2) (2009) [FLAC]\01 - O Guitares.wav

Pre-gap length 0:00:02.00

Peak level 75.0 %
Track quality 100.0 %
Test CRC 49C93C63
Copy CRC 49C93C63
Accurately ripped (confidence 2) [7B2B200D]
Copy OK

Track 2

Filename M:\DL\Henri Crolla - Le long des rues (CD2) (2009) [FLAC]\02 - Porte de Choisy.wav

Peak level 72.8 %
Track quality 100.0 %
Test CRC 9DC47C94
Copy CRC 9DC47C94
Accurately ripped (confidence 2) [7DCCD18E]
Copy OK

Track 3

Filename M:\DL\Henri Crolla - Le long des rues (CD2) (2009) [FLAC]\03 - Serenade a une parisienne.wav

Peak level 37.6 %
Track quality 100.0 %
Test CRC 5B230A10
Copy CRC 5B230A10
Accurately ripped (confidence 2) [558B99BD]
Copy OK

Track 4

Filename M:\DL\Henri Crolla - Le long des rues (CD2) (2009) [FLAC]\04 - Gas-oil.wav

Peak level 75.1 %
Track quality 100.0 %
Test CRC A63A6A6F
Copy CRC A63A6A6F
Accurately ripped (confidence 2) [287B3C3B]
Copy OK

Track 5

Filename M:\DL\Henri Crolla - Le long des rues (CD2) (2009) [FLAC]\05 - Les deux plumes.wav

Peak level 71.4 %
Track quality 99.8 %
Test CRC 71A3A5C3
Copy CRC 71A3A5C3
Accurately ripped (confidence 2) [46D7B398]
Copy OK

Track 6

Filename M:\DL\Henri Crolla - Le long des rues (CD2) (2009) [FLAC]\06 - Improvisation.wav

Peak level 75.0 %
Track quality 100.0 %
Test CRC B89088DB
Copy CRC B89088DB
Accurately ripped (confidence 2) [648F6917]
Copy OK

Track 7

Filename M:\DL\Henri Crolla - Le long des rues (CD2) (2009) [FLAC]\07 - Mon chien.wav

Peak level 74.5 %
Track quality 100.0 %
Test CRC D1205FA1
Copy CRC D1205FA1
Accurately ripped (confidence 2) [75883876]
Copy OK

Track 8

Filename M:\DL\Henri Crolla - Le long des rues (CD2) (2009) [FLAC]\08 - Leon la Lune.wav

Peak level 81.5 %
Track quality 100.0 %
Test CRC 6425C60D
Copy CRC 6425C60D
Accurately ripped (confidence 2) [1BAB2C8F]
Copy OK

Track 9

Filename M:\DL\Henri Crolla - Le long des rues (CD2) (2009) [FLAC]\09 - Paradis.wav

Peak level 79.3 %
Track quality 100.0 %
Test CRC 4D8A6E94
Copy CRC 4D8A6E94
Accurately ripped (confidence 2) [4C714671]
Copy OK

Track 10

Filename M:\DL\Henri Crolla - Le long des rues (CD2) (2009) [FLAC]\10 - La chapelle.wav

Peak level 33.5 %
Track quality 100.0 %
Test CRC E0C90E6C
Copy CRC E0C90E6C
Accurately ripped (confidence 2) [3F3E9E6E]
Copy OK

Track 11

Filename M:\DL\Henri Crolla - Le long des rues (CD2) (2009) [FLAC]\11 - Saint Paul de Vence.wav

Peak level 79.5 %
Track quality 100.0 %
Test CRC 8A6556FC
Copy CRC 8A6556FC
Track not present in AccurateRip database
Copy OK

Track 12

Filename M:\DL\Henri Crolla - Le long des rues (CD2) (2009) [FLAC]\12 - Blues II.wav

Peak level 79.4 %
Track quality 99.9 %
Test CRC 1AFDA235
Copy CRC 1AFDA235
Track not present in AccurateRip database
Copy OK

Track 13

Filename M:\DL\Henri Crolla - Le long des rues (CD2) (2009) [FLAC]\13 - Improvisation II.wav

Peak level 81.8 %
Track quality 100.0 %
Test CRC CD55F6D9
Copy CRC CD55F6D9
Accurately ripped (confidence 2) [50180318]
Copy OK

Track 14

Filename M:\DL\Henri Crolla - Le long des rues (CD2) (2009) [FLAC]\14 - Saint-Tropez Blues.wav

Pre-gap length 0:00:02.45

Peak level 96.1 %
Track quality 99.9 %
Test CRC 14CCDFD8
Copy CRC 14CCDFD8
Accurately ripped (confidence 2) [EECD87AD]
Copy OK

Track 15

Filename M:\DL\Henri Crolla - Le long des rues (CD2) (2009) [FLAC]\15 - Tumbleweed.wav

Peak level 96.7 %
Track quality 100.0 %
Test CRC B9884F7C
Copy CRC B9884F7C
Accurately ripped (confidence 2) [EA84A9B9]
Copy OK

Track 16

Filename M:\DL\Henri Crolla - Le long des rues (CD2) (2009) [FLAC]\16 - Generique Le bonheur est pour demain.wav

Pre-gap length 0:00:02.54

Peak level 81.1 %
Track quality 100.0 %
Test CRC 7AE03168
Copy CRC 7AE03168
Accurately ripped (confidence 2) [25E937F5]
Copy OK

Track 17

Filename M:\DL\Henri Crolla - Le long des rues (CD2) (2009) [FLAC]\17 - Alain & Annie.wav

Peak level 73.6 %
Track quality 100.0 %
Test CRC EEFF93AA
Copy CRC EEFF93AA
Accurately ripped (confidence 2) [05EFD417]
Copy OK

Track 18

Filename M:\DL\Henri Crolla - Le long des rues (CD2) (2009) [FLAC]\18 - Fugue.wav

Peak level 65.4 %
Track quality 100.0 %
Test CRC 68F8BBAF
Copy CRC 68F8BBAF
Accurately ripped (confidence 2) [41F6B52F]
Copy OK

Track 19

Filename M:\DL\Henri Crolla - Le long des rues (CD2) (2009) [FLAC]\19 - Souvenir d'Henri.wav

Peak level 60.0 %
Track quality 99.9 %
Test CRC 0E7E2179
Copy CRC 0E7E2179
Accurately ripped (confidence 2) [EA717881]
Copy OK

Track 20

Filename M:\DL\Henri Crolla - Le long des rues (CD2) (2009) [FLAC]\20 - Loterie.wav

Pre-gap length 0:00:02.94

Peak level 75.8 %
Track quality 100.0 %
Test CRC BD91D560
Copy CRC BD91D560
Accurately ripped (confidence 2) [2D3A2F82]
Copy OK

Track 21

Filename M:\DL\Henri Crolla - Le long des rues (CD2) (2009) [FLAC]\21 - Usine.wav

Peak level 84.5 %
Track quality 99.9 %
Test CRC AC4ACCB6
Copy CRC AC4ACCB6
Accurately ripped (confidence 2) [5152092B]
Copy OK

Track 22

Filename M:\DL\Henri Crolla - Le long des rues (CD2) (2009) [FLAC]\22 - Voulez vous danser avec moi.wav

Peak level 80.1 %
Track quality 100.0 %
Test CRC 97B76BB2
Copy CRC 97B76BB2
Accurately ripped (confidence 2) [56BD76E1]
Copy OK

Track 23

Filename M:\DL\Henri Crolla - Le long des rues (CD2) (2009) [FLAC]\23 - Monsieur Petit Louis.wav

Peak level 98.0 %
Track quality 100.0 %
Test CRC 32182F49
Copy CRC 32182F49
Accurately ripped (confidence 2) [93FE86C7]
Copy OK

Track 24

Filename M:\DL\Henri Crolla - Le long des rues (CD2) (2009) [FLAC]\24 - Paris a le coeur tendre.wav

Peak level 92.6 %
Track quality 100.0 %
Test CRC 1211C705
Copy CRC 1211C705
Accurately ripped (confidence 2) [B5968AFA]
Copy OK


22 track(s) accurately ripped
2 track(s) not present in the AccurateRip database

Some tracks could not be verified as accurate

No errors occurred

End of status report

[CUETools log; Date: 28.07.2021 13:21:32; Version: 2.1.4]
[CTDB TOCID: J7_LbIsEUqYhMdug.Os_HqX601c-] found.
Track | CTDB Status
1 | (5/5) Accurately ripped
2 | (5/5) Accurately ripped
3 | (5/5) Accurately ripped
4 | (5/5) Accurately ripped
5 | (5/5) Accurately ripped
6 | (5/5) Accurately ripped
7 | (5/5) Accurately ripped
8 | (5/5) Accurately ripped
9 | (5/5) Accurately ripped
10 | (5/5) Accurately ripped
11 | (5/5) Accurately ripped
12 | (5/5) Accurately ripped
13 | (5/5) Accurately ripped
14 | (5/5) Accurately ripped
15 | (5/5) Accurately ripped
16 | (5/5) Accurately ripped
17 | (5/5) Accurately ripped
18 | (5/5) Accurately ripped
19 | (5/5) Accurately ripped
20 | (5/5) Accurately ripped
21 | (5/5) Accurately ripped
22 | (5/5) Accurately ripped
23 | (5/5) Accurately ripped
24 | (5/5) Accurately ripped
[AccurateRip ID: 002c57a2-03168bb3-490d6218] found.
Track [ CRC | V2 ] Status
01 [7b2b200d|30ae3862] (3+3/6) Accurately ripped
02 [7dccd18e|b78a8e11] (3+3/6) Accurately ripped
03 [558b99bd|519a9440] (3+3/6) Accurately ripped
04 [287b3c3b|97f8a6d6] (3+3/6) Accurately ripped
05 [46d7b398|7c38b636] (3+3/6) Accurately ripped
06 [648f6917|d0bf122b] (3+3/6) Accurately ripped
07 [75883876|3078e97e] (3+3/6) Accurately ripped
08 [1bab2c8f|635db128] (3+3/6) Accurately ripped
09 [4c714671|f5289eaa] (3+3/6) Accurately ripped
10 [3f3e9e6e|99f775eb] (3+3/6) Accurately ripped
11 [e03c2c1a|21eed796] (2+3/5) Accurately ripped
12 [8751e463|36530193] (2+3/5) Accurately ripped
13 [50180318|f12b3f6c] (3+3/6) Accurately ripped
14 [eecd87ad|70be29bd] (3+3/6) Accurately ripped
15 [ea84a9b9|d068ddc6] (3+3/6) Accurately ripped
16 [25e937f5|88f3744c] (3+3/6) Accurately ripped
17 [05efd417|1f2136d5] (3+3/6) Accurately ripped
18 [41f6b52f|c4b9c5df] (3+3/6) Accurately ripped
19 [ea717881|0f7fbcd9] (3+3/6) Accurately ripped
20 [2d3a2f82|147d9c8c] (3+3/6) Accurately ripped
21 [5152092b|4a8b62ea] (3+3/6) Accurately ripped
22 [56bd76e1|e9916cd0] (3+3/6) Accurately ripped
23 [93fe86c7|23a91a1f] (3+3/6) Accurately ripped
24 [b5968afa|4b554f91] (3+3/6) Accurately ripped

Track Peak [ CRC32 ] [W/O NULL] [ LOG ]
– 98,0 [72D256F2] [C7E277FF]
01 75,0 [49C93C63] [24967983] CRC32
02 72,8 [9DC47C94] [2F511F66] CRC32
03 37,6 [5B230A10] [A1FE88CB] CRC32
04 75,1 [A63A6A6F] [91A433BF] CRC32
05 71,4 [71A3A5C3] [BD4E0523] CRC32
06 75,0 [B89088DB] [65D9F357] CRC32
07 74,5 [D1205FA1] [431AD295] CRC32
08 81,5 [6425C60D] [F43EFE36] CRC32
09 79,3 [4D8A6E94] [C0C35944] CRC32
10 33,5 [E0C90E6C] [45FF6D16] CRC32
11 79,5 [8A6556FC] [2236C2DF] CRC32
12 79,4 [1AFDA235] [592E6AC5] CRC32
13 81,8 [CD55F6D9] [E953D781] CRC32
14 96,1 [14CCDFD8] [4B521AD2] CRC32
15 96,7 [B9884F7C] [7BF70254] CRC32
16 81,1 [7AE03168] [5ED7A7B9] CRC32
17 73,6 [EEFF93AA] [99224606] CRC32
18 65,4 [68F8BBAF] [B15AC1AB] CRC32
19 60,0 [0E7E2179] [F7F58D50] CRC32
20 75,8 [BD91D560] [4EAAB3D6] CRC32
21 84,5 [AC4ACCB6] [69C1619E] CRC32
22 80,1 [97B76BB2] [EBE4F700] CRC32
23 98,0 [32182F49] [DCB4A72B] CRC32
24 92,6 [1211C705] [1DCCFB26] CRC32

Thanks to the original releaser