Subcategories

Herbie Hancock - The Best Of (The Blue Note Years) (1988) Reissue 1995 [Repost, New Rip]

Posted By: Designol
Herbie Hancock - The Best Of (The Blue Note Years) (1988) Reissue 1995 [Repost, New Rip]

Herbie Hancock - The Best Of (The Blue Note Years) (1988) Reissue 1995
EAC | FLAC | Tracks (Cue&Log) ~ 396 Mb (incl 5%) | Mp3 (CBR320) ~ 161 Mb (incl 5%) | Scans included
Hard Bop, Post-Bop, Piano Jazz, Modal | Blue Note | # CDP 7 91142 2, 0777 7 91142 2 1 | 01:03:47

Mirroring his onetime boss and mentor Miles Davis' own protean output, Herbie Hancock has explored hard bop, soul-jazz, fusion, funk-rock, soundtracks, hip-hop-inflected pop ("Rockit"), and many permutations in between. His early work for Blue Note, though, offers the best entrée for newcomers. Compiled from five of his albums for the label and covering a period from 1962-1968, this fine sampler includes highlights from his debut, Takin' Off ("Watermelon Man"), the classic Maiden Voyage (the title track and "Dolphin Dance"), and the early electric album Speak Like a Child (the title track and "Riot"). Add to this more indelible cuts like "Cantaloupe Island" and "One Finger Snap," not to mention the presence of numerous '60s jazz luminaries (Dexter Gordon, Freddie Hubbard, Thad Jones, Hank Mobley, Billy Higgins, et al.), and you have perfect way to get a taste of some of the best modern jazz committed to wax.

Review by Stephen Cook, Allmusic.com

Herbie Hancock - The Best Of (The Blue Note Years) (1988) Reissue 1995 [Repost, New Rip]



Piano, Composed By - Herbie Hancock
Bass - Butch Warren (tracks: 1, 2), Chuck Israels (tracks: 9), Ron Carter (tracks: 3 to 8)
Drums - Tony Williams (tracks: 3 to 6, 9), Billy Higgins (tracks: 1, 2), Mickey Roker (tracks: 7, 8)
Tenor Saxophone - Dexter Gordon (tracks: 1, 2), George Coleman (tracks: 3, 4), Hank Mobley (tracks: 9)
Trumpet - Donald Byrd (tracks: 9)
Trumpet, Flugelhorn - Freddie Hubbard (tracks: 1 to 6)
Trombone - Grachan Moncur III (tracks: 9)
Trombone [Bass] - Peter Phillips (tracks: 7, 8)
Flugelhorn - Thad Jones (tracks: 7, 8)
Flute [Alto] - Jerry Dodgion (tracks: 7, 8)


Tracklist:

01. Watermelon Man (07:10)
02. Driftin' (07:01)
03. Maiden Voyage (07:58)
04. Dolphin Dance (09:19)
05. One Finger Snap (07:20)
06. Cantaloupe Island (05:34)
07. Riot (04:39)
08. Speak Like A Child (07:49)
09. King Cobra (06:53)


Exact Audio Copy V1.0 beta 4 from 7. December 2014

EAC extraction logfile from 25. September 2016, 23:46

Herbie Hancock / The Best Of (The Blue Note Years)

Used drive : TSSTcorpCDDVDW SH-224DB Adapter: 1 ID: 0

Read mode : Secure
Utilize accurate stream : Yes
Defeat audio cache : Yes
Make use of C2 pointers : No

Read offset correction : 6
Overread into Lead-In and Lead-Out : No
Fill up missing offset samples with silence : Yes
Delete leading and trailing silent blocks : No
Null samples used in CRC calculations : Yes
Used interface : Native Win32 interface for Win NT & 2000
Gap handling : Appended to previous track

Used output format : User Defined Encoder
Selected bitrate : 896 kBit/s
Quality : High
Add ID3 tag : No
Command line compressor : C:\Program Files\Exact Audio Copy\Flac\flac.exe
Additional command line options : -6 -V -T "ARTIST=%artist%" -T "TITLE=%title%" -T "ALBUM=%albumtitle%" -T "DATE=%year%" -T "TRACKNUMBER=%tracknr%" -T "GENRE=%genre%" -T "COMMENT=%comment%" %source% -o %dest%


TOC of the extracted CD

Track | Start | Length | Start sector | End sector
––––––––––––––––––––––––––––-
1 | 0:00.00 | 7:10.70 | 0 | 32319
2 | 7:10.70 | 7:01.02 | 32320 | 63896
3 | 14:11.72 | 7:58.25 | 63897 | 99771
4 | 22:10.22 | 9:19.70 | 99772 | 141766
5 | 31:30.17 | 7:20.35 | 141767 | 174801
6 | 38:50.52 | 5:34.13 | 174802 | 199864
7 | 44:24.65 | 4:39.27 | 199865 | 220816
8 | 49:04.17 | 7:49.00 | 220817 | 255991
9 | 56:53.17 | 6:53.63 | 255992 | 287029


Track 1

Filename C:\New Folder\01 - Watermelon Man.wav

Pre-gap length 0:00:02.00

Peak level 98.8 %
Extraction speed 2.0 X
Track quality 99.9 %
Test CRC 89621B6B
Copy CRC 89621B6B
Accurately ripped (confidence 9) [9B591CB6] (AR v2)
Copy OK

Track 2

Filename C:\New Folder\02 - Driftin'.wav

Pre-gap length 0:00:01.30

Peak level 100.0 %
Extraction speed 2.5 X
Track quality 100.0 %
Test CRC A670D751
Copy CRC A670D751
Accurately ripped (confidence 10) [331A834F] (AR v2)
Copy OK

Track 3

Filename C:\New Folder\03 - Maiden Voyage.wav

Pre-gap length 0:00:02.62

Peak level 89.0 %
Extraction speed 2.8 X
Track quality 100.0 %
Test CRC A69BBED9
Copy CRC A69BBED9
Accurately ripped (confidence 10) [2D79EE17] (AR v2)
Copy OK

Track 4

Filename C:\New Folder\04 - Dolphin Dance.wav

Pre-gap length 0:00:02.05

Peak level 93.3 %
Extraction speed 3.2 X
Track quality 100.0 %
Test CRC D0142383
Copy CRC D0142383
Accurately ripped (confidence 9) [35F99F5B] (AR v2)
Copy OK

Track 5

Filename C:\New Folder\05 - One Finger Snap.wav

Pre-gap length 0:00:00.65

Peak level 100.0 %
Extraction speed 3.4 X
Track quality 100.0 %
Test CRC FB053982
Copy CRC FB053982
Accurately ripped (confidence 9) [68FB7835] (AR v2)
Copy OK

Track 6

Filename C:\New Folder\06 - Cantaloupe Island.wav

Pre-gap length 0:00:01.60

Peak level 94.5 %
Extraction speed 3.5 X
Track quality 100.0 %
Test CRC ABB4C1C6
Copy CRC ABB4C1C6
Accurately ripped (confidence 8) [6F9A1284] (AR v2)
Copy OK

Track 7

Filename C:\New Folder\07 - Riot.wav

Pre-gap length 0:00:02.28

Peak level 96.9 %
Extraction speed 3.5 X
Track quality 100.0 %
Test CRC F5A2C379
Copy CRC F5A2C379
Accurately ripped (confidence 8) [F125BCD7] (AR v2)
Copy OK

Track 8

Filename C:\New Folder\08 - Speak Like A Child.wav

Pre-gap length 0:00:02.22

Peak level 93.3 %
Extraction speed 3.9 X
Track quality 100.0 %
Test CRC 87A1E2DD
Copy CRC 87A1E2DD
Accurately ripped (confidence 7) [E863EE23] (AR v2)
Copy OK

Track 9

Filename C:\New Folder\09 - King Cobra.wav

Pre-gap length 0:00:02.00

Peak level 97.4 %
Extraction speed 4.0 X
Track quality 100.0 %
Test CRC 704058FE
Copy CRC 704058FE
Accurately ripped (confidence 7) [26E4998C] (AR v2)
Copy OK


All tracks accurately ripped

No errors occurred

End of status report

–– CUETools DB Plugin V2.1.4

[CTDB TOCID: yn3OPlWvm3TptumH2mSie999a.k-] found
Submit result: yn3OPlWvm3TptumH2mSie999a.k- has been confirmed
Track | CTDB Status
1 | (26/37) Accurately ripped
2 | (28/37) Accurately ripped
3 | (28/37) Accurately ripped
4 | (29/37) Accurately ripped
5 | (27/37) Accurately ripped
6 | (27/37) Accurately ripped
7 | (29/37) Accurately ripped
8 | (29/37) Accurately ripped
9 | (28/37) Accurately ripped


==== Log checksum 1119023E07666E6D9136783D063762C4EA5A57675A9B05887397F8528DA5E951 ====

foobar2000 1.2 / Dynamic Range Meter 1.1.1
log date: 2016-11-13 19:39:03

––––––––––––––––––––––––––––––––––––––––
Analyzed: Herbie Hancock / The Best Of (The Blue Note Years)
––––––––––––––––––––––––––––––––––––––––

DR Peak RMS Duration Track
––––––––––––––––––––––––––––––––––––––––
DR14 -0.10 dB -19.18 dB 7:11 01-Watermelon Man
DR14 0.00 dB -17.12 dB 7:01 02-Driftin'
DR14 -1.01 dB -20.53 dB 7:58 03-Maiden Voyage
DR16 -0.59 dB -21.18 dB 9:20 04-Dolphin Dance
DR14 0.00 dB -17.83 dB 7:20 05-One Finger Snap
DR14 -0.49 dB -18.77 dB 5:34 06-Cantaloupe Island
DR13 -0.27 dB -18.35 dB 4:39 07-Riot
DR13 -0.60 dB -15.92 dB 7:49 08-Speak Like A Child
DR14 -0.22 dB -17.62 dB 6:54 09-King Cobra
––––––––––––––––––––––––––––––––––––––––

Number of tracks: 9
Official DR value: DR14

Samplerate: 44100 Hz
Channels: 2
Bits per sample: 16
Bitrate: 894 kbps
Codec: FLAC
================================================================================

Herbie Hancock - The Best Of (The Blue Note Years) (1988) Reissue 1995 [Repost, New Rip]

Herbie Hancock - The Best Of (The Blue Note Years) (1988) Reissue 1995 [Repost, New Rip]