Tags
Language
Tags

Howlin' Wolf - The Real Folk Blues (1966) + More Real Folk Blues (1967) 2 LP on 1 CD, Remastered 2002

Posted By: Designol
Howlin' Wolf - The Real Folk Blues (1966) + More Real Folk Blues (1967) 2 LP on 1 CD, Remastered 2002

Howlin' Wolf - The Real Folk Blues (1966) + More Real Folk Blues (1967) [2 LP on 1 CD, 2002]
EAC | FLAC | Image (Cue&Log) ~ 299 | Mp3 (CBR320) ~ 171 Mb | Scans included
Label: MCA/Chess | # 088 112 820-2 | Time: 01:06:43
Genre: Chicago Blues, Electric Blues

The Real Folk Blues series on Chess wasn't really folk, but titled that way, perhaps to gain the attention of young white listeners who had started to get turned on to the blues during the 1960s folk revival. And the Howlin' Wolf volumes in the series were not particularly more folk-oriented than his other Chess recordings, but more or less arbitrary selections of tracks that he'd done from the mid-'50s to the mid-'60s. It's thus also arbitrary to do a two-fer reissue of his The Real Folk Blues and More Real Folk Blues, combined here onto a single disc. That doesn't mean, though, that this isn't very good and sometimes great electric blues music. The Real Folk Blues, with tracks from 1956 to 1965, is by far the more modern of the pair in arrangements, and has a good share of classics: "Killing Floor," "Sittin' on Top of the World," "Built for Comfort," "Tail Dragger," and "Three Hundred Pounds of Joy." There were some lesser-known cuts on that record as well, never less than good and sometimes very good, like the blues-folk staple "Louise" and the driving "Poor Boy," as well as a couple brassy 1965 recordings with both Hubert Sumlin and Buddy Guy on guitars. More Real Folk Blues, in contrast, consists entirely of 1953-1955 recordings, which are considerably more lo-fi and not as stuffed with high-class memorable material. Yet these are fine raw 1950s electric blues, and occasionally superb, as on the well-known "No Place to Go" and the propulsive "Just My Kind." You might already have some or many of the 24 tracks if you have a bunch of other Howlin' Wolf collections. But a lot of these, particularly from More Real Folk Blues, don't show up on the standard best-of anthologies, so more likely than not if you only have one or two Howlin' Wolf anthologies and want more, this is a pretty good one to get.

Review by Richie Unterberger, Allmusic.com

Howlin' Wolf - The Real Folk Blues (1966) + More Real Folk Blues (1967) 2 LP on 1 CD, Remastered 2002



Tracklist:

The Real Folk Blues (1966):

01. Killing Floor (02:50)
02. Louise (02:45)
03. Poor Boy (02:35)
04. Sittin' On Top Of The World (02:33)
05. Nature (02:47)
06. My Country Sugar Mama (02:38)
07. Tail Dragger (02:58)
08. Three Hundred Pounds Of Joy (03:06)
09. The Natchez Burnin' (02:11)
10. Built For Comfort (02:39)
11. Ooh Baby, Hold Me (02:41)
12. Tell Me What I've Done (02:50)

More Real Folk Blues (1967):

13. Just My Kind (02:51)
14. I've Got A Woman (02:55)
15. Work For Your Money (02:12)
16. I'll Be Around (03:13)
17. You Can't Be Beat (03:10)
18. No Place To Go (You Gonna Wreck My Life) (02:56)
19. I Love My Baby (02:57)
20. Neighbors (02:45)
21. I'm The Wolf (02:52)
22. Rockin' Daddy (03:02)
23. Who Will Be Next (02:34)
24. I Have A Little Girl (02:33)


Exact Audio Copy V0.99 prebeta 4 from 23. January 2008

Отчёт EAC об извлечении, выполненном 14. сентября 2010, 23:52

Howlin' Wolf / The Real Folk Blues/More Real Folk Blues

Дисковод: PIONEER DVD-RW DVR-110D Adapter: 1 ID: 1

Режим чтения : Достоверность
Использование точного потока : Да
Отключение кэша аудио : Да
Использование указателей C2 : Нет

Коррекция смещения при чтении : 48
Способность читать области Lead-in и Lead-out : Нет
Заполнение пропущенных сэмплов тишиной : Да
Удаление блоков с тишиной в начале и конце : Нет
При вычислениях CRC использовались нулевые сэмплы : Да
Интерфейс : Встроенный Win32-интерфейс для Win NT/2000

Выходной формат : Пользовательский кодировщик
Выбранный битрейт : 896 kBit/s
Качество : Высокий
Добавление ID3-тэга : Нет
Утилита сжатия : C:\Program Files\Exact Audio Copy\FLAC\FLAC.EXE
Дополнительные параметры : -6 -V -T "ARTIST=%a" -T "TITLE=%t" -T "ALBUM=%g" -T "DATE=%y" -T "TRACKNUMBER=%n" -T "GENRE=%m" -T "COMMENT=%e" %s -o %d


TOC извлечённого CD

Трек | Старт | Длительность | Начальный сектор | Конечный сектор
––––––––––––––––––––––––––––––––––-
1 | 0:00.00 | 2:50.60 | 0 | 12809
2 | 2:50.60 | 2:45.35 | 12810 | 25219
3 | 5:36.20 | 2:35.00 | 25220 | 36844
4 | 8:11.20 | 2:33.65 | 36845 | 48384
5 | 10:45.10 | 2:47.32 | 48385 | 60941
6 | 13:32.42 | 2:38.15 | 60942 | 72806
7 | 16:10.57 | 2:58.20 | 72807 | 86176
8 | 19:09.02 | 3:06.48 | 86177 | 100174
9 | 22:15.50 | 2:11.20 | 100175 | 110019
10 | 24:26.70 | 2:39.62 | 110020 | 122006
11 | 27:06.57 | 2:41.03 | 122007 | 134084
12 | 29:47.60 | 2:50.27 | 134085 | 146861
13 | 32:38.12 | 2:51.38 | 146862 | 159724
14 | 35:29.50 | 2:55.20 | 159725 | 172869
15 | 38:24.70 | 2:12.35 | 172870 | 182804
16 | 40:37.30 | 3:13.70 | 182805 | 197349
17 | 43:51.25 | 3:10.17 | 197350 | 211616
18 | 47:01.42 | 2:56.05 | 211617 | 224821
19 | 49:57.47 | 2:57.30 | 224822 | 238126
20 | 52:55.02 | 2:45.33 | 238127 | 250534
21 | 55:40.35 | 2:52.15 | 250535 | 263449
22 | 58:32.50 | 3:02.40 | 263450 | 277139
23 | 61:35.15 | 2:34.07 | 277140 | 288696
24 | 64:09.22 | 2:33.68 | 288697 | 300239


Характеристики диапазона извлечения и сообщения об ошибках

Выбранный диапазон

Имя файла G:\Torrents\Howlin' Wolf - The Real Folk Blues_More Real Folk Blues\Howlin' Wolf - The Real Folk Blues More Real Folk Blues.wav

Пиковый уровень 99.9 %
Качество диапазона 100.0 %
CRC теста 608DD650
CRC копии 608DD650
Копирование… OK

Ошибок не произошло


AccurateRip: сводка

Трек 1 точное извлечение (доверие 6) [4726F403]
Трек 2 точное извлечение (доверие 6) [FFD58856]
Трек 3 точное извлечение (доверие 6) [CEAAEF56]
Трек 4 точное извлечение (доверие 6) [4CF3E15A]
Трек 5 точное извлечение (доверие 6) [68602254]
Трек 6 точное извлечение (доверие 6) [3A864DB6]
Трек 7 точное извлечение (доверие 6) [D3321C91]
Трек 8 точное извлечение (доверие 6) [35E45281]
Трек 9 точное извлечение (доверие 6) [C3DEAB2D]
Трек 10 точное извлечение (доверие 6) [7D0BD9D0]
Трек 11 точное извлечение (доверие 6) [BE70D9D9]
Трек 12 точное извлечение (доверие 6) [062B62A4]
Трек 13 точное извлечение (доверие 6) [E53F36EE]
Трек 14 точное извлечение (доверие 6) [8ED925D5]
Трек 15 точное извлечение (доверие 6) [19540790]
Трек 16 точное извлечение (доверие 6) [05654E8E]
Трек 17 точное извлечение (доверие 6) [5EA2B434]
Трек 18 точное извлечение (доверие 6) [67707FFF]
Трек 19 точное извлечение (доверие 6) [B6ECFEDC]
Трек 20 точное извлечение (доверие 6) [04C38331]
Трек 21 точное извлечение (доверие 6) [18DC1DC2]
Трек 22 точное извлечение (доверие 6) [2F92AC8E]
Трек 23 точное извлечение (доверие 6) [8FBCDC86]
Трек 24 точное извлечение (доверие 6) [4B67DFC8]

Все треки извлечены точно

Конец отчёта

foobar2000 1.2 / Dynamic Range Meter 1.1.1
log date: 2016-02-10 20:11:03

––––––––––––––––––––––––––––––––––––––––
Analyzed: Howlin' Wolf / The Real Folk Blues/More Real Folk Blues
––––––––––––––––––––––––––––––––––––––––

DR Peak RMS Duration Track
––––––––––––––––––––––––––––––––––––––––
DR9 0.00 dB -11.18 dB 2:51 01-Killing Floor
DR7 -0.01 dB -9.15 dB 2:45 02-Louise
DR9 -0.08 dB -11.38 dB 2:35 03-Poor Boy
DR10 -0.04 dB -12.08 dB 2:34 04-Sittin' On Top Of The World
DR9 -0.01 dB -11.14 dB 2:47 05-Nature
DR6 -0.01 dB -8.56 dB 2:38 06-My Country Sugar Mama
DR9 -0.09 dB -10.78 dB 2:58 07-Tail Dragger
DR8 -0.01 dB -10.12 dB 3:07 08-Three Hundred Pounds Of Joy
DR9 -0.09 dB -12.09 dB 2:11 09-The Natchez Burnin'
DR8 -0.09 dB -9.59 dB 2:40 10-Built For Comfort
DR10 -0.01 dB -10.86 dB 2:41 11-Ooh Baby, Hold Me
DR11 -0.01 dB -12.84 dB 2:50 12-Tell Me What I've Done
DR6 -0.05 dB -8.43 dB 2:52 13-Just My Kind
DR8 -0.09 dB -9.65 dB 2:55 14-I've Got A Woman
DR9 -0.05 dB -11.39 dB 2:12 15-Work For Your Money
DR8 -0.01 dB -10.41 dB 3:14 16-I'll Be Around
DR10 -0.08 dB -12.09 dB 3:10 17-You Can't Be Beat
DR7 -0.01 dB -8.99 dB 2:56 18-No Place To Go (You Gonna Wreck My Life)
DR9 -0.40 dB -11.80 dB 2:57 19-I Love My Baby
DR8 -0.01 dB -9.26 dB 2:45 20-Neighbors
DR8 -0.01 dB -10.41 dB 2:52 21-I'm The Wolf
DR9 -0.01 dB -10.71 dB 3:03 22-Rockin' Daddy
DR11 -0.08 dB -13.06 dB 2:34 23-Who Will Be Next
DR8 -0.01 dB -10.16 dB 2:34 24-I Have A Little Girl
––––––––––––––––––––––––––––––––––––––––

Number of tracks: 24
Official DR value: DR9

Samplerate: 44100 Hz
Channels: 2
Bits per sample: 16
Bitrate: 551 kbps
Codec: FLAC
================================================================================

Howlin' Wolf - The Real Folk Blues (1966) + More Real Folk Blues (1967) 2 LP on 1 CD, Remastered 2002

Howlin' Wolf - The Real Folk Blues (1966) + More Real Folk Blues (1967) 2 LP on 1 CD, Remastered 2002

All thanks to original releaser - zhconst

More interesting music in My Blog