Tags
Language
Tags

Impellitteri - The Nature Of The Beast (2018) [Japanese Ltd. Ed.] CD+DVD

Posted By: Andi_Deris
Impellitteri - The Nature Of The Beast (2018) [Japanese Ltd. Ed.] CD+DVD

Impellitteri - The Nature Of The Beast (2018) [Japanese Ltd. Ed.] CD+DVD
EAC Rip | FLAC: Image+Cue+Log | 396 Mb | MP3 CBR 320 kbps | 116 Mb | Scans | 90 Mb | Time: 50:53
DVD5 | Video: NTSC 16:9 (720x480) | Audio: LinearPCM, 2 ch | 1.47 Gb | Time: 21:38
Victor Entertainment Corp. | VIZP-158
Heavy Metal, Neo-Classical Speed Metal, Shred

The IMPELLITTERI band create a mind blowing, highly energetic, and thrilling new musical adventure with “THE NATURE OF THE BEAST”. The band is on fire with their musical acrobatics, addictive riffs, shredding guitar solos, speed metal drumming, bad ass bass playing, and vocals reminiscent of DIO, Dickinson, Pavarotti, and Halford in their prime, all embedded in great songs! This edition includes a bonus DVD with music video(s).

Impellitteri delivers exactly what they always have: mind blowing, highly energetic, powerful metal. Great melodies have always been their strong feature, as well as classical influenced guitar solos, operatic vocals, and anthem style choruses.

Highly energetic & musically thrilling 2018 album drawing inspiration from classic horror tales & movies.

Impellitteri - The Nature Of The Beast (2018) [Japanese Ltd. Ed.] CD+DVD




CD

01. Hypocrisy (03:06)
02. Masquerade (03:34)
03. Run For Your Life (03:33)
04. Phantom Of The Opera (Andrew Lloyd Webber cover) (04:11)
05. Gates Of Hell (03:33)
06. Wonder World (03:54)
07. Man Of War (05:05)
08. Symptom Of The Universe (Black Sabbath cover) (05:23)
09. Do You Think I'm Mad (05:51)
10. Fire It Up (03:19)
11. Kill The Beast (06:05)
12. Shine On (Bonus Track) (03:18)

DVD

01. Wicked Maiden
02. Last Of A Dying Breed
03. Venom
04. Empires Of Lies
05. We Are The Enemy
06. Face The Enemy

Impellitteri - The Nature Of The Beast (2018) [Japanese Ltd. Ed.] CD+DVD

Impellitteri - The Nature Of The Beast (2018) [Japanese Ltd. Ed.] CD+DVD
Impellitteri - The Nature Of The Beast (2018) [Japanese Ltd. Ed.] CD+DVD
Impellitteri - The Nature Of The Beast (2018) [Japanese Ltd. Ed.] CD+DVD
Impellitteri - The Nature Of The Beast (2018) [Japanese Ltd. Ed.] CD+DVD
Impellitteri - The Nature Of The Beast (2018) [Japanese Ltd. Ed.] CD+DVD


Produced by Impellitteri & Greg Reely

The Band

• Chris Impellitteri - Lead Guitar
• Rob Rock - Vocals
• James Amelio Pulli - Bass
• Jon Dette (Testament, Anthrax, Slayer) - Drums, Percussion
• Phil T - Drums, Percussion

*****
• Ed Roth - Keyboards (track 4)

Exact Audio Copy V1.3 from 2. September 2016

EAC extraction logfile from 10. October 2018, 14:28

Impellitteri / The Nature Of The Beast (Japan)

Used drive : ATAPI iHAS122 W Adapter: 2 ID: 0

Read mode : Secure
Utilize accurate stream : Yes
Defeat audio cache : Yes
Make use of C2 pointers : No

Read offset correction : 48
Overread into Lead-In and Lead-Out : No
Fill up missing offset samples with silence : Yes
Delete leading and trailing silent blocks : No
Null samples used in CRC calculations : Yes
Used interface : Installed external ASPI interface

Used output format : User Defined Encoder
Selected bitrate : 1024 kBit/s
Quality : High
Add ID3 tag : No
Command line compressor : C:\Program Files\FLAC\flac.exe
Additional command line options : -V -8 -T "Date=%year%" -T "Genre=%genre%" -T"COMMENT=Ripped by Ilijan" -8 -V %source%


TOC of the extracted CD

Track | Start | Length | Start sector | End sector
––––––––––––––––––––––––––––-
1 | 0:00.00 | 3:05.67 | 0 | 13941
2 | 3:05.67 | 3:33.58 | 13942 | 29974
3 | 6:39.50 | 3:33.20 | 29975 | 45969
4 | 10:12.70 | 4:11.19 | 45970 | 64813
5 | 14:24.14 | 3:32.58 | 64814 | 80771
6 | 17:56.72 | 3:53.54 | 80772 | 98300
7 | 21:50.51 | 5:05.09 | 98301 | 121184
8 | 26:55.60 | 5:22.44 | 121185 | 145378
9 | 32:18.29 | 5:51.22 | 145379 | 171725
10 | 38:09.51 | 3:18.60 | 171726 | 186635
11 | 41:28.36 | 6:05.25 | 186636 | 214035
12 | 47:33.61 | 3:18.17 | 214036 | 228902


Range status and errors

Selected range

Filename D:\Impellitteri - The Nature Of The Beast (Japan).wav

Peak level 100.0 %
Extraction speed 3.8 X
Range quality 100.0 %
Test CRC A5D0328C
Copy CRC A5D0328C
Copy OK

No errors occurred


AccurateRip summary

Track 1 not present in database
Track 2 not present in database
Track 3 not present in database
Track 4 not present in database
Track 5 not present in database
Track 6 not present in database
Track 7 not present in database
Track 8 not present in database
Track 9 not present in database
Track 10 not present in database
Track 11 not present in database
Track 12 not present in database

None of the tracks are present in the AccurateRip database

End of status report

–– CUETools DB Plugin V2.1.6

[CTDB TOCID: KCsA7wurxGdhD2gSxVsBnl9dv0M-] found
Submit result: KCsA7wurxGdhD2gSxVsBnl9dv0M- has been confirmed
Track | CTDB Status
1 | (12/12) Accurately ripped
2 | (12/12) Accurately ripped
3 | (12/12) Accurately ripped
4 | (12/12) Accurately ripped
5 | (12/12) Accurately ripped
6 | (12/12) Accurately ripped
7 | (12/12) Accurately ripped
8 | (12/12) Accurately ripped
9 | (12/12) Accurately ripped
10 | (12/12) Accurately ripped
11 | (12/12) Accurately ripped
12 | (12/12) Accurately ripped


==== Log checksum 19E0D00180561A15F14F88194D9DA2A17925BD178C543016B84DF836273D5911 ====

Size: 1.45 Gb ( 1 525 526,00 KBytes ) - DVD-5
Enabled regions: 1, 2, 3, 4, 5, 6, 7, 8

VTS_01 :
Play Length: 00:21:38
Video: NTSC 16:9 (720x480) VBR, Auto Letterboxed
Audio:
English (LinearPCM, 2 ch)

* Menus Information *

VIDEO_TS Menu
Video:
NTSC 4:3 (720x480) VBR
Auto Pan&Scan, Auto Letterboxed
Japanese Language Unit :
Title Menu

VTS_01 Menu
Video:
NTSC 16:9 (720x480) VBR
Auto Letterboxed
Japanese Language Unit :
Root Menu
Chapter (PTT) Menu


Many thanks to the original uploader: Ilijan





Password: pass