Subcategories

Irakere - From Havana With Love (1978)

Posted By: tiburon
Irakere - From Havana With Love (1978)

Irakere - From Havana With Love (1978)
EAC 0.99pb4 | FLAC Image level 8 | Cue+Log | Scans 300dpi | 237MB + 5% Recovery
MP3 CBR 320 Kbps | 96MB + 5% Recovery
Genre: Latin Jazz

If there would be a list of afro-cuban orchestras then it would start with the 1973 founded “institution” Irakere. What makes this recording a highlight of the many releases of the band is the tracklisting – from Scott Joplins“Ragtime” over Mozarts “Adagio” right up to Chucho Valdes’s “Misa Negra” – it reads like the Who’s Who in music history.
Track List
01. Ella 6:25
02. En Nosotros 7:53
03. Misa Negra 16:06
04. Despues Medianoche 10:43

musicians
Paquito D'Rivera - bariton sax, flute
Arturo Sandoval - trumpet
Chucho Valdes - piano
Karlos Averoe - tenor sax
Jorge Vakona - trumpet
Karlos Puerto - bass
Enrique Pla - drums
Oscar Valdes - vocals, percussion
Armando Queruo - vocals, percussion
Jorge Alfonso - percussion

Recorded live in Belgrade, November 4, 1978


Exact Audio Copy V0.99 prebeta 4 from 23. January 2008

EAC extraction logfile from 2. February 2009, 23:48

Irakere / From Havana With Love

Used drive : PIONEER DVD-RW DVR-115D Adapter: 0 ID: 1

Read mode : Secure
Utilize accurate stream : Yes
Defeat audio cache : Yes
Make use of C2 pointers : No

Read offset correction : 48
Overread into Lead-In and Lead-Out : No
Fill up missing offset samples with silence : Yes
Delete leading and trailing silent blocks : No
Null samples used in CRC calculations : Yes
Used interface : Installed external ASPI interface

Used output format : User Defined Encoder
Selected bitrate : 1024 kBit/s
Quality : High
Add ID3 tag : No
Command line compressor : H:\Program Files\Exact Audio Copy\Flac\flac.exe
Additional command line options : -8 -V -T "ARTIST=%a" -T "TITLE=%t" -T "ALBUM=%g" -T "DATE=%y" -T "TRACKNUMBER=%n" -T "GENRE=%m" -T "COMMENT=EAC FLAC -8" %s


TOC of the extracted CD

Track | Start | Length | Start sector | End sector
––––––––––––––––––––––––––––-
1 | 0:00.00 | 6:25.00 | 0 | 28874
2 | 6:25.00 | 7:53.57 | 28875 | 64406
3 | 14:18.57 | 16:06.55 | 64407 | 136911
4 | 30:25.37 | 10:44.00 | 136912 | 185211


Range status and errors

Selected range

Filename D:\temp\music\Irakere - From Havana With Love.wav

Peak level 100.0 %
Range quality 100.0 %
Copy CRC 03EC6F4A
Copy OK

No errors occurred

End of status report


––––––––––––––––––––––––––––––––––––––––
Analyzed: Irakere / From Havana With Love
––––––––––––––––––––––––––––––––––––––––

DR Peak RMS Duration Track
––––––––––––––––––––––––––––––––––––––––
DR15 -0.98 dB -19.34 dB 6:25 01-Ella
DR16 -0.18 dB -21.49 dB 7:54 02-En Nosotros
DR15 0.00 dB -18.97 dB 16:07 03-Misa Negra
DR16 0.00 dB -19.50 dB 10:44 04-Despues Medianoche
––––––––––––––––––––––––––––––––––––––––

Number of tracks: 4
Official DR value: DR15

Samplerate: 44100 Hz
Channels: 2
Bits per sample: 16
Bitrate: 801 kbps
Codec: FLAC
================================================================================

Irakere - From Havana With Love (1978)
Irakere - From Havana With Love (1978)


Thanks to the original ripper