Tags
Language
Tags

VA: Islands Records Presents. Roots - 37 Essential Roots Anthems (2013)

Posted By: v3122
VA: Islands Records Presents. Roots - 37 Essential Roots Anthems (2013)

VA: Islands Records Presents. Roots - 37 Essential Roots Anthems (2013)
EAC | Flac(Image) + Cue + Log & MP3 CBR 320Kbps
2CD | Spectrum Music, SPECXX2102 | ~ 911 or 367 Mb | Scans(jpg, 600dpi) -> 60 Mb
Roots Reggae / Dub / Ska

Island Presents Roots collects 37 of the best-loved and most sought-after Roots sides of the mid-to-late seventies, all of which first saw issue outside Jamaica on Blackwell’s famed imprint. Aside from major hits are ten tracks making their CD debut, including the long lost original version of Althea & Donna’s, ‘Uptown Top Ranking’!

~ amazon
VA: Islands Records Presents. Roots - 37 Essential Roots Anthems (2013):

VA: Islands Records Presents. Roots - 37 Essential Roots Anthems (2013)

Tracklist CD1:

01. Marcus Garvey - 3:23
02. Tired Fe Lick Weed In A Bush - 3:07
03. Freedom Song - 3:41
04. None A Jah Jah Children (No Cry) - 3:17
05. Old Marcus Garvey - 4:06
06. Going Back To Ethiopia - 3:22
07. One Step Forward - 3:37
08. Police & Thieves - 3:55
09. Soldier And Police War - 4:11
10. Three In One - 3:39
11. Fire (Is A Desire) - 3:38
12. Lion - 3:12
13. Tedious - 4:44
14. Natty B.Sc. - 3:28
15. Congo Man - 6:19
16. Africa - 3:20
17. 96 Degrees In The Shade - 3:45
18. Rastaman Shuffle - 7:47
19. Uptown Top Ranking - 3:14
20. Real Ranking - 3:14

Exact Audio Copy V1.0 beta 3 from 29. August 2011

EAC extraction logfile from 26. February 2014, 6:13

Various Artists / Islands Records Presents: Roots CD1

Used drive : ATAPI iHAS124 B Adapter: 1 ID: 0

Read mode : Secure
Utilize accurate stream : Yes
Defeat audio cache : Yes
Make use of C2 pointers : No

Read offset correction : 6
Overread into Lead-In and Lead-Out : No
Fill up missing offset samples with silence : Yes
Delete leading and trailing silent blocks : No
Null samples used in CRC calculations : Yes
Used interface : Installed external ASPI interface

Used output format : User Defined Encoder
Selected bitrate : 128 kBit/s
Quality : High
Add ID3 tag : Yes
Command line compressor : C:\Program Files (x86)\Exact Audio Copy\Flac\flac.exe
Additional command line options : -V -8 %source%


TOC of the extracted CD

Track | Start | Length | Start sector | End sector
––––––––––––––––––––––––––––-
1 | 0:00.00 | 3:22.67 | 0 | 15216
2 | 3:22.67 | 3:07.32 | 15217 | 29273
3 | 6:30.24 | 3:40.61 | 29274 | 45834
4 | 10:11.10 | 3:17.27 | 45835 | 60636
5 | 13:28.37 | 4:05.72 | 60637 | 79083
6 | 17:34.34 | 3:21.66 | 79084 | 94224
7 | 20:56.25 | 3:37.20 | 94225 | 110519
8 | 24:33.45 | 3:54.44 | 110520 | 128113
9 | 28:28.14 | 4:10.53 | 128114 | 146916
10 | 32:38.67 | 3:39.11 | 146917 | 163352
11 | 36:18.03 | 3:37.50 | 163353 | 179677
12 | 39:55.53 | 3:11.71 | 179678 | 194073
13 | 43:07.49 | 4:44.12 | 194074 | 215385
14 | 47:51.61 | 3:28.26 | 215386 | 231011
15 | 51:20.12 | 6:18.55 | 231012 | 259416
16 | 57:38.67 | 3:20.28 | 259417 | 274444
17 | 60:59.20 | 3:44.59 | 274445 | 291303
18 | 64:44.04 | 7:46.57 | 291304 | 326310
19 | 72:30.61 | 3:13.53 | 326311 | 340838
20 | 75:44.39 | 3:14.35 | 340839 | 355423


Range status and errors

Selected range

Filename G:\CD\Various Artists - Islands Records Presents. Roots CD1.wav

Peak level 91.8 %
Extraction speed 9.5 X
Range quality 99.9 %
Test CRC A1A06E45
Copy CRC A1A06E45
Copy OK

No errors occurred


AccurateRip summary

Track 1 not present in database
Track 2 not present in database
Track 3 not present in database
Track 4 not present in database
Track 5 not present in database
Track 6 not present in database
Track 7 not present in database
Track 8 not present in database
Track 9 not present in database
Track 10 not present in database
Track 11 not present in database
Track 12 not present in database
Track 13 not present in database
Track 14 not present in database
Track 15 not present in database
Track 16 not present in database
Track 17 not present in database
Track 18 not present in database
Track 19 not present in database
Track 20 not present in database

None of the tracks are present in the AccurateRip database

End of status report

foobar2000 1.2.9 / Dynamic Range Meter 1.1.1
log date: 2014-03-01 22:23:56

––––––––––––––––––––––––––––––––––––––––
Analyzed: Burning Spear / Islands Records Presents: Roots CD1 (1-3)
Dillinger / Islands Records Presents: Roots CD1 (4)
––––––––––––––––––––––––––––––––––––––––

DR Peak RMS Duration Track
––––––––––––––––––––––––––––––––––––––––
DR11 -2.01 dB -14.47 dB 3:23 01-Marcus Garvey
DR12 -0.74 dB -15.11 dB 4:06 05-Old Marcus Garvey
DR12 -1.11 dB -15.16 dB 3:12 12-Lion
DR11 -2.16 dB -14.04 dB 3:28 14-Natty B.Sc.
––––––––––––––––––––––––––––––––––––––––

Number of tracks: 4
Official DR value: DR11

Samplerate: 44100 Hz
Channels: 2
Bits per sample: 16
Bitrate: 780 kbps
Codec: FLAC
================================================================================

––––––––––––––––––––––––––––––––––––––––
Analyzed: Inner Circle / Islands Records Presents: Roots CD1 (1)
Jah Lion / Islands Records Presents: Roots CD1 (2)
––––––––––––––––––––––––––––––––––––––––

DR Peak RMS Duration Track
––––––––––––––––––––––––––––––––––––––––
DR12 -1.07 dB -14.29 dB 3:07 02-Tired Fe Lick Weed In A Bush
DR12 -1.54 dB -16.01 dB 4:11 09-Soldier And Police War
––––––––––––––––––––––––––––––––––––––––

Number of tracks: 2
Official DR value: DR12

Samplerate: 44100 Hz
Channels: 2
Bits per sample: 16
Bitrate: 780 kbps
Codec: FLAC
================================================================================

––––––––––––––––––––––––––––––––––––––––
Analyzed: Junior Murvin / Islands Records Presents: Roots CD1
––––––––––––––––––––––––––––––––––––––––

DR Peak RMS Duration Track
––––––––––––––––––––––––––––––––––––––––
DR10 -2.65 dB -15.05 dB 3:55 08-Police & Thieves
DR10 -3.22 dB -14.92 dB 4:44 13-Tedious
––––––––––––––––––––––––––––––––––––––––

Number of tracks: 2
Official DR value: DR10

Samplerate: 44100 Hz
Channels: 2
Bits per sample: 16
Bitrate: 780 kbps
Codec: FLAC
================================================================================

––––––––––––––––––––––––––––––––––––––––
Statistics for: 11-Fire (Is A Desire)
Number of samples: 9599100
Duration: 3:38
––––––––––––––––––––––––––––––––––––––––

Left Right

Peak Value: -1.10 dB –- -2.74 dB
Avg RMS: -14.81 dB –- -16.96 dB
DR channel: 12.05 dB –- 12.55 dB
––––––––––––––––––––––––––––––––––––––––

Official DR Value: DR12

Samplerate: 44100 Hz
Channels: 2
Bits per sample: 16
Bitrate: 780 kbps
Codec: FLAC
================================================================================
––––––––––––––––––––––––––––––––––––––––
Statistics for: 10-Three In One
Number of samples: 9664368
Duration: 3:39
––––––––––––––––––––––––––––––––––––––––

Left Right

Peak Value: -5.02 dB –- -5.02 dB
Avg RMS: -14.06 dB –- -14.28 dB
DR channel: 8.29 dB –- 8.53 dB
––––––––––––––––––––––––––––––––––––––––

Official DR Value: DR8

Samplerate: 44100 Hz
Channels: 2
Bits per sample: 16
Bitrate: 780 kbps
Codec: FLAC
================================================================================
––––––––––––––––––––––––––––––––––––––––
Statistics for: 07-One Step Forward
Number of samples: 9581460
Duration: 3:37
––––––––––––––––––––––––––––––––––––––––

Left Right

Peak Value: -1.24 dB –- -1.28 dB
Avg RMS: -15.51 dB –- -15.83 dB
DR channel: 12.68 dB –- 12.81 dB
––––––––––––––––––––––––––––––––––––––––

Official DR Value: DR13

Samplerate: 44100 Hz
Channels: 2
Bits per sample: 16
Bitrate: 780 kbps
Codec: FLAC
================================================================================
––––––––––––––––––––––––––––––––––––––––
Analyzed: Ras Michael, The Sons Of Negus / Islands Records Presents: Roots CD1 (1)
Rico / Islands Records Presents: Roots CD1 (2)
––––––––––––––––––––––––––––––––––––––––

DR Peak RMS Duration Track
––––––––––––––––––––––––––––––––––––––––
DR13 -1.36 dB -15.66 dB 3:17 04-None A Jah Jah Children (No Cry)
DR12 -1.09 dB -15.55 dB 3:20 16-Africa
––––––––––––––––––––––––––––––––––––––––

Number of tracks: 2
Official DR value: DR13

Samplerate: 44100 Hz
Channels: 2
Bits per sample: 16
Bitrate: 780 kbps
Codec: FLAC
================================================================================

––––––––––––––––––––––––––––––––––––––––
Analyzed: Righteous Foundation / Islands Records Presents: Roots CD1 (1)
The Congos / Islands Records Presents: Roots CD1 (2)
The Upsetters / Islands Records Presents: Roots CD1 (3)
––––––––––––––––––––––––––––––––––––––––

DR Peak RMS Duration Track
––––––––––––––––––––––––––––––––––––––––
DR11 -1.34 dB -14.20 dB 3:22 06-Going Back To Ethiopia
DR11 -2.12 dB -14.45 dB 6:19 15-Congo Man
DR12 -1.94 dB -15.77 dB 7:47 18-Rastaman Shuffle
––––––––––––––––––––––––––––––––––––––––

Number of tracks: 3
Official DR value: DR11

Samplerate: 44100 Hz
Channels: 2
Bits per sample: 16
Bitrate: 780 kbps
Codec: FLAC
================================================================================

––––––––––––––––––––––––––––––––––––––––
Analyzed: Third World / Islands Records Presents: Roots CD1 (1-2)
Trinity / Islands Records Presents: Roots CD1 (3)
––––––––––––––––––––––––––––––––––––––––

DR Peak RMS Duration Track
––––––––––––––––––––––––––––––––––––––––
DR13 -1.14 dB -15.79 dB 3:41 03-Freedom Song
DR13 -2.12 dB -16.67 dB 3:45 17-96 Degrees In The Shade
DR12 -2.45 dB -15.77 dB 3:14 20-Real Ranking
––––––––––––––––––––––––––––––––––––––––

Number of tracks: 3
Official DR value: DR13

Samplerate: 44100 Hz
Channels: 2
Bits per sample: 16
Bitrate: 780 kbps
Codec: FLAC

VA: Islands Records Presents. Roots - 37 Essential Roots Anthems (2013)

Tracklist CD2:

01. At The Feast Of Passover - 3:59
02. Soul Fire - 3:57
03. Forward Ever - 3:15
04. Prodigal Son - 3:35
05. Gold Spoon - 5:52
06. One Bird In The Hand - 2:52
07. Dubbing Is A Must - 4:52
08. Cool Meditation - 3:07
09. Famine - 3:13
10. In These Times - 4:41
11. Life Is Not Easy - 8:36
12. Roots Man Reggae - 5:56
13. Sons Of Garvey - 4:04
14. Jah Heavy Load - 5:19
15. Feel The Spirit - 5:03
16. Marcus Garvey's Back In Town - 6:26
17. We 'A' Rockers - 3:23

Exact Audio Copy V1.0 beta 3 from 29. August 2011

EAC extraction logfile from 26. February 2014, 9:15

Various Artists / Islands Records Presents: Roots CD2

Used drive : ATAPI iHAS124 B Adapter: 1 ID: 0

Read mode : Secure
Utilize accurate stream : Yes
Defeat audio cache : Yes
Make use of C2 pointers : No

Read offset correction : 6
Overread into Lead-In and Lead-Out : No
Fill up missing offset samples with silence : Yes
Delete leading and trailing silent blocks : No
Null samples used in CRC calculations : Yes
Used interface : Installed external ASPI interface

Used output format : User Defined Encoder
Selected bitrate : 128 kBit/s
Quality : High
Add ID3 tag : Yes
Command line compressor : C:\Program Files (x86)\Exact Audio Copy\Flac\flac.exe
Additional command line options : -V -8 %source%


TOC of the extracted CD

Track | Start | Length | Start sector | End sector
––––––––––––––––––––––––––––-
1 | 0:00.00 | 3:58.63 | 0 | 17912
2 | 3:58.63 | 3:56.46 | 17913 | 35658
3 | 7:55.34 | 3:15.03 | 35659 | 50286
4 | 11:10.37 | 3:35.15 | 50287 | 66426
5 | 14:45.52 | 5:52.27 | 66427 | 92853
6 | 20:38.04 | 2:52.02 | 92854 | 105755
7 | 23:30.06 | 4:51.55 | 105756 | 127635
8 | 28:21.61 | 3:07.11 | 127636 | 141671
9 | 31:28.72 | 3:13.34 | 141672 | 156180
10 | 34:42.31 | 4:41.06 | 156181 | 177261
11 | 39:23.37 | 8:35.73 | 177262 | 215959
12 | 47:59.35 | 5:55.63 | 215960 | 242647
13 | 53:55.23 | 4:04.04 | 242648 | 260951
14 | 57:59.27 | 5:19.18 | 260952 | 284894
15 | 63:18.45 | 5:03.04 | 284895 | 307623
16 | 68:21.49 | 6:26.33 | 307624 | 336606
17 | 74:48.07 | 3:23.24 | 336607 | 351855


Range status and errors

Selected range

Filename G:\CD\Various Artists - Islands Records Presents. Roots CD2.wav

Peak level 100.0 %
Extraction speed 10.1 X
Range quality 100.0 %
Test CRC E7602BF1
Copy CRC E7602BF1
Copy OK

No errors occurred


AccurateRip summary

Track 1 not present in database
Track 2 not present in database
Track 3 not present in database
Track 4 not present in database
Track 5 not present in database
Track 6 not present in database
Track 7 not present in database
Track 8 not present in database
Track 9 not present in database
Track 10 not present in database
Track 11 not present in database
Track 12 not present in database
Track 13 not present in database
Track 14 not present in database
Track 15 not present in database
Track 16 not present in database
Track 17 not present in database

None of the tracks are present in the AccurateRip database

End of status report

foobar2000 1.2.9 / Dynamic Range Meter 1.1.1
log date: 2014-03-01 22:24:21

––––––––––––––––––––––––––––––––––––––––
Analyzed: Justin Hines And The Dominoes / Islands Records Presents: Roots CD2 (1)
Cool Meditation / Islands Records Presents: Roots CD2 (2)
Errol Walker / Islands Records Presents: Roots CD2 (3)
––––––––––––––––––––––––––––––––––––––––

DR Peak RMS Duration Track
––––––––––––––––––––––––––––––––––––––––
DR15 0.00 dB -16.51 dB 2:52 06-One Bird In The Hand
DR11 -0.97 dB -14.51 dB 3:07 08-Cool Meditation
DR13 -0.32 dB -14.90 dB 4:41 10-In These Times
––––––––––––––––––––––––––––––––––––––––

Number of tracks: 3
Official DR value: DR13

Samplerate: 44100 Hz
Channels: 2
Bits per sample: 16
Bitrate: 793 kbps
Codec: FLAC
================================================================================

––––––––––––––––––––––––––––––––––––––––
Analyzed: Hosbah Lawrence / Islands Records Presents: Roots CD2 (1)
Ijahman / Islands Records Presents: Roots CD2 (2)
Inner Circle / Islands Records Presents: Roots CD2 (3)
––––––––––––––––––––––––––––––––––––––––

DR Peak RMS Duration Track
––––––––––––––––––––––––––––––––––––––––
DR13 -0.20 dB -14.48 dB 5:52 05-Gold Spoon
DR12 -1.80 dB -15.11 dB 5:19 14-Jah Heavy Load
DR14 -0.08 dB -15.57 dB 3:23 17-We 'A' Rockers
––––––––––––––––––––––––––––––––––––––––

Number of tracks: 3
Official DR value: DR13

Samplerate: 44100 Hz
Channels: 2
Bits per sample: 16
Bitrate: 793 kbps
Codec: FLAC
================================================================================

––––––––––––––––––––––––––––––––––––––––
Statistics for: 03-Forward Ever
Number of samples: 8601264
Duration: 3:15
––––––––––––––––––––––––––––––––––––––––

Left Right

Peak Value: -0.47 dB –- -0.47 dB
Avg RMS: -13.80 dB –- -13.80 dB
DR channel: 11.86 dB –- 11.86 dB
––––––––––––––––––––––––––––––––––––––––

Official DR Value: DR12

Samplerate: 44100 Hz
Channels: 2
Bits per sample: 16
Bitrate: 793 kbps
Codec: FLAC
================================================================================
––––––––––––––––––––––––––––––––––––––––
Analyzed: Lee 'Scratch' Perry / Islands Records Presents: Roots CD2 (1)
Pablo Moses / Islands Records Presents: Roots CD2 (2)
––––––––––––––––––––––––––––––––––––––––

DR Peak RMS Duration Track
––––––––––––––––––––––––––––––––––––––––
DR13 -1.20 dB -15.29 dB 3:57 02-Soul Fire
DR16 -0.19 dB -17.89 dB 4:52 07-Dubbing Is A Must
––––––––––––––––––––––––––––––––––––––––

Number of tracks: 2
Official DR value: DR14

Samplerate: 44100 Hz
Channels: 2
Bits per sample: 16
Bitrate: 793 kbps
Codec: FLAC
================================================================================

––––––––––––––––––––––––––––––––––––––––
Statistics for: 04-Prodigal Son
Number of samples: 9490320
Duration: 3:35
––––––––––––––––––––––––––––––––––––––––

Left Right

Peak Value: -0.60 dB –- -0.60 dB
Avg RMS: -14.69 dB –- -15.12 dB
DR channel: 12.32 dB –- 12.70 dB
––––––––––––––––––––––––––––––––––––––––

Official DR Value: DR13

Samplerate: 44100 Hz
Channels: 2
Bits per sample: 16
Bitrate: 793 kbps
Codec: FLAC
================================================================================
––––––––––––––––––––––––––––––––––––––––
Analyzed: The Congos / Islands Records Presents: Roots CD2 (1)
The In Crowd / Islands Records Presents: Roots CD2 (2)
––––––––––––––––––––––––––––––––––––––––

DR Peak RMS Duration Track
––––––––––––––––––––––––––––––––––––––––
DR12 -0.54 dB -13.97 dB 3:59 01-At The Feast Of Passover
DR13 -1.10 dB -15.05 dB 6:26 16-Marcus Garvey's Back In Town
––––––––––––––––––––––––––––––––––––––––

Number of tracks: 2
Official DR value: DR12

Samplerate: 44100 Hz
Channels: 2
Bits per sample: 16
Bitrate: 793 kbps
Codec: FLAC
================================================================================

––––––––––––––––––––––––––––––––––––––––
Statistics for: 11-Life Is Not Easy
Number of samples: 22754424
Duration: 8:36
––––––––––––––––––––––––––––––––––––––––

Left Right

Peak Value: -1.26 dB –- -1.27 dB
Avg RMS: -14.10 dB –- -14.10 dB
DR channel: 11.84 dB –- 11.75 dB
––––––––––––––––––––––––––––––––––––––––

Official DR Value: DR12

Samplerate: 44100 Hz
Channels: 2
Bits per sample: 16
Bitrate: 793 kbps
Codec: FLAC
================================================================================
––––––––––––––––––––––––––––––––––––––––
Analyzed: Toots & The Maytals / Islands Records Presents: Roots CD2 (1)
Wailing Souls / Islands Records Presents: Roots CD2 (2)
––––––––––––––––––––––––––––––––––––––––

DR Peak RMS Duration Track
––––––––––––––––––––––––––––––––––––––––
DR10 -2.44 dB -13.41 dB 3:13 09-Famine
DR13 -0.66 dB -14.73 dB 5:03 15-Feel The Spirit
––––––––––––––––––––––––––––––––––––––––

Number of tracks: 2
Official DR value: DR11

Samplerate: 44100 Hz
Channels: 2
Bits per sample: 16
Bitrate: 793 kbps
Codec: FLAC
================================================================================

––––––––––––––––––––––––––––––––––––––––
Statistics for: 12-Roots Man Reggae
Number of samples: 15692544
Duration: 5:56
––––––––––––––––––––––––––––––––––––––––

Left Right

Peak Value: 0.00 dB –- 0.00 dB
Avg RMS: -16.44 dB –- -15.08 dB
DR channel: 14.93 dB –- 13.55 dB
––––––––––––––––––––––––––––––––––––––––

Official DR Value: DR14

Samplerate: 44100 Hz
Channels: 2
Bits per sample: 16
Bitrate: 793 kbps
Codec: FLAC

VA: Islands Records Presents. Roots - 37 Essential Roots Anthems (2013)

All thanks go to gerrV