Tags
Language
Tags
February 2023
Su Mo Tu We Th Fr Sa
29 30 31 1 2 3 4
5 6 7 8 9 10 11
12 13 14 15 16 17 18
19 20 21 22 23 24 25
26 27 28 1 2 3 4

Ivo Papasov - Dance Of The Falcon (2008) {World Village}

Posted By: tiburon
Ivo Papasov - Dance Of The Falcon (2008) {World Village}

Ivo Papasov - Dance Of The Falcon (2008) {World Village}
EAC 0.99pb4 | FLAC tracks level 8 | Cue+Log+M3U | Full Scans 300dpi | 335MB + 5% Recovery
MP3 CBR 320 Kbps | 137MB + 5% Recovery
Genre: Ethnic Fusion, Bulgarian Folk
Ivo Papasov - Dance Of The Falcon (2008) {World Village}

"I’ve been wanting to record these tunes for a long time. They’ve been in my mind for years and I didn’t even dare to think that one day I’d be able to record them. The memories connected with this music have stayed with me. Like on a film, the images of the people I grew up with and of my parents changed in front of my eyes. I inherited this music from them. Each of these tunes has got its own story. I recorded them for my own pleasure, but then I thought why not let other people have them? Why not give them some pleasure as well? A lot of these people have now grown old and, like me, have dreamed of hearing this music recorded and preserved for future generations. These are tunes which you play when you’re feeling good, during the best moments of your life. I played them just like I feel them today. My performances here are a modern, rather different interpretation. But it’s good to look back and to remember who we are, where we come from and to preserve this music for our children and for those who will come after us." Ivo Papasov
Track List
01. Dance of the Falcon - Kaba Zurna
02. Tinner's Dance
03. Pink Panther
04. Sunrise
05. Hubava si Moya Goro
06. Sweet Rakia in Rozino
07. Echoes of Rumelia
08. Prayer from the Mountains - Daglar

musicians
Ivo Papasov - clarinet Selmer Series 10S, soprano saxophone
Vasil Denev - keyboards
Ateshkhan Yousseinov - guitar

Session musicians:
Mariya Ramalchanova - violin
Kristina Venkova - violin
Ivelina Hristova - violin
Galina Panayotova - violin
Draga Mitovska - violin
Mariya Venkova - viola
Boryana Bekirska - viola
Jirar Yuzengidjan - violoncello
Stela Bakalova - contrabass
Radoslav Krastev - bass guitar
Vasko Aivazov - bass guitar
Asen Sashev - tef (tambourine)
champari (zils - finger cymbals
Selyatin Redzhep - tarambukka, tabla
Velyo Velev - tarambukka
Veselin Andreev - Orhan – tapan (double-headed drum)
Ivelin Asenov - drums

guests:
Vasil Parmakov – piano; keyboards
Shain Ibryamov - qanun; oud;
Stoyan Yankulov – drums; congas; tapan (double-headed drum); talking drum
Sasho Bikov - drums


Exact Audio Copy V0.99 prebeta 4 from 23. January 2008

EAC extraction logfile from 6. May 2009, 15:17

Ivo Papasov / Dance of the Falcon

Used drive : PLEXTOR DVDR PX-810SA Adapter: 1 ID: 0

Read mode : Secure
Utilize accurate stream : Yes
Defeat audio cache : Yes
Make use of C2 pointers : No

Read offset correction : 48
Overread into Lead-In and Lead-Out : No
Fill up missing offset samples with silence : Yes
Delete leading and trailing silent blocks : No
Null samples used in CRC calculations : Yes
Used interface : Native Win32 interface for Win NT & 2000
Gap handling : Appended to previous track

Used output format : User Defined Encoder
Selected bitrate : 1024 kBit/s
Quality : High
Add ID3 tag : No
Command line compressor : C:\Program Files (x86)\Exact Audio Copy\flac.exe
Additional command line options : -8 -V -T "artist=%a" -T "title=%t" -T "album=%g" -T "date=%y" -T "tracknumber=%n" -T "genre=%m" -T "comment=EAC 0.99pb4/ FLAC 1.2.1b q8" %s -o %d


TOC of the extracted CD

Track | Start | Length | Start sector | End sector
––––––––––––––––––––––––––––-
1 | 0:00.00 | 7:54.04 | 0 | 35553
2 | 7:54.04 | 4:36.46 | 35554 | 56299
3 | 12:30.50 | 8:37.70 | 56300 | 95144
4 | 21:08.45 | 6:51.18 | 95145 | 125987
5 | 27:59.63 | 3:58.25 | 125988 | 143862
6 | 31:58.13 | 9:35.63 | 143863 | 187050
7 | 41:34.01 | 6:15.62 | 187051 | 215237
8 | 47:49.63 | 7:43.73 | 215238 | 250035


Track 1

Filename C:\RIPS\Ivo Papasov - Dance of the Falcon (2008) [flac]\01 - Dance of the Falcon.wav

Pre-gap length 0:00:02.00

Peak level 100.0 %
Track quality 100.0 %
Test CRC 7BD7B450
Copy CRC 7BD7B450
Accurately ripped (confidence 1) [DD6AAEC3]
Copy OK

Track 2

Filename C:\RIPS\Ivo Papasov - Dance of the Falcon (2008) [flac]\02 - Tinner's Dance.wav

Pre-gap length 0:00:02.00

Peak level 100.0 %
Track quality 99.9 %
Test CRC AC11E255
Copy CRC AC11E255
Accurately ripped (confidence 1) [D53FCBAE]
Copy OK

Track 3

Filename C:\RIPS\Ivo Papasov - Dance of the Falcon (2008) [flac]\03 - Pink Panther-.wav

Pre-gap length 0:00:02.00

Peak level 100.0 %
Track quality 100.0 %
Test CRC 7ACAC4DB
Copy CRC 7ACAC4DB
Accurately ripped (confidence 1) [1AD0AFEB]
Copy OK

Track 4

Filename C:\RIPS\Ivo Papasov - Dance of the Falcon (2008) [flac]\04 - Sunrise.wav

Pre-gap length 0:00:02.00

Peak level 100.0 %
Track quality 100.0 %
Test CRC C5FE543D
Copy CRC C5FE543D
Accurately ripped (confidence 1) [54EF404B]
Copy OK

Track 5

Filename C:\RIPS\Ivo Papasov - Dance of the Falcon (2008) [flac]\05 - Hubaya Si Moya Goro.wav

Pre-gap length 0:00:02.00

Peak level 87.9 %
Track quality 100.0 %
Test CRC 14134301
Copy CRC 14134301
Accurately ripped (confidence 1) [F4ECC761]
Copy OK

Track 6

Filename C:\RIPS\Ivo Papasov - Dance of the Falcon (2008) [flac]\06 - Sweet Rakia In Rozino.wav

Pre-gap length 0:00:02.00

Peak level 100.0 %
Track quality 100.0 %
Test CRC 8341C783
Copy CRC 8341C783
Accurately ripped (confidence 1) [CF58B33F]
Copy OK

Track 7

Filename C:\RIPS\Ivo Papasov - Dance of the Falcon (2008) [flac]\07 - Echoes Of Rumelia.wav

Pre-gap length 0:00:02.00

Peak level 100.0 %
Track quality 100.0 %
Test CRC BCFD7348
Copy CRC BCFD7348
Accurately ripped (confidence 1) [0F26313B]
Copy OK

Track 8

Filename C:\RIPS\Ivo Papasov - Dance of the Falcon (2008) [flac]\08 - Prayer From The Mountains.wav

Pre-gap length 0:00:02.00

Peak level 100.0 %
Track quality 100.0 %
Test CRC 501B3FC8
Copy CRC 501B3FC8
Accurately ripped (confidence 1) [3A5D74D7]
Copy OK


All tracks accurately ripped

No errors occurred

End of status report


––––––––––––––––––––––––––––––––––––––––
Analyzed: Ivo Papasov / Dance of the Falcon
––––––––––––––––––––––––––––––––––––––––

DR Peak RMS Duration Track
––––––––––––––––––––––––––––––––––––––––
DR7 0.00 dB -7.62 dB 7:54 01-Dance of the Falcon
DR8 0.00 dB -8.66 dB 4:37 02-Tinner's Dance
DR6 0.00 dB -7.23 dB 8:38 03-Pink Panther-
DR8 0.00 dB -9.78 dB 6:51 04-Sunrise
DR10 -1.11 dB -14.62 dB 3:58 05-Hubaya Si Moya Goro
DR6 0.00 dB -7.83 dB 9:36 06-Sweet Rakia In Rozino
DR8 0.00 dB -9.41 dB 6:16 07-Echoes Of Rumelia
DR5 0.00 dB -7.42 dB 7:44 08-Prayer From The Mountains
––––––––––––––––––––––––––––––––––––––––

Number of tracks: 8
Official DR value: DR7

Samplerate: 44100 Hz
Channels: 2
Bits per sample: 16
Bitrate: 822 kbps
Codec: FLAC
================================================================================

Ivo Papasov - Dance Of The Falcon (2008) {World Village}
Ivo Papasov - Dance Of The Falcon (2008) {World Village}
Ivo Papasov - Dance Of The Falcon (2008) {World Village}


Thanks to the original ripper