Subcategories
Tags
Language
Tags

Jeremiah Cymerman - Under A Blue Grey Sky (2010) {Porter} **[RE-UP]**

Posted By: TestTickles
Jeremiah Cymerman - Under A Blue Grey Sky (2010) {Porter} **[RE-UP]**

Jeremiah Cymerman - Under A Blue Grey Sky (2010) {Porter}
EAC Rip | FLAC with CUE and log | scans | 236 mb
MP3 CBR 320kbps | RAR | 109 mb
Genre: jazz, experimental jazz

Under A Blue Grey Sky is the 2010 album by American jazz experimentalist Jeremiah Cymerman. This one explores six movements through textures, with a classical theme in part, both feminine and masculine. This was released on the Porter label.

Jeremiah Cymerman - Under A Blue Grey Sky (2010) {Porter} **[RE-UP]**

1. Act I
2. Act II
3. Act III
4. Act IV
5. Act V
6. Interlude
7. Act VI

Jeremiah Cymerman-electronic treatments
Olivia De Prato-violin
Jessica Pavone-viola
Christopher Hoffman-cello
Tom Blancarte-bass

Mixed by Jamie Saft
Mastered by Mell Dettmer

Jeremiah Cymerman - Under A Blue Grey Sky (2010) {Porter} **[RE-UP]**


Exact Audio Copy V1.0 beta 6 from 9. April 2015

EAC extraction logfile from 31. December 2017, 13:26

Jeremiah Cymerman / Under A Blue Grey Sky

Used drive : TSSTcorpDVD+-RW TS-L633C Adapter: 1 ID: 0

Read mode : Secure
Utilize accurate stream : Yes
Defeat audio cache : Yes
Make use of C2 pointers : No

Read offset correction : 6
Overread into Lead-In and Lead-Out : No
Fill up missing offset samples with silence : Yes
Delete leading and trailing silent blocks : No
Null samples used in CRC calculations : Yes
Used interface : Native Win32 interface for Win NT & 2000
Gap handling : Appended to previous track

Used output format : Internal WAV Routines
Sample format : 44.100 Hz; 16 Bit; Stereo


TOC of the extracted CD

Track | Start | Length | Start sector | End sector
––––––––––––––––––––––––––––-
1 | 0:00.00 | 5:44.55 | 0 | 25854
2 | 5:44.55 | 9:04.40 | 25855 | 66694
3 | 14:49.20 | 1:40.50 | 66695 | 74244
4 | 16:29.70 | 8:35.30 | 74245 | 112899
5 | 25:05.25 | 5:36.25 | 112900 | 138124
6 | 30:41.50 | 5:05.12 | 138125 | 161011
7 | 35:46.62 | 8:32.56 | 161012 | 199467


Track 1

Filename C:\My Documents\My FLAC\Jeremiah Cymerman - Under A Blue Grey Sky (2010) [FLAC] {Porter}\01 - Act I.wav

Pre-gap length 0:00:02.00

Peak level 98.8 %
Extraction speed 2.7 X
Track quality 100.0 %
Test CRC 09A8A017
Copy CRC 09A8A017
Accurately ripped (confidence 1) [88F885B4] (AR v1)
Copy OK

Track 2

Filename C:\My Documents\My FLAC\Jeremiah Cymerman - Under A Blue Grey Sky (2010) [FLAC] {Porter}\02 - Act II.wav

Peak level 98.8 %
Extraction speed 3.3 X
Track quality 100.0 %
Test CRC 9F589A1A
Copy CRC 9F589A1A
Accurately ripped (confidence 1) [3C5927E3] (AR v1)
Copy OK

Track 3

Filename C:\My Documents\My FLAC\Jeremiah Cymerman - Under A Blue Grey Sky (2010) [FLAC] {Porter}\03 - Act III.wav

Peak level 98.8 %
Extraction speed 2.3 X
Track quality 100.0 %
Test CRC 455DB683
Copy CRC 455DB683
Accurately ripped (confidence 1) [86ADF659] (AR v1)
Copy OK

Track 4

Filename C:\My Documents\My FLAC\Jeremiah Cymerman - Under A Blue Grey Sky (2010) [FLAC] {Porter}\04 - Act IV.wav

Peak level 98.8 %
Extraction speed 3.9 X
Track quality 100.0 %
Test CRC 6D1044FE
Copy CRC 6D1044FE
Accurately ripped (confidence 1) [250B34EA] (AR v1)
Copy OK

Track 5

Filename C:\My Documents\My FLAC\Jeremiah Cymerman - Under A Blue Grey Sky (2010) [FLAC] {Porter}\05 - Act V.wav

Peak level 98.8 %
Extraction speed 3.4 X
Track quality 99.9 %
Test CRC AF2760A8
Copy CRC AF2760A8
Accurately ripped (confidence 1) [3994D8A5] (AR v1)
Copy OK

Track 6

Filename C:\My Documents\My FLAC\Jeremiah Cymerman - Under A Blue Grey Sky (2010) [FLAC] {Porter}\06 - Interlude.wav

Peak level 98.8 %
Extraction speed 4.1 X
Track quality 100.0 %
Test CRC DF4A753B
Copy CRC DF4A753B
Accurately ripped (confidence 1) [41DD8F5A] (AR v1)
Copy OK

Track 7

Filename C:\My Documents\My FLAC\Jeremiah Cymerman - Under A Blue Grey Sky (2010) [FLAC] {Porter}\07 - Act VI.wav

Peak level 98.8 %
Extraction speed 4.4 X
Track quality 100.0 %
Test CRC F0DD4F23
Copy CRC F0DD4F23
Accurately ripped (confidence 1) [5ACCEC18] (AR v1)
Copy OK


All tracks accurately ripped

No errors occurred

End of status report

–– CUETools DB Plugin V2.1.6

[CTDB TOCID: X_HHXvr83QaF7TQOatVYIcGtbc8-] found
Submit result: X_HHXvr83QaF7TQOatVYIcGtbc8- has been confirmed
Track | CTDB Status
1 | (1/1) Accurately ripped
2 | (1/1) Accurately ripped
3 | (1/1) Accurately ripped
4 | (1/1) Accurately ripped
5 | (1/1) Accurately ripped
6 | (1/1) Accurately ripped
7 | (1/1) Accurately ripped


==== Log checksum 64F8131F315101CB2F03975BAF22F01EBF6FA336D035D7541807FC39605E8A3F ====


Jeremiah Cymerman - Under A Blue Grey Sky (2010) {Porter} **[RE-UP]**