Tags
Language
Tags

Jackson Browne - Standing In The Breach (2014)

Posted By: Designol
Jackson Browne - Standing In The Breach (2014)

Jackson Browne - Standing In The Breach (2014)
EAC | FLAC | Tracks (Cue&Log) ~ 374 Mb | Mp3 (CBR320) ~ 155 Mb
Label: Inside | # INR14107-1 | Time: 00:56:15 | Scans included
Singer/Songwriter, Soft Rock, Folk Rock, Country Rock

Standing In The Breach, Jackson's fourteenth studio album, is a collection of ten songs, at turns deeply personal and political, exploring love, hope, and defiance in the face of the advancing uncertainties of modern life.

On Jackson Browne's first studio recording since 2008, the man who defined the '70s singer/songwriter generation finds a fresh way of dealing with the world as it is both personally and politically – by going back to his own roots. Lyrically, Browne is inspired in a way he hasn't been since 1976's The Pretender, and this recording's production aesthetic adheres closer to that of even earlier records. His core accompanists are guitarists Greg Leisz and Val McCallum, with an all-star cast. Socio-political songs are plentiful, but these come from an intimate – and therefore more appealing – perspective; he often uses personal memory to frame his concerns. The opener is a (finally) finished version of "The Birds of St. Marks," a song begun in 1967 and performed live intermittently but never recorded in a studio. Its sound harkens back to the the Byrds. Jangly guitars and an electric 12-string solo frame its introspective lyrics. "Yeah Yeah" borrows the changes from Lou Reed's "Sweet Jane" and pulls them off anew in a love song: "And you paid for the love that we've got, you paid/And you made for the heart when we fought and you stayed…" "Leaving Winslow" is a West Coast country song whose locale was namechecked in "Take It Easy," yet this isn't an exercise in nostalgia but a solid, and sometimes humorous, paean to acceptance and the desire to disappear. Few writers could deliver a poignant song where surfing transitions to environmentalism and the historical consequences of empire. Browne can, and does – with obvious melodic inspiration from Paul McCartney – on "If I Could Be Anywhere," where step by step, the political is equated with personal responsibility. There are two exceptional covers that introduce the record's latter half. Both are stellar love songs that are nonetheless topical, and both are by true song poets. The first is a stunning folk-rock arrangement of Woody Guthrie's "You Know the Night," while "Walls and Doors" is a translation of Cuban songwriter/guitarist Carlos Varela's "Las Paredes y Puertas," and features him and his trio. The latter is a lilting romantic ballad, arranged to underscore both the composer's and Browne's personas. Only "Which Side Are You On" sounds "preachy," but that's because it is; it employs the same gospel-blues lyric scheme Bob Dylan did on "You Gotta Serve Somebody" but to secular ends. The title track, led by the songwriter and his piano, is a testament to the power of irrepressible hope and resilience: "Though the world may tremble and our foundations crack/We will all assemble and we will build them back." Closer "Her" is one of Browne's classic broken love songs; its sadness echoes long after the album whispers to a close. Standing in the Breach is a back to the basics Browne album, and is all the better for it. He's no longer speaking at anyone, but conversing from the well of his own experience.

Review by Thom Jurek, Allmusic.com

Jackson Browne - Standing In The Breach (2014)



Tracklist:

01. The Bird's Of St. Marks (04:22)
02. Yeah Yeah (06:14)
03. The Long Way Around (06:24)
04. Leaving Winslow (03:52)
05. If I Could Be Anywhere (07:07)
06. You Know The Night (05:31)
07. Walls And Doors (06:01)
08. Which Side? (06:37)
09. Standing In The Breach (05:37)
10. Here (04:25)


Exact Audio Copy V1.0 beta 3 from 29. August 2011

EAC extraction logfile from 31. October 2014, 20:22

Jackson Browne / Standing In The Breach

Used drive : TSSTcorpCDDVDW TS-L632N Adapter: 0 ID: 0

Read mode : Secure
Utilize accurate stream : Yes
Defeat audio cache : Yes
Make use of C2 pointers : No

Read offset correction : 6
Overread into Lead-In and Lead-Out : No
Fill up missing offset samples with silence : Yes
Delete leading and trailing silent blocks : No
Null samples used in CRC calculations : Yes
Used interface : Native Win32 interface for Win NT & 2000
Gap handling : Appended to previous track

Used output format : User Defined Encoder
Selected bitrate : 1024 kBit/s
Quality : High
Add ID3 tag : No
Command line compressor : C:\Program Files\Exact Audio Copy\FLAC\FLAC.EXE
Additional command line options : -6 -V -T "ARTIST=%artist%" -T "TITLE=%title%" -T "ALBUM=%albumtitle%" -T "DATE=%year%" -T "TRACKNUMBER=%tracknr%" -T "GENRE=%genre%" -T "COMMENT=%comment%" -T "BAND=%albuminterpret%" -T "ALBUMARTIST=%albuminterpret%" -T "COMPOSER=%composer%" %haslyrics%–tag-from-file=LYRICS="%lyricsfile%"%haslyrics% -T "DISCNUMBER=%cdnumber%" -T "TOTALDISCS=%totalcds%" -T "TOTALTRACKS=%numtracks%" %hascover%–picture="%coverfile%"%hascover% %source% -o %dest%


TOC of the extracted CD

Track | Start | Length | Start sector | End sector
––––––––––––––––––––––––––––-
1 | 0:00.00 | 4:22.56 | 0 | 19705
2 | 4:22.56 | 6:14.34 | 19706 | 47789
3 | 10:37.15 | 6:24.23 | 47790 | 76612
4 | 17:01.38 | 3:52.41 | 76613 | 94053
5 | 20:54.04 | 7:07.72 | 94054 | 126150
6 | 28:02.01 | 5:31.36 | 126151 | 151011
7 | 33:33.37 | 6:01.29 | 151012 | 178115
8 | 39:34.66 | 6:37.27 | 178116 | 207917
9 | 46:12.18 | 5:37.30 | 207918 | 233222
10 | 51:49.48 | 4:25.41 | 233223 | 253138


Track 1

Filename C:\Users\mk\Desktop\Flac Rip\01-The Bird's Of St. Marks-Jackson Browne.wav

Pre-gap length 0:00:02.00

Peak level 100.0 %
Extraction speed 2.1 X
Track quality 100.0 %
Test CRC EE676031
Copy CRC EE676031
Track not present in AccurateRip database
Copy OK

Track 2

Filename C:\Users\mk\Desktop\Flac Rip\02-Yeah Yeah-Jackson Browne.wav

Peak level 100.0 %
Extraction speed 2.3 X
Track quality 99.9 %
Test CRC DAA1D09C
Copy CRC DAA1D09C
Track not present in AccurateRip database
Copy OK

Track 3

Filename C:\Users\mk\Desktop\Flac Rip\03-The Long Way Round-Jackson Browne.wav

Peak level 98.4 %
Extraction speed 2.9 X
Track quality 100.0 %
Test CRC 18B843F1
Copy CRC 18B843F1
Track not present in AccurateRip database
Copy OK

Track 4

Filename C:\Users\mk\Desktop\Flac Rip\04-Leaving Winslow-Jackson Browne.wav

Peak level 97.6 %
Extraction speed 2.9 X
Track quality 100.0 %
Test CRC 7460BBE6
Copy CRC 7460BBE6
Track not present in AccurateRip database
Copy OK

Track 5

Filename C:\Users\mk\Desktop\Flac Rip\05-If I Could Be Anywhere-Jackson Browne.wav

Peak level 99.4 %
Extraction speed 3.1 X
Track quality 99.9 %
Test CRC 539A6B20
Copy CRC 539A6B20
Track not present in AccurateRip database
Copy OK

Track 6

Filename C:\Users\mk\Desktop\Flac Rip\06-You Know The Night-Jackson Browne.wav

Peak level 95.9 %
Extraction speed 3.6 X
Track quality 100.0 %
Test CRC 600DC6BB
Copy CRC 600DC6BB
Track not present in AccurateRip database
Copy OK

Track 7

Filename C:\Users\mk\Desktop\Flac Rip\07-Walls And Doors-Jackson Browne.wav

Peak level 99.6 %
Extraction speed 3.8 X
Track quality 100.0 %
Test CRC EDD07157
Copy CRC EDD07157
Track not present in AccurateRip database
Copy OK

Track 8

Filename C:\Users\mk\Desktop\Flac Rip\08-Which Side-Jackson Browne.wav

Peak level 99.2 %
Extraction speed 4.1 X
Track quality 100.0 %
Test CRC 0FA6FA77
Copy CRC 0FA6FA77
Track not present in AccurateRip database
Copy OK

Track 9

Filename C:\Users\mk\Desktop\Flac Rip\09-Standing In The Breach-Jackson Browne.wav

Peak level 98.7 %
Extraction speed 4.2 X
Track quality 100.0 %
Test CRC EC1AE3EC
Copy CRC EC1AE3EC
Track not present in AccurateRip database
Copy OK

Track 10

Filename C:\Users\mk\Desktop\Flac Rip\10-Here-Jackson Browne.wav

Peak level 97.1 %
Extraction speed 4.2 X
Track quality 100.0 %
Test CRC 2A5905EA
Copy CRC 2A5905EA
Track not present in AccurateRip database
Copy OK


None of the tracks are present in the AccurateRip database

No errors occurred

End of status report

==== Log checksum 0756BC5DBE84A17B70A79BDB9D921708719999D1433900A0643B681BF2AF1405 ====

[CUETools log; Date: 24.02.2017 21:41:34; Version: 2.1.4]
[CTDB TOCID: KDUuJRkvPyoDLDQeqXq..S36BTU-] found.
Track | CTDB Status
1 | (214/215) Accurately ripped
2 | (214/215) Accurately ripped
3 | (214/215) Accurately ripped
4 | (215/215) Accurately ripped
5 | (215/215) Accurately ripped
6 | (215/215) Accurately ripped
7 | (215/215) Accurately ripped
8 | (215/215) Accurately ripped
9 | (211/215) Accurately ripped
10 | (212/215) Accurately ripped
[AccurateRip ID: 00152cca-00aab10c-7b0d2f0a] found.
Track [ CRC | V2 ] Status
01 [65168713|f45aa054] (04+63/69) Accurately ripped
02 [739213c3|9e4cb2e3] (04+64/70) Accurately ripped
03 [e89d2560|e49294b8] (04+64/70) Accurately ripped
04 [fddd5560|860014f1] (04+64/70) Accurately ripped
05 [90542e4e|e40f39d9] (05+64/71) Accurately ripped
06 [8bd41e18|d907db22] (04+64/70) Accurately ripped
07 [b767d5ea|6fbac475] (04+63/69) Accurately ripped
08 [638081c8|148abfd2] (04+63/69) Accurately ripped
09 [1a919aaf|5b37a7d3] (04+60/66) Accurately ripped
10 [3e690b03|536ad585] (04+61/68) Accurately ripped
Offsetted by 6:
01 [acd7977e] (00/69) No match (V2 was not tested)
02 [710b9a96] (00/70) No match (V2 was not tested)
03 [39bd2bb3] (00/70) No match (V2 was not tested)
04 [344300dd] (00/70) No match (V2 was not tested)
05 [4e235541] (00/71) No match (V2 was not tested)
06 [50c9459a] (00/70) No match (V2 was not tested)
07 [d16b1c8b] (00/69) No match (V2 was not tested)
08 [81ab1735] (00/69) No match (V2 was not tested)
09 [38477c03] (00/66) No match (V2 was not tested)
10 [96468594] (00/68) No match (V2 was not tested)

Track Peak [ CRC32 ] [W/O NULL] [ LOG ]
– 100,0 [ACF32DD3] [D4C93C99]
01 100,0 [EE676031] [068E4A22] CRC32
02 100,0 [DAA1D09C] [5731170F] CRC32
03 98,4 [18B843F1] [0ECBF017] CRC32
04 97,6 [7460BBE6] [251B217E] CRC32
05 99,4 [539A6B20] [15609707] CRC32
06 95,9 [600DC6BB] [4F782D4C] CRC32
07 99,6 [EDD07157] [F7D5FCF8] CRC32
08 99,2 [0FA6FA77] [F275CA1B] CRC32
09 98,7 [EC1AE3EC] [7EE1E861] CRC32
10 97,1 [2A5905EA] [8839663F] CRC32

foobar2000 1.2 / Dynamic Range Meter 1.1.1
log date: 2017-02-24 21:45:51

––––––––––––––––––––––––––––––––––––––––
Analyzed: Jackson Browne / Standing In The Breach
––––––––––––––––––––––––––––––––––––––––

DR Peak RMS Duration Track
––––––––––––––––––––––––––––––––––––––––
DR8 0.00 dB -9.26 dB 4:23 01-The Bird's Of St. Marks
DR8 0.00 dB -9.49 dB 6:14 02-Yeah Yeah
DR8 -0.14 dB -9.44 dB 6:24 03-The Long Way Around
DR8 -0.21 dB -9.60 dB 3:53 04-Leaving Winslow
DR7 -0.05 dB -9.87 dB 7:08 05-If I Could Be Anywhere
DR8 -0.36 dB -9.66 dB 5:31 06-You Know The Night
DR9 -0.03 dB -12.66 dB 6:01 07-Walls And Doors
DR9 -0.07 dB -10.73 dB 6:37 08-Which Side?
DR7 -0.11 dB -10.68 dB 5:37 09-Standing In The Breach
DR9 -0.25 dB -11.25 dB 4:26 10-Here
––––––––––––––––––––––––––––––––––––––––

Number of tracks: 10
Official DR value: DR8

Samplerate: 44100 Hz
Channels: 2
Bits per sample: 16
Bitrate: 770 kbps
Codec: FLAC
================================================================================

Jackson Browne - Standing In The Breach (2014)

Jackson Browne - Standing In The Breach (2014)

All thanks to original releaser

More interesting music in My Blog