Subcategories
Tags
Language
Tags

Jacqueline du Pré - Her Early BBC Recordings, Volume 1: Bach, Britten, Falla (1989)

Posted By: tirexiss
Jacqueline du Pré - Her Early BBC Recordings, Volume 1: Bach, Britten, Falla (1989)

Jacqueline du Pré - Her Early BBC Recordings, Volume 1: Bach, Britten, Falla (1989)
EAC | FLAC (image+.cue, log) | Covers Included | 60:11 | 218 MB
Genre: Classical | Label: EMI | Catalog: 7 63165 2

With the appearance of the excellent "les intouvables" collection of du Pre's EMI recordings, a codification which includes a sampling of most everything, why on earth would one opt to glance at the individual selections? The reasons are twofold: First, with the collection one may hear the works together, never fully appreciating their accomplishments individually and that in order to experience the mastery and history of the recordings one might choose to hear them separately. Second, the works as separately released also carry in addition to a complete chronolgic and historic arrangement (see e.g., the last Haydn concerto), the individual recordings coprise additional works meant to be included within their respective final format. Experiencing here individual recordings is something like carefully exmaning the chinks and flecks of crystal dust taken from a larger shard of quartz: they refract as much in their own brilliance disassembled and apart from the main as they do when seen together. Du Pre's early BBC recordings, while perhaps less exemplary of her larger talent (as with her Elgar), are instructive. Bach and the Suites for Unaccompanied Violincello, you ask? By someone not yet in her twenties? What of the mastery and excellence of Casals, Rostropovich, Mainardi? Why waste time on a demigod? The early recordings allow one to see exactly how du Pre interpreted the works at such an age before more fully maturing. Here -and one only catches glimpses and flashes of this brilliance- the young but very competent cellist displays artistry par with (or tempered by) her virtuosity where unaccompaniment (sans Barenboim) can reach levels of their own excellence. Part dramatic, part contemplative, the pace varies and offers some surprises. Luminous, near-clairvoyant sense of rhythym and eloquence.

Jacqueline du Pré - Her Early BBC Recordings, Volume 1: Bach, Britten, Falla (1989)

Track List:

Johann Sebastian Bach (1686-1750):
01. Cello Suite No. 1 in G BWV1007: I. Prelude [0:02:39.67]
02. Cello Suite No. 1 in G BWV1007: II. Allemande [0:04:43.30]
03. Cello Suite No. 1 in G BWV1007: III. Courante [0:02:51.13]
04. Cello Suite No. 1 in G BWV1007: IV. Sarabande [0:04:11.37]
05. Cello Suite No. 1 in G BWV1007: V. Menuets I & II [0:03:19.05]
06. Cello Suite No. 1 in G BWV1007: VI. Gigue [0:02:02.73]
07. Cello Suite No. 2 in D minor BWV1008: I. Prelude [0:03:19.67]
08. Cello Suite No. 2 in D minor BWV1008: II. Allemande [0:04:04.05]
09. Cello Suite No. 2 in D minor BWV1008: III. Courante [0:01:55.48]
10. Cello Suite No. 2 in D minor BWV1008: IV. Sarabande [0:06:37.52]
11. Cello Suite No. 2 in D minor BWV1008: V. Menuets I & II [0:03:02.70]
12. Cello Suite No. 2 in D minor BWV1008: VI. Gigue [0:02:53.70]
Benjamin Britten (1913-1976):
13. Cello Sonata in C, Op. 65: II. Scherzo (Pizzicato) [0:02:19.33]
14. Cello Sonata in C, Op. 65: IV. Marcia [0:02:05.42]
Manuel de Falla (1876-1946):
15. Suite populaire espagnole: I. El pano moruno [0:02:24.25]
16. Suite populaire espagnole: II. Asturiana [0:02:39.15]
17. Suite populaire espagnole: III. Jota [0:03:26.28]
18. Suite populaire espagnole: IV. Nana [0:02:31.60]
19. Suite populaire espagnole: V. Cancion [0:01:33.72]
20. Suite populaire espagnole: VI. Polo [0:01:28.15]

Performers:
Jacqueline du Pré - cello
Stephen Bishop-Kovacevich - piano
Ernest Lush - paino

Exact Audio Copy V1.0 beta 3 from 29. August 2011

EAC extraction logfile from 30. March 2012, 16:29

Jacqueline du Pré / Bach, Britten, Falla - Jacqueline du Pré

Used drive : HL-DT-STDVDRAM GSA-H10A Adapter: 0 ID: 0

Read mode : Secure
Utilize accurate stream : Yes
Defeat audio cache : Yes
Make use of C2 pointers : No

Read offset correction : 667
Overread into Lead-In and Lead-Out : No
Fill up missing offset samples with silence : Yes
Delete leading and trailing silent blocks : No
Null samples used in CRC calculations : Yes
Used interface : Native Win32 interface for Win NT & 2000

Used output format : User Defined Encoder
Selected bitrate : 1024 kBit/s
Quality : High
Add ID3 tag : No
Command line compressor : C:\Program Files\Exact Audio Copy\Flac\flac.exe
Additional command line options : -8 -V -T "TITLE=%title%" -T "ARTIST=%artist%" -T "ALBUMARTIST=%albumartist%" -T "ALBUM=%albumtitle%" -T "DATE=%year%" -T "TRACKNUMBER=%tracknr%" -T "TRACKTOTAL=%numtracks%" -T "GENRE=%genre%" -T "COMMENT=%comment%" -T "PERFORMER=%albuminterpret%" -T "COMPOSER=%composer%" %source% -o %dest%


TOC of the extracted CD

Track | Start | Length | Start sector | End sector
––––––––––––––––––––––––––––-
1 | 0:00.00 | 2:39.67 | 0 | 11991
2 | 2:39.67 | 4:43.30 | 11992 | 33246
3 | 7:23.22 | 2:51.13 | 33247 | 46084
4 | 10:14.35 | 4:11.37 | 46085 | 64946
5 | 14:25.72 | 3:19.05 | 64947 | 79876
6 | 17:45.02 | 2:02.73 | 79877 | 89099
7 | 19:48.00 | 3:19.67 | 89100 | 104091
8 | 23:07.67 | 4:04.05 | 104092 | 122396
9 | 27:11.72 | 1:55.48 | 122397 | 131069
10 | 29:07.45 | 6:37.52 | 131070 | 160896
11 | 35:45.22 | 3:02.70 | 160897 | 174616
12 | 38:48.17 | 2:53.70 | 174617 | 187661
13 | 41:42.12 | 2:19.33 | 187662 | 198119
14 | 44:01.45 | 2:05.42 | 198120 | 207536
15 | 46:07.12 | 2:24.25 | 207537 | 218361
16 | 48:31.37 | 2:39.15 | 218362 | 230301
17 | 51:10.52 | 3:26.28 | 230302 | 245779
18 | 54:37.05 | 2:31.60 | 245780 | 257164
19 | 57:08.65 | 1:33.72 | 257165 | 264211
20 | 58:42.62 | 1:28.15 | 264212 | 270826


Range status and errors

Selected range

Filename F:\Ripped general\[0432] Bach, Britten, Falla - Jacqueline du Pré\Bach, Britten, Falla - Jacqueline du Pré.wav

Peak level 85.2 %
Extraction speed 7.4 X
Range quality 100.0 %
Test CRC 23B67E26
Copy CRC 23B67E26
Copy OK

No errors occurred


AccurateRip summary

Track 1 accurately ripped (confidence 8) [98CA94AC] (AR v1)
Track 2 accurately ripped (confidence 7) [77B9CA7C] (AR v1)
Track 3 accurately ripped (confidence 7) [17537C80] (AR v1)
Track 4 accurately ripped (confidence 6) [E691AF95] (AR v1)
Track 5 accurately ripped (confidence 7) [0DD8B006] (AR v1)
Track 6 accurately ripped (confidence 8) [1202538B] (AR v1)
Track 7 accurately ripped (confidence 8) [1CDEC9E4] (AR v1)
Track 8 accurately ripped (confidence 7) [9601E12F] (AR v1)
Track 9 accurately ripped (confidence 8) [8F64D268] (AR v1)
Track 10 accurately ripped (confidence 8) [C452A164] (AR v1)
Track 11 accurately ripped (confidence 8) [0C6F9578] (AR v1)
Track 12 accurately ripped (confidence 7) [E2F6FECE] (AR v1)
Track 13 accurately ripped (confidence 8) [174F242C] (AR v1)
Track 14 accurately ripped (confidence 8) [5CB17F8D] (AR v1)
Track 15 accurately ripped (confidence 8) [D654DA7C] (AR v1)
Track 16 accurately ripped (confidence 8) [46FD872E] (AR v1)
Track 17 accurately ripped (confidence 8) [BDA2AFCB] (AR v1)
Track 18 accurately ripped (confidence 8) [7D5E20BE] (AR v1)
Track 19 accurately ripped (confidence 8) [849DCD99] (AR v1)
Track 20 accurately ripped (confidence 8) [22BB7163] (AR v1)

All tracks accurately ripped

End of status report

Thanks to the Original ripper (unknown)!

Welcome to my blog!

Download: