Tags
Language
Tags

James Taylor - Flag (1979) MFSL Remastered 2011 [Re-Up]

Posted By: Designol
James Taylor - Flag (1979) MFSL Remastered 2011 [Re-Up]

James Taylor - Flag (1979) [MFSL Remastered 2011]
EAC | FLAC | Tracks (Cue&Log) ~ 240 Mb | Mp3 (CBR320) ~ 111 Mb | Scans included | 00:43:02
Singer/Songwriter, Soft Rock, Folk Rock | Label: Mobile Fidelity Sound Lab | # UDSACD 2071

Digitally remastered SACD Hybrid edition of this 1979 album from the singer/songwriter. James Taylor was an interesting place when he recorded the colossally underrated Flag. Fresh off his double-platinum J.T., the artist who defines the singer/songwriter genre had just collaborated with Art Garfunkel and Carly Simon, undertaken a Broadway musical, and become more active in political affairs. All these factors contribute to this 1979 treasure, which finds Taylor plying more of his trademark mellow vibes and insightful, soul-gazing lyrics. Flush with exquisite acoustic textures, beautiful tonalities, and studio-perfect dynamics, this audiophile version brings Taylor's music to life like never before.

The James Taylor who gazes out from the gatefold of Flag is an emaciated, jaundiced Yankee eccentric glaring at us with cold, eagleeyed skepticism. The picture is almost the negative of the movie-star-glamorous photo on the cover of JT, the album that marked Taylor's corporate switch from Warner Bros. to Columbia in 1978. But the aesthetic shift from last year's debonair to this year's dour isn't just a gimmick. Whereas the material and tone of JT suggested a similar mellowing of Taylor's personality, Flag's thorny songs and hard, tense arrangements bear witness to the stark and piercing artwork.

If JT presented the kind of urbane, sexy, humorous person that we'd all like to know, Flag peels away the glamour to expose the flinty marrow of a hostile stranger. None of the new cuts has the tantalizing wit of "Handy Man" or the delicious ironic glee of "Secret of Life." Instead, Flag offers the grim self-portrait of a chronically depressed man with a monkey on his back, as Taylor relentlessly accumulates correlatives to his own despair.

One of Flag's strategies is the disparagement, from the viewpoint of the common man, of the American ideals of freedom and work. Taylor obsessively goes all the way with this idea, reiterating in track after track that such freedom never really existed because life itself is a cruel imprisonment. The crux of the LP comes in four dramatic monologues, one of which, "Company Man," is obviously autobiographical. "Company Man" is Taylor's unsparing condemnation of the corporate rock & roll star system. "So if there's something you do well/Something you're proud of/Better to save some for yourself/If that's allowed," he advises an up-and-coming musician.

The other three monologues also examine work, but find only boredom and exploitation. Taylor sees little difference between the life of a rock star — even one as successful as himself — and the more common forms of labor. (A dangerous notion, but he pulls it off.) They're all just jobs whose twin functions are to kill time and make someone else rich at one's own huge psychic expense. "Millworker," Flag's most eloquent song, portrays a widow looking back miserably on a bad marriage and ahead toward nothingness. The narrator of "Brother Trucker" is so hopped up on pills that he literally sees double. "I'm a driving fool/I make my own rules," he proclaims, knowing full well he's lying. Convicted of murder and rotting in an Alabama jail, the protagonist of "Sleep Come Free Me" is a prisoner of the state. Not even allowed the distraction of drudgery, he prays for unconsciousness.

Desolation and rage abound in the compositions that aren't concerned with work. In "I Will Not Lie for You," the artist administers a savage tongue-lashing to a close friend's wife for coming on to him. "Johnnie Comes Back" cryptically describes a man's desperate game of hide-and-seek with his own drug habit. "B.S.U.R." evokes the paranoia and duplicity that can poison a relationship when one of the parties is self-destructing. Finally, there's an icy remake of Taylor's decade-old "Rainy Day Man," perhaps rock's definitive ballad about clinical depression and addiction.

From the predominating darkness, Flag's lighter moments are thrown to us like crumbs — and bitter ones at that. James Taylor's beautiful version of Gerry Goffin and Carole King's "Up on the Roof" is also the saddest ever recorded. His reedy, throbbing twang transforms this big-city anthem of freedom and mystical escape into a ravaged recollection of better days. A churning, modal version of the Beatles' "Day Tripper" (with a disco edge to it) finds the singer keening the chorus in an eerie, Sylvester-like falsetto that turns wit into shrill sarcasm. In "Is That the Way You Look?," a throwaway doo-wop novelty, Taylor does all the backup vocals trompe l'oeil à la the Persuasions — his most controversial use of R&B to date.

Though Flag probably won't be the hit that JT was, on its own uncompromising terms, it's every bit as impressive. Maybe more so. Taylor's new songs are exquisitely crafted, and their pain is so brilliantly understated that you can't dismiss the bleakness as mere self-pity, any more than you can dismiss Ingmar Bergman's darker musings as simple morbidity. What we've got here is as evocative an exploration of one strain of the American character — the Puritan sensibility under extreme stress — as pop music has yet offered.

Taylor's powerful and authentic vision has been masterfully delineated by producer Peter Asher, who keeps the focus on the singer's voice, which has never sounded better. With Bob Dylan in decline, James Taylor has risen to become the foremost vocal exponent of Appalachian folk and Southern blues classicism. No one else can make the plainest phrase ring with so much grit, tenderness and irony.

Flag is the aural equivalent of an Andrew Wyeth painting: austere, meticulous, its palette the color of cracked, dried mud. Like Wyeth's, Taylor's is a tormented and moralistic soul, drawn to the past, but — in some crucial way — cut off from its wellsprings. The result is art that expresses an inexhaustible patrician dolor.

Review by By Stephen Holden (June 28, 1979), RollingStone


James Taylor - Flag (1979) MFSL Remastered 2011 [Re-Up]



Tracklist:

01. Company Man (3:47)
02. Johnnie Comes Back (3:55)
03. Day Tripper (4:26)
04. I Will Not Lie for You (3:17)
05. Brother Trucker (4:02)
06. Is That the Way You Look? (2:03)
07. B.S.U.R. (3:23)
08. Rainy Day Man (3:02)
09. Millworker (3:52)
10. Up on the Roof (4:22)
11. Chanson Francaise (2:05)
12. Sleep Come Free Me (4:48)


Exact Audio Copy V1.3 from 2. September 2016

EAC extraction logfile from 9. July 2017, 23:37

James Taylor / Flag (2011 MFSL)

Used drive : PLEXTOR CD-R PREMIUM Adapter: 1 ID: 1

Read mode : Secure
Utilize accurate stream : Yes
Defeat audio cache : Yes
Make use of C2 pointers : No

Read offset correction : 30
Overread into Lead-In and Lead-Out : No
Fill up missing offset samples with silence : Yes
Delete leading and trailing silent blocks : No
Null samples used in CRC calculations : Yes
Used interface : Native Win32 interface for Win NT & 2000
Gap handling : Appended to previous track

Used output format : User Defined Encoder
Selected bitrate : 768 kBit/s
Quality : High
Add ID3 tag : No
Command line compressor : C:\Program Files (x86)\Exact Audio Copy\FLAC\FLAC.EXE
Additional command line options : -6 -e -p -V -T "ARTIST=%artist%" -T "TITLE=%title%" -T "ALBUM=%albumtitle%" -T "DATE=%year%" -T "TRACKNUMBER=%tracknr%" -T "GENRE=%genre%" -T "PERFORMER=%albuminterpret%" -T "COMPOSER=%composer%" %haslyrics%–tag-from-file=LYRICS="%lyricsfile%"%haslyrics% -T "ALBUMARTIST=%albumartist%" -T "DISCNUMBER=%cdnumber%" -T "TOTALDISCS=%totalcds%" -T "TOTALTRACKS=%numtracks%" -T "COMMENT=%comment%" %source% -o %dest%


TOC of the extracted CD

Track | Start | Length | Start sector | End sector
––––––––––––––––––––––––––––-
1 | 0:00.00 | 3:47.08 | 0 | 17032
2 | 3:47.08 | 3:55.19 | 17033 | 34676
3 | 7:42.27 | 4:25.59 | 34677 | 54610
4 | 12:08.11 | 3:16.38 | 54611 | 69348
5 | 15:24.49 | 4:02.16 | 69349 | 87514
6 | 19:26.65 | 2:03.14 | 87515 | 96753
7 | 21:30.04 | 3:22.43 | 96754 | 111946
8 | 24:52.47 | 3:02.03 | 111947 | 125599
9 | 27:54.50 | 3:52.19 | 125600 | 143018
10 | 31:46.69 | 4:22.23 | 143019 | 162691
11 | 36:09.17 | 2:05.21 | 162692 | 172087
12 | 38:14.38 | 4:48.01 | 172088 | 193688


Track 1

Filename C:\tmp\00_RIPS\01 - Company Man.wav

Pre-gap length 0:00:02.00

Peak level 94.9 %
Extraction speed 8.6 X
Track quality 100.0 %
Test CRC C3F8C914
Copy CRC C3F8C914
Accurately ripped (confidence 17) [CE98EFF6] (AR v2)
Copy OK

Track 2

Filename C:\tmp\00_RIPS\02 - Johnnie Comes Back.wav

Peak level 95.5 %
Extraction speed 9.5 X
Track quality 100.0 %
Test CRC 98C1DE31
Copy CRC 98C1DE31
Accurately ripped (confidence 17) [813BC6BB] (AR v2)
Copy OK

Track 3

Filename C:\tmp\00_RIPS\03 - Day Tripper.wav

Peak level 96.6 %
Extraction speed 10.3 X
Track quality 100.0 %
Test CRC 4EB72094
Copy CRC 4EB72094
Accurately ripped (confidence 17) [8142F92D] (AR v2)
Copy OK

Track 4

Filename C:\tmp\00_RIPS\04 - I Will Not Lie For You.wav

Peak level 96.3 %
Extraction speed 9.0 X
Track quality 99.9 %
Test CRC 6A6F39C1
Copy CRC 6A6F39C1
Accurately ripped (confidence 17) [299C22A1] (AR v2)
Copy OK

Track 5

Filename C:\tmp\00_RIPS\05 - Brother Trucker.wav

Peak level 96.9 %
Extraction speed 11.6 X
Track quality 100.0 %
Test CRC F1806F4A
Copy CRC F1806F4A
Accurately ripped (confidence 17) [951193EA] (AR v2)
Copy OK

Track 6

Filename C:\tmp\00_RIPS\06 - Is That The Way You Look.wav

Peak level 97.3 %
Extraction speed 8.6 X
Track quality 99.9 %
Test CRC D82E827B
Copy CRC D82E827B
Accurately ripped (confidence 17) [8845C003] (AR v2)
Copy OK

Track 7

Filename C:\tmp\00_RIPS\07 - B.S.U.R..wav

Pre-gap length 0:00:04.76

Peak level 96.3 %
Extraction speed 12.3 X
Track quality 100.0 %
Test CRC 7371747F
Copy CRC 7371747F
Accurately ripped (confidence 17) [08720AFF] (AR v2)
Copy OK

Track 8

Filename C:\tmp\00_RIPS\08 - Rainy Day Man.wav

Peak level 98.7 %
Extraction speed 12.6 X
Track quality 100.0 %
Test CRC 5D554474
Copy CRC 5D554474
Accurately ripped (confidence 17) [DD0A9596] (AR v2)
Copy OK

Track 9

Filename C:\tmp\00_RIPS\09 - Millworker.wav

Peak level 97.8 %
Extraction speed 13.2 X
Track quality 100.0 %
Test CRC 1833C41F
Copy CRC 1833C41F
Accurately ripped (confidence 17) [1A2F2CFD] (AR v2)
Copy OK

Track 10

Filename C:\tmp\00_RIPS\10 - Up On The Roof.wav

Peak level 97.8 %
Extraction speed 13.8 X
Track quality 100.0 %
Test CRC E1A2B0A3
Copy CRC E1A2B0A3
Accurately ripped (confidence 17) [C7C196C6] (AR v2)
Copy OK

Track 11

Filename C:\tmp\00_RIPS\11 - Chanson Francaise.wav

Peak level 97.7 %
Extraction speed 13.4 X
Track quality 100.0 %
Test CRC 0863E61D
Copy CRC 0863E61D
Accurately ripped (confidence 17) [AF1180C5] (AR v2)
Copy OK

Track 12

Filename C:\tmp\00_RIPS\12 - Sleep Come Free Me.wav

Peak level 97.0 %
Extraction speed 13.2 X
Track quality 100.0 %
Test CRC DE91C210
Copy CRC DE91C210
Accurately ripped (confidence 17) [E148CCEB] (AR v2)
Copy OK


All tracks accurately ripped

No errors occurred

End of status report

–– CUETools DB Plugin V2.1.6

[CTDB TOCID: wmsamXIKnWfyBswsOtMPDINDrpM-] found
Submit result: wmsamXIKnWfyBswsOtMPDINDrpM- has been confirmed
Track | CTDB Status
1 | (12/12) Accurately ripped
2 | (12/12) Accurately ripped
3 | (12/12) Accurately ripped
4 | (12/12) Accurately ripped
5 | (12/12) Accurately ripped
6 | (12/12) Accurately ripped
7 | (12/12) Accurately ripped
8 | (12/12) Accurately ripped
9 | (12/12) Accurately ripped
10 | (12/12) Accurately ripped
11 | (12/12) Accurately ripped
12 | (12/12) Accurately ripped


==== Log checksum F8FF9296B77E45A22B23028C4E82D54A3E69F142ACE260F4CEEBB46EDFD48AA6 ====

foobar2000 1.2 / Dynamic Range Meter 1.1.1
log date: 2017-07-21 20:47:21

––––––––––––––––––––––––––––––––––––––––
Analyzed: James Taylor / Flag
––––––––––––––––––––––––––––––––––––––––

DR Peak RMS Duration Track
––––––––––––––––––––––––––––––––––––––––
DR12 -0.45 dB -17.50 dB 3:47 01-Company Man
DR13 -0.39 dB -15.62 dB 3:55 02-Johnnie Comes Back
DR12 -0.30 dB -14.28 dB 4:26 03-Day Tripper
DR13 -0.32 dB -16.47 dB 3:17 04-I Will Not Lie for You
DR12 -0.27 dB -16.21 dB 4:02 05-Brother Trucker
DR14 -0.23 dB -17.17 dB 2:03 06-Is That the Way You Look?
DR12 -0.32 dB -16.03 dB 3:23 07-B.S.U.R.
DR14 -0.11 dB -16.70 dB 3:02 08-Rainy Day Man
DR16 -0.19 dB -19.24 dB 3:52 09-Millworker
DR13 -0.19 dB -15.47 dB 4:22 10-Up on the Roof
DR13 -0.20 dB -18.00 dB 2:05 11-Chanson Francaise
DR13 -0.26 dB -16.73 dB 4:48 12-Sleep Come Free Me
––––––––––––––––––––––––––––––––––––––––

Number of tracks: 12
Official DR value: DR13

Samplerate: 44100 Hz
Channels: 2
Bits per sample: 16
Bitrate: 710 kbps
Codec: FLAC
================================================================================

James Taylor - Flag (1979) MFSL Remastered 2011 [Re-Up]

James Taylor - Flag (1979) MFSL Remastered 2011 [Re-Up]