Tags
Language
Tags

James Taylor - In The Pocket (1976)

Posted By: Designol
James Taylor - In The Pocket (1976)

James Taylor - In The Pocket (1976)
EAC | FLAC | Tracks (Cue&Log) ~ 232 Mb | Mp3 (CBR320) ~ 103 Mb | Scans ~ 73 Mb
Label: Warner Bros. | # 7599-27301-2 | Time: 00:45:04
Singer-Songwriter, Soft Rock, Folk Rock

James Taylor's seventh album and last new recording for Warner Bros. is notable for producing his biggest self-written hit in four years, "Shower the People" (number 22 pop, number one easy listening). Bobby Womack's "Woman's Gotta Have It" was the album's only cover, and elsewhere Taylor took on a surprisingly rough set of issues in his typically gentle style, including "A Junkie's Lament" and "Money Machine." There were also reflections on being a "Family Man" even if, due to his peripatetic touring life, "Daddy's All Gone." Guest stars included Art Garfunkel, who harmonized on "Captain Jim's Drunken Dream," and Stevie Wonder, who co-wrote and played harmonica on "Don't Be Sad 'Cause Your Sun Is Down." On the whole, a respectable effort for an artist who was evolving into more of a craftsman than a virtuoso.

Review by William Ruhlmann, Allmusic.com

James Taylor - In The Pocket (1976)



Tracklist:

01. Shower The People (04:34)
02. A Junkie's Lament (03:31)
03. Money Machine (04:36)
04. Slow Burning Love (03:44)
05. Everybody Has The Blues (02:03)
06. Daddy's All Gone (03:37)
07. Woman's Gotta Have It (04:20)
08. Captain Jim's Drunken Dream (04:04)
09. Don't Be Sad 'Cause Your Sun Is Down (03:30)
10. Nothing Like A Hundred Miles (03:45)
11. Family Man (03:39)
12. Golden Moments (03:34)


Exact Audio Copy V1.0 beta 3 from 29. August 2011

Отчёт EAC об извлечении, выполненном 10. апреля 2015, 21:29

James Taylor / In The Pocket

Дисковод: ATAPI iHAS124 W Adapter: 2 ID: 0

Режим чтения : Достоверность
Использование точного потока : Да
Отключение кэша аудио : Да
Использование указателей C2 : Нет

Коррекция смещения при чтении : 48
Способность читать области Lead-in и Lead-out : Нет
Заполнение пропущенных сэмплов тишиной : Да
Удаление блоков с тишиной в начале и конце : Нет
При вычислениях CRC использовались нулевые сэмплы : Да
Интерфейс : Встроенный Win32-интерфейс для Win NT/2000
Обработка зазоров : Добавлено к предыдущему треку

Выходной формат : Пользовательский кодировщик
Выбранный битрейт : 128 kBit/s
Качество : Высокий
Добавление ID3-тега : Нет
Утилита сжатия : C:\Program Files\Exact Audio Copy\Flac\flac.exe
Дополнительные параметры : -V -8 -T "Genre=%genre%" -T "Artist=%artist%" -T "Title=%title%" -T "Album=%albumtitle%" -T "Date=%year%" -T "Tracknumber=%tracknr%" -T "Comment=%comment%" %source%


TOC извлечённого CD

Трек | Старт | Длительность | Начальный сектор | Конечный сектор
––––––––––––––––––––––––––––––––––-
1 | 0:00.00 | 4:34.45 | 0 | 20594
2 | 4:34.45 | 3:31.27 | 20595 | 36446
3 | 8:05.72 | 4:36.58 | 36447 | 57204
4 | 12:42.55 | 3:44.15 | 57205 | 74019
5 | 16:26.70 | 2:03.62 | 74020 | 83306
6 | 18:30.57 | 3:37.53 | 83307 | 99634
7 | 22:08.35 | 4:20.60 | 99635 | 119194
8 | 26:29.20 | 4:04.37 | 119195 | 137531
9 | 30:33.57 | 3:30.25 | 137532 | 153306
10 | 34:04.07 | 3:45.30 | 153307 | 170211
11 | 37:49.37 | 3:39.63 | 170212 | 186699
12 | 41:29.25 | 3:34.67 | 186700 | 202816


Трек 1

Имя файла C:\Users\Сергей\Desktop\EAC\01. Shower The People.wav

Длина предзазора 0:00:02.00

Пиковый уровень 95.4 %
Скорость извлечения 4.5 X
Качество трека 100.0 %
CRC теста C9A5F261
CRC копии C9A5F261
Точность не определена (достоверность 5) [BDB2BC6E], AccurateRip вернул [6104A6AC] (AR v2)
Копирование… OK

Трек 2

Имя файла C:\Users\Сергей\Desktop\EAC\02. A Junkie's Lament.wav

Длина предзазора 0:00:03.55

Пиковый уровень 95.7 %
Скорость извлечения 4.9 X
Качество трека 100.0 %
CRC теста DDAB0B06
CRC копии DDAB0B06
Точность не определена (достоверность 6) [B24402F3], AccurateRip вернул [B3A84262] (AR v2)
Копирование… OK

Трек 3

Имя файла C:\Users\Сергей\Desktop\EAC\03. Money Machine.wav

Длина предзазора 0:00:04.32

Пиковый уровень 82.3 %
Скорость извлечения 5.5 X
Качество трека 100.0 %
CRC теста D8CD0B2A
CRC копии D8CD0B2A
Точность не определена (достоверность 6) [69BF78D6], AccurateRip вернул [CFBB6A30] (AR v2)
Копирование… OK

Трек 4

Имя файла C:\Users\Сергей\Desktop\EAC\04. Slow Burning Love.wav

Длина предзазора 0:00:03.48

Пиковый уровень 82.1 %
Скорость извлечения 5.8 X
Качество трека 100.0 %
CRC теста 6EAECEEC
CRC копии 6EAECEEC
Точность не определена (достоверность 6) [2E641554], AccurateRip вернул [2EF88833] (AR v2)
Копирование… OK

Трек 5

Имя файла C:\Users\Сергей\Desktop\EAC\05. Everybody Has The Blues.wav

Длина предзазора 0:00:01.63

Пиковый уровень 80.6 %
Скорость извлечения 3.0 X
Качество трека 99.9 %
CRC теста 7BB78F97
CRC копии 7BB78F97
Точность не определена (достоверность 6) [8324EBE1], AccurateRip вернул [DA90314E] (AR v2)
Копирование… OK

Трек 6

Имя файла C:\Users\Сергей\Desktop\EAC\06. Daddy's All Gone.wav

Длина предзазора 0:00:03.15

Пиковый уровень 84.3 %
Скорость извлечения 6.2 X
Качество трека 100.0 %
CRC теста 796ED3DE
CRC копии 796ED3DE
Точность не определена (достоверность 6) [EFA92DED], AccurateRip вернул [FA773E1A] (AR v2)
Копирование… OK

Трек 7

Имя файла C:\Users\Сергей\Desktop\EAC\07. Woman's Gotta Have It.wav

Длина предзазора 0:00:02.50

Пиковый уровень 100.0 %
Скорость извлечения 6.7 X
Качество трека 100.0 %
CRC теста 516E9468
CRC копии 516E9468
Точность не определена (достоверность 4) [72A8EF57], AccurateRip вернул [5CA3622F] (AR v2)
Копирование… OK

Трек 8

Имя файла C:\Users\Сергей\Desktop\EAC\08. Captain Jim's Drunken Dream.wav

Длина предзазора 0:00:04.23

Пиковый уровень 91.4 %
Скорость извлечения 7.0 X
Качество трека 100.0 %
CRC теста A03798FD
CRC копии A03798FD
Точность не определена (достоверность 7) [3E956F93], AccurateRip вернул [9874A5E8] (AR v2)
Копирование… OK

Трек 9

Имя файла C:\Users\Сергей\Desktop\EAC\09. Don't Be Sad 'Cause Your Sun Is Down.wav

Длина предзазора 0:00:04.45

Пиковый уровень 93.4 %
Скорость извлечения 7.1 X
Качество трека 100.0 %
CRC теста F54773D1
CRC копии F54773D1
Точность не определена (достоверность 7) [715BD83B], AccurateRip вернул [6F55452C] (AR v2)
Копирование… OK

Трек 10

Имя файла C:\Users\Сергей\Desktop\EAC\10. Nothing Like A Hundred Miles.wav

Длина предзазора 0:00:03.42

Пиковый уровень 92.4 %
Скорость извлечения 5.0 X
Качество трека 99.9 %
CRC теста 81AE4310
CRC копии 81AE4310
Точность не определена (достоверность 7) [2015C18B], AccurateRip вернул [67511AA4] (AR v2)
Копирование… OK

Трек 11

Имя файла C:\Users\Сергей\Desktop\EAC\11. Family Man.wav

Длина предзазора 0:00:04.02

Пиковый уровень 100.0 %
Скорость извлечения 7.6 X
Качество трека 100.0 %
CRC теста 26F0DC16
CRC копии 26F0DC16
Точность не определена (достоверность 7) [28F14BDF], AccurateRip вернул [2732F866] (AR v2)
Копирование… OK

Трек 12

Имя файла C:\Users\Сергей\Desktop\EAC\12. Golden Moments.wav

Длина предзазора 0:00:04.30

Пиковый уровень 53.5 %
Скорость извлечения 7.8 X
Качество трека 100.0 %
CRC теста 90E7285A
CRC копии 90E7285A
Точность не определена (достоверность 7) [CF9426CA], AccurateRip вернул [5C9FF77A] (AR v2)
Копирование… OK


Ни один трек не прошёл проверки на точность
В вашей базе может быть иной вариант штамповки диска

Ошибок не произошло

Конец отчёта

==== Контрольная сумма отчёта B45046708CB51F2F24F8CE4BA6CC467000A88E01139B7E402C68D37A9A8B2796 ====

foobar2000 1.2 / Dynamic Range Meter 1.1.1
log date: 2016-04-28 17:39:26

––––––––––––––––––––––––––––––––––––––––
Analyzed: James Taylor / In The Pocket
––––––––––––––––––––––––––––––––––––––––

DR Peak RMS Duration Track
––––––––––––––––––––––––––––––––––––––––
DR14 -0.40 dB -18.59 dB 4:35 01-Shower The People
DR13 -0.38 dB -18.46 dB 3:31 02-A Junkie's Lament
DR14 -1.69 dB -18.34 dB 4:37 03-Money Machine
DR13 -1.70 dB -18.37 dB 3:44 04-Slow Burning Love
DR14 -1.86 dB -18.86 dB 2:04 05-Everybody Has The Blues
DR16 -1.48 dB -22.36 dB 3:38 06-Daddy's All Gone
DR12 0.00 dB -15.53 dB 4:21 07-Woman's Gotta Have It
DR13 -0.77 dB -16.55 dB 4:04 08-Captain Jim's Drunken Dream
DR13 -0.59 dB -17.69 dB 3:30 09-Don't Be Sad 'Cause Your Sun Is Down
DR14 -0.68 dB -18.79 dB 3:45 10-Nothing Like A Hundred Miles
DR14 0.00 dB -16.45 dB 3:40 11-Family Man
DR13 -5.42 dB -22.27 dB 3:35 12-Golden Moments
––––––––––––––––––––––––––––––––––––––––

Number of tracks: 12
Official DR value: DR14

Samplerate: 44100 Hz
Channels: 2
Bits per sample: 16
Bitrate: 639 kbps
Codec: FLAC
================================================================================

James Taylor - In The Pocket (1976)

James Taylor - In The Pocket (1976)

All thanks to original releaser - Gera1957

More interesting music in My Blog