Tags
Language
Tags
February 2023
Su Mo Tu We Th Fr Sa
29 30 31 1 2 3 4
5 6 7 8 9 10 11
12 13 14 15 16 17 18
19 20 21 22 23 24 25
26 27 28 1 2 3 4

James Brown - Take A Look At Those Cakes (1978) [2017, Remastered Reissue] {Mini-LP HDCD, Limited Edition}

Posted By: BlondStyle
James Brown - Take A Look At Those Cakes (1978) [2017, Remastered Reissue] {Mini-LP HDCD, Limited Edition}

James Brown - Take A Look At Those Cakes (1978) [2017, Remastered Reissue]
R&B, Soul/Funk, Disco | EAC Rip | FLAC, Tracks+CUE+LOG+Scans (JPEG) | 41:31 | 305,14 Mb
Label: Polydor/Universal/Culture Factory (EU) | Cat.# 782 707 | Released: 2017-10-10 (1978)
James Brown - Take A Look At Those Cakes (1978) [2017, Remastered Reissue] {Mini-LP HDCD, Limited Edition}

"Take A Look At Those Cakes" is the 47th studio album by American musician James Brown. The album was released in December 1978, by Polydor Records.
~Wikipedia
James Brown helpfully offers his own review of this album on the back of the LP jacket: "Take a Look at Those Cakes is my greatest since The Payback," he writes. Never trust an artist to rate his or her own work. The (near) title track, "For Goodness Sakes, Look at Those Cakes," is Brown's 11-minute tribute to the female derriere, but it doesn't match such classics of the somewhat limited genre as "Shake Your Booty." It does have a percolating rhythm track, however, indicating that Brown is at least keeping up with dance music trends. Still, whatever the never-humble Brown may have thought, this album did not represent a comeback.
~Review by William Ruhlmann

James Brown - Take A Look At Those Cakes (1978) [2017, Remastered Reissue] {Mini-LP HDCD, Limited Edition}

James Brown - Take A Look At Those Cakes (1978) [2017, Remastered Reissue] {Mini-LP HDCD, Limited Edition}




Release of the album: 1978, December [LP Polydor, Cat.# PD 1 6181, USA]
Release of this CD: 2017, October, 10 [CD Polydor/Culture Factory (EU), Cat.# 782 707 / UPC: 3700477827076]
℗ 1979 Universal Records, a Division of UMG Recordings, Inc.
℗ 2017 Universal Music Projets Spéciaux.
Made in the EU (France)

Notes: Limited HDCD pressing in mini LP sleeve. High definition 24-bit Remastered Edition.

Credits:

Arranged By, Written-By – St-Clair Pinckney (tracks: 3, 4)
Written-By – Deidre Brown (tracks: 1, 2, 4)
Written-By, Producer, Arranged By – James Brown


Tracklist:

01. For Goodness Sakes, Look At Those Cakes (11:05)
02. A Man Understands (08:30)
03. Someone To Talk To (07:03)
04. Spring (06:36)
05. As Long As I Love You (08:17)

Exact Audio Copy V1.3 from 2. September 2016

EAC extraction logfile from 19. September 2018, 21:46

James Brown / Take a Look at Those Cakes

Used drive : PLEXTOR PX-891SAF Adapter: 1 ID: 0

Read mode : Secure
Utilize accurate stream : Yes
Defeat audio cache : Yes
Make use of C2 pointers : No

Read offset correction : 6
Overread into Lead-In and Lead-Out : No
Fill up missing offset samples with silence : Yes
Delete leading and trailing silent blocks : No
Null samples used in CRC calculations : Yes
Used interface : Native Win32 interface for Win NT & 2000
Gap handling : Appended to previous track

Used output format : User Defined Encoder
Selected bitrate : 1024 kBit/s
Quality : High
Add ID3 tag : No
Command line compressor : C:\Program Files (x86)\Exact Audio Copy\Flac\flac.exe
Additional command line options : -8 -V -T "ARTIST=%artist%" -T "TITLE=%title%" -T "ALBUM=%albumtitle%" -T "DATE=%year%" -T "TRACKNUMBER=%tracknr%" -T "GENRE=%genre%" -T "PERFORMER=%albuminterpret%" -T "COMPOSER=%composer%" %haslyrics%–tag-from-file=LYRICS="%lyricsfile%"%haslyrics% -T "ALBUMARTIST=%albumartist%" -T "DISCNUMBER=%cdnumber%" -T "TOTALDISCS=%totalcds%" -T "TOTALTRACKS=%numtracks%" -T "COMMENT=%comment%" %source% -o %dest%


TOC of the extracted CD

Track | Start | Length | Start sector | End sector
––––––––––––––––––––––––––––-
1 | 0:00.00 | 11:04.44 | 0 | 49843
2 | 11:04.44 | 8:30.19 | 49844 | 88112
3 | 19:34.63 | 7:02.63 | 88113 | 119825
4 | 26:37.51 | 6:36.01 | 119826 | 149526
5 | 33:13.52 | 8:17.18 | 149527 | 186819


Track 1

Filename D:\Rotterdam 2018 II\James Brown - Take A Look At Those Cakes\01. James Brown - For Goodness Sakes, Look At Those Cakes.wav

Pre-gap length 0:00:02.00

Peak level 99.4 %
Extraction speed 5.9 X
Track quality 100.0 %
Test CRC 2DFE6E4C
Copy CRC 2DFE6E4C
Accurately ripped (confidence 1) [51EF780F] (AR v2)
Copy OK

Track 2

Filename D:\Rotterdam 2018 II\James Brown - Take A Look At Those Cakes\02. James Brown - A Man Understands.wav

Peak level 99.4 %
Extraction speed 6.4 X
Track quality 99.9 %
Test CRC C82CAB69
Copy CRC C82CAB69
Accurately ripped (confidence 1) [1FD2D854] (AR v2)
Copy OK

Track 3

Filename D:\Rotterdam 2018 II\James Brown - Take A Look At Those Cakes\03. James Brown - Someone To Talk To.wav

Peak level 99.4 %
Extraction speed 7.8 X
Track quality 100.0 %
Test CRC 5B00B001
Copy CRC 5B00B001
Accurately ripped (confidence 1) [3DAF3493] (AR v2)
Copy OK

Track 4

Filename D:\Rotterdam 2018 II\James Brown - Take A Look At Those Cakes\04. James Brown - Spring.wav

Peak level 99.4 %
Extraction speed 8.3 X
Track quality 100.0 %
Test CRC FA7DF3F7
Copy CRC FA7DF3F7
Accurately ripped (confidence 1) [A3E3C19F] (AR v2)
Copy OK

Track 5

Filename D:\Rotterdam 2018 II\James Brown - Take A Look At Those Cakes\05. James Brown - As Long As I Love You.wav

Peak level 99.4 %
Extraction speed 9.0 X
Track quality 100.0 %
Test CRC 135FB311
Copy CRC 135FB311
Accurately ripped (confidence 1) [B27310CE] (AR v2)
Copy OK


All tracks accurately ripped

No errors occurred

End of status report

–– CUETools DB Plugin V2.1.6

[CTDB TOCID: UL6tKKsD8RPGlsgAh31ngRq8Y50-] found
Submit result: UL6tKKsD8RPGlsgAh31ngRq8Y50- has been confirmed
Track | CTDB Status
1 | (3/3) Accurately ripped
2 | (3/3) Accurately ripped
3 | (3/3) Accurately ripped
4 | (3/3) Accurately ripped
5 | (3/3) Accurately ripped


==== Log checksum C94C2E51871338A8F4112A160C43C52E1DC6A5B7E533CADAA206CC666B37F8BA ====

––––––––––––––––––––––––––––––––––––––––
Analyzed: James Brown / Take a Look at Those Cakes
––––––––––––––––––––––––––––––––––––––––

DR Peak RMS Duration Track
––––––––––––––––––––––––––––––––––––––––
DR7 -0.05 dB -8.41 dB 11:05 01-For Goodness Sakes, Look At Those Cakes
DR8 -0.05 dB -8.99 dB 8:30 02-A Man Understands
DR8 -0.05 dB -9.46 dB 7:03 03-Someone To Talk To
DR7 -0.05 dB -8.89 dB 6:36 04-Spring
DR8 -0.05 dB -9.31 dB 8:17 05-As Long As I Love You
––––––––––––––––––––––––––––––––––––––––

Number of tracks: 5
Official DR value: DR8

Samplerate: 44100 Hz
Channels: 2
Bits per sample: 16
Bitrate: 989 kbps
Codec: FLAC
================================================================================

Thanks to original releaser

♫~Welcome To My Blog~♫

password: BlondStyle