Tags
Language
Tags

Jay Hoggard - The Little Tiger (1991) {Muse Records}

Posted By: tiburon
Jay Hoggard - The Little Tiger (1991) {Muse Records}

Jay Hoggard - The Little Tiger (1991) {Muse Records}
EAC 1.0b2 | FLAC tracks level 8 | Cue+Log+M3U | Full Scans 300dpi | 284MB + 5% Recovery
MP3 CBR 320 Kbps | 123MB + 5% Recovery
Genre: Jazz, Post-Bop
Jay Hoggard - The Little Tiger (1991) {Muse Records}

Vibraphonist Jay Hoggard gained his initial recognition for his playing in avant-garde and adventurous settings. By the late 80s, Hoggard had decided to explore hard bop and straight-ahead jazz. On this out of print but worthy CD, the vibraphonist recalls Bobby Hutcherson and Milt Jackson in spots, swinging on a variety of originals, Stevie Wonder's "You And I" and "Sonny's Themes" (which covers Sonny Rollins' "Alfie" and "Sonnymoon for Two"). The young Benny Green is a major asset on piano, bassist Marcus McLaurine and drummer Yoron Israel are excellent in support, and Hoggard's songs are full of variety and color. This set (which is otherwise from 1980) concludes with a live and unaccompanied 1977 rendition of "God Is Capable of Everything," on which Hoggard plays quite beautifully.
Track List
01. Sonny's Themes (Alfie's Theme, Sonnymoon for Two) (Rollins) 7:37
02. The Little Tiger (Hoggard) 8:22
03. You and I (Wonder) 4:50
04. N.T.T.T. (Andrews) 4:11
05. Elijah Rock (Trad.) 5:01
06. Mystic Winds, Tropic Breezes (Hoggard) 9:51
07. Beautiful Nowai (Hoggard) 6:50
08. God Is Capable of Everything (Hoggard) 6:44

musicians
Jay Hoggard - vibraphone
Benny Green - piano
Marcus McLaurine - bass
Yoron Israel - drums

Produced by Jay Hoggard


Exact Audio Copy V1.0 beta 2 from 29. April 2011

EAC extraction logfile from 12. February 2014, 0:02

Jay Hoggard / The Little Tiger

Used drive : HL-DT-STDVDRAM GH24NS50 Adapter: 0 ID: 0

Read mode : Secure
Utilize accurate stream : Yes
Defeat audio cache : Yes
Make use of C2 pointers : No

Read offset correction : 667
Overread into Lead-In and Lead-Out : No
Fill up missing offset samples with silence : Yes
Delete leading and trailing silent blocks : No
Null samples used in CRC calculations : Yes
Used interface : Installed external ASPI interface
Gap handling : Appended to previous track

Used output format : User Defined Encoder
Selected bitrate : 768 kBit/s
Quality : High
Add ID3 tag : No
Command line compressor : E:\Programmi\Exact Audio Copy\Flac\flac.exe
Additional command line options : -8 -V -T "ARTIST=%artist%" -T "TITLE=%title%" -T "ALBUM=%albumtitle%" -T "DATE=%year%" -T "TRACKNUMBER=%tracknr%" -T "TOTALTRACKS=%numtracks%" -T "GENRE=%genre%" -T "ALBUMARTIST=%albumartist%" -T "ALBUM ARTIST=%albumartist%


TOC of the extracted CD

Track | Start | Length | Start sector | End sector
––––––––––––––––––––––––––––-
1 | 0:00.00 | 7:37.33 | 0 | 34307
2 | 7:37.33 | 8:22.30 | 34308 | 71987
3 | 15:59.63 | 4:49.65 | 71988 | 93727
4 | 20:49.53 | 4:10.62 | 93728 | 112539
5 | 25:00.40 | 5:01.00 | 112540 | 135114
6 | 30:01.40 | 9:50.68 | 135115 | 179432
7 | 39:52.33 | 6:49.45 | 179433 | 210152
8 | 46:42.03 | 6:44.07 | 210153 | 240459


Track 1

Filename C:\Documents and Settings\user\Desktop\Jay Hoggard - The Little Tiger (1991) [FLAC] {Muse}\01 - Sonny's Theme.wav

Pre-gap length 0:00:02.00

Peak level 88.5 %
Extraction speed 1.1 X
Track quality 100.0 %
Test CRC F6E1DD47
Copy CRC F6E1DD47
Accurately ripped (confidence 1) [3D7A8A2E] (AR v2)
Copy OK

Track 2

Filename C:\Documents and Settings\user\Desktop\Jay Hoggard - The Little Tiger (1991) [FLAC] {Muse}\02 - The Little Tiger.wav

Pre-gap length 0:00:02.33

Peak level 81.3 %
Extraction speed 1.4 X
Track quality 100.0 %
Test CRC 4EDDC2DD
Copy CRC 4EDDC2DD
Accurately ripped (confidence 1) [5148B14E] (AR v2)
Copy OK

Track 3

Filename C:\Documents and Settings\user\Desktop\Jay Hoggard - The Little Tiger (1991) [FLAC] {Muse}\03 - You and I.wav

Pre-gap length 0:00:01.48

Peak level 54.3 %
Extraction speed 1.4 X
Track quality 100.0 %
Test CRC 6173A9D5
Copy CRC 6173A9D5
Accurately ripped (confidence 1) [19EC5CAD] (AR v2)
Copy OK

Track 4

Filename C:\Documents and Settings\user\Desktop\Jay Hoggard - The Little Tiger (1991) [FLAC] {Muse}\04 - N.T.T.T..wav

Pre-gap length 0:00:01.48

Peak level 82.5 %
Extraction speed 1.5 X
Track quality 100.0 %
Test CRC 56B41D8E
Copy CRC 56B41D8E
Accurately ripped (confidence 1) [7384C4D1] (AR v2)
Copy OK

Track 5

Filename C:\Documents and Settings\user\Desktop\Jay Hoggard - The Little Tiger (1991) [FLAC] {Muse}\05 - Elijah Rock.wav

Pre-gap length 0:00:01.40

Peak level 86.9 %
Extraction speed 1.6 X
Track quality 100.0 %
Test CRC 46F8D614
Copy CRC 46F8D614
Accurately ripped (confidence 1) [CC16F5C5] (AR v2)
Copy OK

Track 6

Filename C:\Documents and Settings\user\Desktop\Jay Hoggard - The Little Tiger (1991) [FLAC] {Muse}\06 - Mystic Winds, Tropic Breezes.wav

Pre-gap length 0:00:01.50

Peak level 86.6 %
Extraction speed 1.9 X
Track quality 100.0 %
Test CRC C1604294
Copy CRC C1604294
Accurately ripped (confidence 1) [5467ACE8] (AR v2)
Copy OK

Track 7

Filename C:\Documents and Settings\user\Desktop\Jay Hoggard - The Little Tiger (1991) [FLAC] {Muse}\07 - Beautiful Nowai.wav

Pre-gap length 0:00:02.20

Peak level 87.5 %
Extraction speed 1.9 X
Track quality 100.0 %
Test CRC B788702B
Copy CRC B788702B
Accurately ripped (confidence 1) [AE43E47C] (AR v2)
Copy OK

Track 8

Filename C:\Documents and Settings\user\Desktop\Jay Hoggard - The Little Tiger (1991) [FLAC] {Muse}\08 - God is Capable of Everything.wav

Pre-gap length 0:00:01.63

Peak level 76.7 %
Extraction speed 2.0 X
Track quality 99.9 %
Test CRC 82740617
Copy CRC 82740617
Accurately ripped (confidence 1) [56A96364] (AR v2)
Copy OK


All tracks accurately ripped

No errors occurred

End of status report

==== Log checksum BA0B6633B704D01598F7FA2355DD9B96954A7EEEFD0B8ABAEBFA015B5706C2F1 ====


––––––––––––––––––––––––––––––––––––––––
Analyzed: Jay Hoggard / The Little Tiger
––––––––––––––––––––––––––––––––––––––––

DR Peak RMS Duration Track
––––––––––––––––––––––––––––––––––––––––
DR14 -1.06 dB -18.11 dB 7:37 01-Sonny's Themes (Alfie's Theme, Sonnymoon for Two)
DR11 -1.79 dB -15.86 dB 8:22 02-The Little Tiger
DR11 -5.29 dB -22.17 dB 4:50 03-You and I
DR11 -1.66 dB -15.29 dB 4:11 04-N.T.T.T.
DR13 -1.21 dB -19.24 dB 5:01 05-Elijah Rock
DR14 -1.25 dB -17.82 dB 9:51 06-Mystic Winds, Tropic Breezes
DR12 -1.15 dB -17.98 dB 6:50 07-Beautiful Nowai
DR13 -2.30 dB -19.86 dB 6:44 08-God Is Capable of Everything
––––––––––––––––––––––––––––––––––––––––

Number of tracks: 8
Official DR value: DR12

Samplerate: 44100 Hz
Channels: 2
Bits per sample: 16
Bitrate: 467 kbps
Codec: FLAC
================================================================================

Jay Hoggard - The Little Tiger (1991) {Muse Records}
Jay Hoggard - The Little Tiger (1991) {Muse Records}
Jay Hoggard - The Little Tiger (1991) {Muse Records}


Thanks to the original ripper