Tags
Language
Tags

Jean-Claude Malgoire, La Grande Écurie et la Chambre du Roy - Rameau: Les Indes galantes (2016)

Posted By: ArlegZ
Jean-Claude Malgoire, La Grande Écurie et la Chambre du Roy - Rameau: Les Indes galantes (2016)

Jean-Claude Malgoire, La Grande Écurie et la Chambre du Roy - Rameau: Les Indes galantes (2016)
EAC | FLAC | Image (Cue & Log) ~ 926 Mb | Total time: 55:46+55:24+54:02 | Scans included
Classical | Label: Sony Classical | 88985338292 | Recorded: 1974

I know of no Rameau work more colourful, more melodious, more replete with inventive vitality, wrote Gramophone in reviewing this 1973 premiere recording of the French Baroque masters 1735 heroic ballet Les Indes galantes. There is immense enthusiasm and spirit in this performance [and] some excellent singing Among the array of sopranos I was specially impressed by the full, bright ring of Rachel Yakar Anne-Marie Rodde: a good stylist and a clean, accurate voice, coping well with Rameaus florid detail The tenor Bruce Brewer is a real find for the lyrical French roles: his voice is very smooth and graceful In all, a set which no Rameau admirer should miss. Conducted by Rameau specialist Jean-Claude Malgoire, it is now being issued for the first time on CD.

Performer:
Hébé / Fatime - Anne-Marie Rodde
Émilie - Rachel Yakar
Phani / Zaïre - Sonia Nigoghossian
Zima - Jeanine Micheau
Bellone / Osman / Don Alvar - Christian Tréguier
Valère / Carlos / Tacmas / Damon - Bruce Brewer
Huascar - Pierre-Yves Le Maigat
Ali - Jean-Christophe Benoît
Adario - Jean-Marie Gouélou
Ensemble Vocal Raphaël Passaquet
La Grande Écurie et la Chambre du Roy
Conductor - Jean-Claude Malgoire

Track List:
CD1:
Prologue
01. Overture
02. Scène 1 - Air “Vous, qui d’Hébé suivez les lois” (Hébé)
03. Scène 2 - Entrée des 4 Nations
04. Scène 2 - Air grave pour deux Polonais
05. Scène 2 - Air et Chœur “Musettes, résonez” (Hébé, chœur)
06. Scène 2 - Musette en Rondeau
07. Scène 2 - Recitatif “Qu’entends-je!” (Hébé); Scène 3 - “La Gloire vous appelle” (Bellone, chœur)
08. Scène 3 - Air pour deux guerriers portant les drapeaux
09. Scène 3 - “Vous nous abandonnez” (Chœur)
10. Scène 4 - Recitatif “Bellone les entraîne” (Hébé)
11. Scène 5 - Contredanse
12. Scène 5 - Chœur “Traversez les plus vastes mers” (Chœur, Hébé)
Première entrée ‘Le Turc généreux’
13. Scène 1 - Ritournelle
14. Scène 1 - “C’est Osman qui me suit” (Émilie, Osman)
15. Scène 1 - “Dans le séjour témoin de ma naissance” (Émilie)
16. Scène 1 - “Qu’en peignant vos malheurs vous redoublez mes maux!” (Osman, Émilie)
17. Scène 1 - Air “Il faut que l’amour s’envole” (Osman), “Je vous quitte, belle Émilie” (Osman); Scène 2 - “Que je ne verrai plus, barbare!” (Émilie)
18. Scène 2 - “La nuit couvre les cieux” (Émilie), Air “Vaste empire des mers” (Émilie), “Ciel! de plus d’une mort nous redoutons les coups” (Chœur)
19. Scène 2 - “Que ces cris agitent mes sens!” (Émilie, chœur)
20. Scène 2 - “D’infortunés captifs vont partager nos peines” (Émilie), “Un de ces malheureux approche en soupirant!” (Émilie, Valère)
21. Scène 3 - “Sur ces bords une âme enflammée partage ses vœux”; Scène 4 - “Esclave, je viens de t’entendre” (Osman, Valère, Émilie); Scène 5 - “Fut-il jamais un coeur plus généreux? (Valère)
22. Scène 6 - Marche, Duo “Volez, Zéphirs, volez” (Émilie, Valère)
23. Scène 6 - Air pour les esclaves africains
24. Scène 6 - Ariette “Hâtez-vous de vous embarquer” (Valère)
25. Scène 6 - Premier Rigaudon, Deuxième Rigaudon, “Fuyez, vents orageux!” (Émilie), Premier Rigaudon (reprise)
26. Scène 6 - Ariette “Régnez, Amour” (Émilie)
27. Scène 6 - Premier Tambourin, Deuxième Tambourin, Premier Tambourin (reprise), “Partez! On languit sur le rivage” (Émilie, chœur), Premier Tambourin (reprise)
CD2:
Deuxième entrée ‘Les Incas du Pérou’
01. Scène 1 - “Vous devez bannir de votre âme la criminelle erreur qui séduit les Incas” (Carlos, Phani)
02. Scène 2 - Air “Viens, hymen, viens m’unir au vainqueur que j’adore” (Phani)
03. Scène 3 - “Elle est seule… parlons” (Huascar), Air “Le Dieu de nos climats dans ce beau jour m’inspire” (Huascar)
04. Deuxième entrée ‘Les Incas du Pérou’; Scène 3 - Air “Non, non, je ne crois pas tout ce que l’on assure en attestant les cieux!” (Phani), “Pour le Dieux et pour moi quel coupable injure” (Huascar); Scène 4 - “On vient, dissimulons mes transports à leurs yeux” (Huascar)
05. Scène 5 - Prélude, Air “Soleil, on a détruit tes superbes asiles” (Huascar)
06. Scène 5 - Prélude pour l’adoration du Soleil, Air “Brillant soleil” (Huascar, chœur)
07. Scène 5 - Air des Incas pour la dévotion du Soleil
08. Scène 5 - Air “Clair flambeau du monde” (Huascar, chœur)
09. Scène 5 - Loure en Rondeau, Air “Permettez, astre du jour” (Huascar)
10. Scène 5 - Premiere Gavotte, Deuxieme Gavotte en Rondeau, Premier Gavotte
11. Scène 5 - Tremblement du terre, “Dans les abîmes de la terre les vents se déclarent guerre” (Chœur)
12. Scène 6 - “Arrêtez! Par ces feux le ciel vient de m’apprendre” (Huascar, Phani); Scène 7 - “Quoi! plus que péril mon amour vous étonne?” (Huascar, Phani, Carlos)
13. Scène 8 - Trio “Pour jamais, l’amour nous engage” (Phani, Carlos, Huascar); Scène 8 - “La flamme se rallume encore” (Huascar)
Troisième entrée ‘Les Fleurs, fête persane’
14. Scène 1 - Ritournelle
15. Scène 1 - “Mon abord paraît l’interdire” (Ali, Tacmas), Air “L’objet à qui je rends les armes” (Tacmas), “Pourquoi vous déguiser à l’aimable Zaïre” (Ali, Tacmas); Scène 2 - “Elle livrée à quelque inquiétude” (Tacmas)
16. Scène 3 - Air “Amour, quand du destin j’éprouve la rigueur” (Zaïre)
17. Scène 4 - “Quoi, Zaïre ose aimer!” (Zaïre, Tacmas), Duo “Peut-on aimer dans l’esclavage?” (Zaïre, Tacmas)
18. Scène 4 - “Cessez ce vain discours!” (Zaïre, Tacmas); Scène 5 - “Que vois-je? c’est le téméraire” (Tacmas, Fatime); Scène 6 - “Suspendons un instant ma trop juste vengeance” (Tacmas)
19. Scène 6 - Air “Dans ces jardins l’amour m’appelle” (Fatime), “Puisque de ces beaux lieux vous connaissez le maître” (Fatime, Tacmas); Scène 7 - “Achevez, nommez-vous!” (Tacmas, Fatime, Ali, Zaïre)
20. Scène 7 - Air “Deviez-vous vous méprendre à mes sens agités?” (Zaïre), “Je prétends que l’hymen vous assure ma foi” (Tacmas, Zaïre)
21. Scène 7 - Duo “Ah! Seigneur, quel moment!” (Fatime, Ali), Quatuor “Tendre amour” (Tacmas, Zaïre, Fatime, Ali)
CD3:
01. Troisième entrée ‘Les Fleurs, fête persane’; Scène 7 - Air italien “Fra le pupille” (soprano)
02. ‘Les Fleurs, fête persane’; Scène 7 - Air “L’éclat des roses les plus belles” (Tacmas)
03. ‘Les Fleurs, fête persane’; Scène 7 - Air “Triomphez, agréables fleurs!” (Zaïre, chœur)
04. Ballet des fleurs, Premier Air pour les Fleurs, Deuxième Air pour les Fleurs
05. ‘Les Fleurs, fête persane’; Scène 7 - “Papillon inconstant” (Fatime)
06. ‘Les Fleurs, fête persane’; Scène 7 - Gavotte en rondeau
07. ‘Les Fleurs, fête persane’; Scène 7 - Deuxième Air pour Zéphire
08. Air pour les Fleurs
09. Gavotte
Quatrième entrée ‘Les Sauvages’
10. Scène 1 - Ritournelle, “Nos guerriers, par mon ordre unis à nos vainqueurs” (Adario)
11. Scène 1 - Air “Rivaux de mes exploits, rivaux de mes amours” (Adario)
12. Scène 2 - “Damon, quelle vaine espérance” (Alvar)
13. Scène 2 - “Dans ces lieux fortunés” (Alvar); Scène 3 - Prélude, “Ne puis-je vous fléchir” (Alvar, Damon, Zima), Air “Nous suivons sur nos bords l’innocente nature” (Zima), Duo “Vous décidez pour moi Damon” (Damon, Alvar)
14. Scène 3 - Prélude, Air “La terre, les cieux et mers” (Damon), “Voilà vos sentiments” (Damon, Zima)
15. Scène 3 - Air “Le coeur change à son gré” (Zima), Air “L’habitant des bords de la Seine” (Alvar, Damon), “Belle Zima, craignez un si triste esclavage!” (Damon, Alvar, Zima); Scène 4 - “Que vois-je?” (Alvar, Zima, Adario, Damon)
16. Scène 4 - Prélude, “Déjà, dans les bois d’alentour” (Damon, Alvar); Scène 5 - “Je ne vous peindrai point transports de mon coeur” (Adario, Zima)
17. Scène 5 - “Viens, hymen, hâte-toi” (Adario), Duo “Hymen, viens nous unir d’une chaîne éternelle!” (Zima, Adario)
18. Scène 6 - Prélude, Air et Chœur des Sauvages “Bannissons les tristes alarmes!” (Adario, chœur)
19. Scène 6 - Rondeau (Danse du Grand Calumet de a Paix, exécutée par les Sauvages), Duo et Chœur des Sauvages “Forêts paisibles” (Zima, Adario, chœur)
20. cène 6 - Premier Menuet pour les Guerriers et Amazones, Deuxième Menuet, Premier Menuet (reprise)
21. Scène 6 - Chaconne


Exact Audio Copy V1.2 from 12. August 2016

EAC extraction logfile from 7. April 2017, 13:27

Jean-Claude Malgoire / Les Indes galantes (Disc 1)

Used drive : MATSHITADVD-RAM UJ8G6 Adapter: 1 ID: 0

Read mode : Secure
Utilize accurate stream : Yes
Defeat audio cache : Yes
Make use of C2 pointers : No

Read offset correction : 103
Overread into Lead-In and Lead-Out : No
Fill up missing offset samples with silence : Yes
Delete leading and trailing silent blocks : No
Null samples used in CRC calculations : Yes
Used interface : Native Win32 interface for Win NT & 2000

Used output format : User Defined Encoder
Selected bitrate : 768 kBit/s
Quality : High
Add ID3 tag : No
Command line compressor : C:\Program Files (x86)\Exact Audio Copy\Flac\flac.exe
Additional command line options : -6 -V -T "ARTIST=%artist%" -T "TITLE=%title%" -T "ALBUM=%albumtitle%" -T "DATE=%year%" -T "TRACKNUMBER=%tracknr%" -T "GENRE=%genre%" -T "COMMENT=%comment%" -T "BAND=%albuminterpret%" -T "ALBUMARTIST=%albuminterpret%" -T "COMPOSER=%composer%" %haslyrics%–tag-from-file=LYRICS="%lyricsfile%"%haslyrics% -T "DISCNUMBER=%cdnumber%" -T "TOTALDISCS=%totalcds%" -T "TOTALTRACKS=%numtracks%" %hascover%–picture="%coverfile%"%hascover% %source% -o %dest%


TOC of the extracted CD

Track | Start | Length | Start sector | End sector
––––––––––––––––––––––––––––-
1 | 0:00.00 | 2:57.74 | 0 | 13348
2 | 2:57.74 | 2:58.01 | 13349 | 26699
3 | 5:56.00 | 1:29.57 | 26700 | 33431
4 | 7:25.57 | 1:00.43 | 33432 | 37974
5 | 8:26.25 | 2:03.00 | 37975 | 47199
6 | 10:29.25 | 1:04.73 | 47200 | 52072
7 | 11:34.23 | 2:22.50 | 52073 | 62772
8 | 13:56.73 | 2:14.62 | 62773 | 72884
9 | 16:11.60 | 0:52.30 | 72885 | 76814
10 | 17:04.15 | 0:38.01 | 76815 | 79665
11 | 17:42.16 | 1:37.57 | 79666 | 86997
12 | 19:19.73 | 1:51.31 | 86998 | 95353
13 | 21:11.29 | 1:05.32 | 95354 | 100260
14 | 22:16.61 | 0:36.44 | 100261 | 103004
15 | 22:53.30 | 1:30.02 | 103005 | 109756
16 | 24:23.32 | 2:02.23 | 109757 | 118929
17 | 26:25.55 | 1:57.44 | 118930 | 127748
18 | 28:23.24 | 2:41.54 | 127749 | 139877
19 | 31:05.03 | 1:05.24 | 139878 | 144776
20 | 32:10.27 | 3:12.40 | 144777 | 159216
21 | 35:22.67 | 5:34.17 | 159217 | 184283
22 | 40:57.09 | 3:06.09 | 184284 | 198242
23 | 44:03.18 | 1:11.42 | 198243 | 203609
24 | 45:14.60 | 2:43.73 | 203610 | 215907
25 | 47:58.58 | 2:08.38 | 215908 | 225545
26 | 50:07.21 | 3:06.72 | 225546 | 239567
27 | 53:14.18 | 2:32.03 | 239568 | 250970


Range status and errors

Selected range

Filename C:\Users\Roy\Music\RAMEAU - Les Indes galantes [Malgoire]\CD (FLAC + CUE)\CD 1\Jean-Philippe Rameau - Les Indes galantes (Disc 1).wav

Peak level 98.2 %
Extraction speed 4.1 X
Range quality 100.0 %
Test CRC B7C58450
Copy CRC B7C58450
Copy OK

No errors occurred


AccurateRip summary

Track 1 not present in database
Track 2 not present in database
Track 3 not present in database
Track 4 not present in database
Track 5 not present in database
Track 6 not present in database
Track 7 not present in database
Track 8 not present in database
Track 9 not present in database
Track 10 not present in database
Track 11 not present in database
Track 12 not present in database
Track 13 not present in database
Track 14 not present in database
Track 15 not present in database
Track 16 not present in database
Track 17 not present in database
Track 18 not present in database
Track 19 not present in database
Track 20 not present in database
Track 21 not present in database
Track 22 not present in database
Track 23 not present in database
Track 24 not present in database
Track 25 not present in database
Track 26 not present in database
Track 27 not present in database

None of the tracks are present in the AccurateRip database

End of status report

–– CUETools DB Plugin V2.1.6

[CTDB TOCID: ChjyRdJzSzKNPi0rDRVGeC1kx74-] disk not present in database
Submit result: ChjyRdJzSzKNPi0rDRVGeC1kx74- has been uploaded


==== Log checksum B42B1EC444DFDD018FE478DFAC3B1341C7752C6283C3F13F064AA645EF2B7733 ====


Exact Audio Copy V1.2 from 12. August 2016

EAC extraction logfile from 9. April 2017, 11:39

Jean-Claude Malgoire / Les Indes galantes (Disc 2)

Used drive : MATSHITADVD-RAM UJ8G6 Adapter: 1 ID: 0

Read mode : Secure
Utilize accurate stream : Yes
Defeat audio cache : Yes
Make use of C2 pointers : No

Read offset correction : 103
Overread into Lead-In and Lead-Out : No
Fill up missing offset samples with silence : Yes
Delete leading and trailing silent blocks : No
Null samples used in CRC calculations : Yes
Used interface : Native Win32 interface for Win NT & 2000

Used output format : User Defined Encoder
Selected bitrate : 768 kBit/s
Quality : High
Add ID3 tag : No
Command line compressor : C:\Program Files (x86)\Exact Audio Copy\Flac\flac.exe
Additional command line options : -6 -V -T "ARTIST=%artist%" -T "TITLE=%title%" -T "ALBUM=%albumtitle%" -T "DATE=%year%" -T "TRACKNUMBER=%tracknr%" -T "GENRE=%genre%" -T "COMMENT=%comment%" -T "BAND=%albuminterpret%" -T "ALBUMARTIST=%albuminterpret%" -T "COMPOSER=%composer%" %haslyrics%–tag-from-file=LYRICS="%lyricsfile%"%haslyrics% -T "DISCNUMBER=%cdnumber%" -T "TOTALDISCS=%totalcds%" -T "TOTALTRACKS=%numtracks%" %hascover%–picture="%coverfile%"%hascover% %source% -o %dest%


TOC of the extracted CD

Track | Start | Length | Start sector | End sector
––––––––––––––––––––––––––––-
1 | 0:00.00 | 3:53.72 | 0 | 17546
2 | 3:53.72 | 2:33.28 | 17547 | 29049
3 | 6:27.25 | 2:00.71 | 29050 | 38120
4 | 8:28.21 | 2:48.32 | 38121 | 50752
5 | 11:16.53 | 1:53.21 | 50753 | 59248
6 | 13:09.74 | 4:44.66 | 59249 | 80614
7 | 17:54.65 | 1:23.18 | 80615 | 86857
8 | 19:18.08 | 2:34.61 | 86858 | 98468
9 | 21:52.69 | 3:57.11 | 98469 | 116254
10 | 25:50.05 | 3:01.41 | 116255 | 129870
11 | 28:51.46 | 1:49.08 | 129871 | 138053
12 | 30:40.54 | 3:39.36 | 138054 | 154514
13 | 34:20.15 | 2:05.12 | 154515 | 163901
14 | 36:25.27 | 1:24.04 | 163902 | 170205
15 | 37:49.31 | 3:53.15 | 170206 | 187695
16 | 41:42.46 | 3:15.30 | 187696 | 202350
17 | 44:58.01 | 1:52.31 | 202351 | 210781
18 | 46:50.32 | 1:55.56 | 210782 | 219462
19 | 48:46.13 | 3:24.01 | 219463 | 234763
20 | 52:10.14 | 1:28.31 | 234764 | 241394
21 | 53:38.45 | 1:45.55 | 241395 | 249324


Range status and errors

Selected range

Filename C:\Users\Roy\Music\RAMEAU - Les Indes galantes [Malgoire]\CD (FLAC + CUE)\CD 2\Jean-Philippe Rameau - Les Indes galantes (Disc 2).wav

Peak level 80.8 %
Extraction speed 4.0 X
Range quality 99.9 %
Test CRC 80FCE15E
Copy CRC 80FCE15E
Copy OK

No errors occurred


AccurateRip summary

Track 1 not present in database
Track 2 not present in database
Track 3 not present in database
Track 4 not present in database
Track 5 not present in database
Track 6 not present in database
Track 7 not present in database
Track 8 not present in database
Track 9 not present in database
Track 10 not present in database
Track 11 not present in database
Track 12 not present in database
Track 13 not present in database
Track 14 not present in database
Track 15 not present in database
Track 16 not present in database
Track 17 not present in database
Track 18 not present in database
Track 19 not present in database
Track 20 not present in database
Track 21 not present in database

None of the tracks are present in the AccurateRip database

End of status report

–– CUETools DB Plugin V2.1.6

[CTDB TOCID: NOD3H8RsVSymkJ6xtSBaPhBr_Ow-] disk not present in database
Submit result: NOD3H8RsVSymkJ6xtSBaPhBr_Ow- has been uploaded


==== Log checksum B7E971D8B47091A2CDEAE5AAA8B66E4828BEFF7B7307EA2963B9F257A9AAC997 ====


Exact Audio Copy V1.2 from 12. August 2016

EAC extraction logfile from 9. April 2017, 12:14

Jean-Claude Malgoire / Les Indes galantes (Disc 3)

Used drive : MATSHITADVD-RAM UJ8G6 Adapter: 1 ID: 0

Read mode : Secure
Utilize accurate stream : Yes
Defeat audio cache : Yes
Make use of C2 pointers : No

Read offset correction : 103
Overread into Lead-In and Lead-Out : No
Fill up missing offset samples with silence : Yes
Delete leading and trailing silent blocks : No
Null samples used in CRC calculations : Yes
Used interface : Native Win32 interface for Win NT & 2000

Used output format : User Defined Encoder
Selected bitrate : 768 kBit/s
Quality : High
Add ID3 tag : No
Command line compressor : C:\Program Files (x86)\Exact Audio Copy\Flac\flac.exe
Additional command line options : -6 -V -T "ARTIST=%artist%" -T "TITLE=%title%" -T "ALBUM=%albumtitle%" -T "DATE=%year%" -T "TRACKNUMBER=%tracknr%" -T "GENRE=%genre%" -T "COMMENT=%comment%" -T "BAND=%albuminterpret%" -T "ALBUMARTIST=%albuminterpret%" -T "COMPOSER=%composer%" %haslyrics%–tag-from-file=LYRICS="%lyricsfile%"%haslyrics% -T "DISCNUMBER=%cdnumber%" -T "TOTALDISCS=%totalcds%" -T "TOTALTRACKS=%numtracks%" %hascover%–picture="%coverfile%"%hascover% %source% -o %dest%


TOC of the extracted CD

Track | Start | Length | Start sector | End sector
––––––––––––––––––––––––––––-
1 | 0:00.00 | 5:21.00 | 0 | 24074
2 | 5:21.00 | 1:17.37 | 24075 | 29886
3 | 6:38.37 | 2:54.47 | 29887 | 42983
4 | 9:33.09 | 2:35.08 | 42984 | 54616
5 | 12:08.17 | 3:51.29 | 54617 | 71970
6 | 15:59.46 | 1:48.59 | 71971 | 80129
7 | 17:48.30 | 1:46.32 | 80130 | 88111
8 | 19:34.62 | 2:13.09 | 88112 | 98095
9 | 21:47.71 | 0:47.27 | 98096 | 101647
10 | 22:35.23 | 1:29.11 | 101648 | 108333
11 | 24:04.34 | 1:59.69 | 108334 | 117327
12 | 26:04.28 | 1:37.70 | 117328 | 124672
13 | 27:42.23 | 2:42.53 | 124673 | 136875
14 | 30:25.01 | 1:40.06 | 136876 | 144381
15 | 32:05.07 | 3:35.55 | 144382 | 160561
16 | 35:40.62 | 2:15.30 | 160562 | 170716
17 | 37:56.17 | 1:07.21 | 170717 | 175762
18 | 39:03.38 | 2:27.30 | 175763 | 186817
19 | 41:30.68 | 4:17.42 | 186818 | 206134
20 | 45:48.35 | 1:56.06 | 206135 | 214840
21 | 47:44.41 | 6:17.35 | 214841 | 243150


Range status and errors

Selected range

Filename C:\Users\Roy\Music\RAMEAU - Les Indes galantes [Malgoire]\CD (FLAC + CUE)\CD 3\Jean-Philippe Rameau - Les Indes galantes (Disc 3).wav

Peak level 78.8 %
Extraction speed 4.1 X
Range quality 100.0 %
Test CRC 3280E1F1
Copy CRC 3280E1F1
Copy OK

No errors occurred


AccurateRip summary

Track 1 not present in database
Track 2 not present in database
Track 3 not present in database
Track 4 not present in database
Track 5 not present in database
Track 6 not present in database
Track 7 not present in database
Track 8 not present in database
Track 9 not present in database
Track 10 not present in database
Track 11 not present in database
Track 12 not present in database
Track 13 not present in database
Track 14 not present in database
Track 15 not present in database
Track 16 not present in database
Track 17 not present in database
Track 18 not present in database
Track 19 not present in database
Track 20 not present in database
Track 21 not present in database

None of the tracks are present in the AccurateRip database

End of status report

–– CUETools DB Plugin V2.1.6

[CTDB TOCID: HEOehLZhdaEr4Hk63iNLibAREYw-] disk not present in database
Submit result: HEOehLZhdaEr4Hk63iNLibAREYw- has been uploaded


==== Log checksum 182B6C16098B0523973F2EB8A2F63F1DA3ACF611525F2EAE7E7E17D3092AD2CF ====

Jean-Claude Malgoire, La Grande Écurie et la Chambre du Roy - Rameau: Les Indes galantes (2016)

Thanks to the original releaser