Subcategories

Jean Michel Jarre - Waiting For Cousteau (1990)

Posted By: uff
Jean Michel Jarre - Waiting For Cousteau (1990)

Jean Michel Jarre - Waiting For Cousteau (1990)
Electronic | 1cd | EAC Rip | Flac + Cue + Log | covers
Polydor, 843 614-2 | rel: 1990 | 385Mb

The Undersea World of Jacques Cousteau has been one of television's most celebrated programs of all time. Jean Michel Jarre, a countryman of Jacques Cousteau's, composed and performed an e-music opus in honor of the oceanographer. En Attendant Cousteau (aka Waiting for Cousteau) is a departure from Jarre's usual format. This disc has three tracks that are longer than his normal tracks. (They are between six and nine minutes.) The fourth track is a major work, clocking in at 47 minutes. That track, "En Attendant Cousteau," is an epic minimalist creation. This is groundbreaking stuff, an unusual mode for Jarre, who hasn't gone this far out on a limb since his debut in 1976. It is a worthy risk. The atmospheric minimalism of the title track is deep and substantial. This is a great CD, certainly one of Jarre's top three. It will appeal to fans of Robert Scott Thompson, Jeff Pearce, James Johnson, and Mychael Danna. (Interestingly, Paul Nagle created a tongue-in-cheek tribute to this album and Jarre by recording Waiting for Clouseau in the late '90s. Nagle's album is humorous and enjoyable.) ~Allmusic

Track listing
01. Calypso (8:23)
02. Calypso Part 2 (7:10)
03. Calypso Part 3 (Fin De Siecle) (6:29)
04. Waiting For Cousteau (46:53)

Personnel
- Jean Michel Jarre – keyboards
- The Amoco Renegades – steel drums
- Guy Delacroix – bass
- Christophe Deschamps – drums
- Michel Geiss – keyboards
- Dominique Perrier – keyboards


Exact Audio Copy V1.0 beta 3 from 29. August 2011

EAC extraction logfile from 24. November 2012, 22:36

Jean-Michel Jarre / Waiting For Cousteau

Used drive : TSSTcorpCD/DVDW TS-L632D Adapter: 0 ID: 0

Read mode : Secure
Utilize accurate stream : Yes
Defeat audio cache : Yes
Make use of C2 pointers : No

Read offset correction : 6
Overread into Lead-In and Lead-Out : No
Fill up missing offset samples with silence : Yes
Delete leading and trailing silent blocks : No
Null samples used in CRC calculations : Yes
Used interface : Native Win32 interface for Win NT & 2000

Used output format : User Defined Encoder
Selected bitrate : 896 kBit/s
Quality : High
Add ID3 tag : No
Command line compressor : C:\Program Files (x86)\Exact Audio Copy\Flac\flac.exe
Additional command line options : -V -8 -T "Date=%year%" -T "Genre=%genre%" %source%


TOC of the extracted CD

Track | Start | Length | Start sector | End sector
––––––––––––––––––––––––––––-
1 | 0:00.33 | 8:23.17 | 33 | 37774
2 | 8:23.50 | 7:10.50 | 37775 | 70074
3 | 15:34.25 | 6:30.55 | 70075 | 99379
4 | 22:05.05 | 46:53.43 | 99380 | 310397


Range status and errors

Selected range

Filename G:\Jean Michel Jarre - Waiting For Cousteau [1990]\Jean-Michel Jarre - Waiting For Cousteau.wav

Peak level 100.0 %
Extraction speed 2.0 X
Range quality 100.0 %
Test CRC 62D12FF4
Copy CRC 62D12FF4
Copy OK

No errors occurred


AccurateRip summary

Track 1 accurately ripped (confidence 20) [468ADBE6] (AR v2)
Track 2 accurately ripped (confidence 20) [1DB9788E] (AR v2)
Track 3 accurately ripped (confidence 20) [3F816CE0] (AR v2)
Track 4 accurately ripped (confidence 17) [A8D32969] (AR v2)

All tracks accurately ripped

End of status report

==== Log checksum 5B63257488575A2140712E628CD715E101584F39282D010C68461BE8B4407284 ====



[CUETools log; Date: 2016. 09. 20. 17:21:29; Version: 2.1.6]
Pregap length 00:00:33.
[CTDB TOCID: haN2tu4J91yRxtzrRw3oGMcLdn8-] found.
Track | CTDB Status
1 | (157/162) Accurately ripped
2 | (158/162) Accurately ripped
3 | (156/162) Accurately ripped
4 | (137/162) Accurately ripped
[AccurateRip ID: 0007e61d-00221bb6-2b102a04] found.
Track [ CRC | V2 ] Status
01 [459aadc1|468adbe6] (163+175/338) Accurately ripped
02 [bccd1ddb|1db9788e] (160+177/337) Accurately ripped
03 [7f7e16b0|3f816ce0] (161+176/337) Accurately ripped
04 [dcc3f34c|a8d32969] (137+160/297) Accurately ripped

Track Peak [ CRC32 ] [W/O NULL] [ LOG ]
– 99,9 [62D12FF4] [A02B3C19] CRC32
01 99,9 [E1E72D99] [9570804A]
02 99,9 [CD390532] [411CC19F]
03 99,9 [AC948FBD] [26975DC2]
04 41,4 [2FC3F181] [32A1127C]


Thx to sewerok
Bigfile
Datafile

password: asd