Subcategories
Tags
Language
Tags

Jean Michel Jarre - Chronologie (1993) [Non-remastered]

Posted By: gribovar
Jean Michel Jarre - Chronologie (1993) [Non-remastered]

Jean Michel Jarre - Chronologie (1993) [Non-remastered]
EAC Rip | FLAC (tracks+.cue+log) - 271 MB | MP3 CBR 320 kbps (LAME 3.93) - 102 MB | Covers - 41 MB
Genre: Traditional Electronic, Progressive Electronic | RAR 3% Rec. | Label: Polydor/Disques Dreyfus (519 373-2)

For fans of Jean-Michel Jarre, Chronologie contains more of Jarre's proven ability to blend familiar sounds in the New Music tradition into unusual, inventive compositions. The uninitiated will find Chronologie's blend of 19th Century classical musical themes with pop, rave and rap sounds downright danceable. Many of the pieces begin with a classical sound - in one song it's deeply resonating pipe organ - and almost invariably pick up the tempo quickly and slide right into a Gloria Estefan beat.

Tracklist:
01. Chronologie Part. 1
02. Chronologie Part. 2
03. Chronologie Part. 3
04. Chronologie Part. 4
05. Chronologie Part. 5
06. Chronologie Part. 6
07. Chronologie Part. 7
08. Chronologie Part. 8

Total time: 42:06

Exact Audio Copy V1.0 beta 6 from 9. April 2015

EAC extraction logfile from 14. December 2016, 22:21

Jean-Michel Jarre / Chronologie

Used drive : PIONEER DVD-RW DVR-215 Adapter: 1 ID: 2

Read mode : Secure
Utilize accurate stream : Yes
Defeat audio cache : Yes
Make use of C2 pointers : No

Read offset correction : 48
Overread into Lead-In and Lead-Out : No
Fill up missing offset samples with silence : Yes
Delete leading and trailing silent blocks : No
Null samples used in CRC calculations : Yes
Used interface : Native Win32 interface for Win NT & 2000
Gap handling : Appended to previous track

Used output format : User Defined Encoder
Selected bitrate : 1024 kBit/s
Quality : High
Add ID3 tag : No
Command line compressor : C:\Program Files (x86)\Exact Audio Copy\FLAC\FLAC.EXE
Additional command line options : -6 -V -T "COMMENT=Ripped by RRC (NEW-TEAM org)" -T "ARTIST=%artist%" -T "TITLE=%title%" -T "ALBUM=%albumtitle%" -T "DATE=%year%" -T "TRACKNUMBER=%tracknr%" -T "GENRE=%genre%" -T "COMMENT=%comment%" -T "BAND=%albuminterpret%" -T "ALBUMARTIST=%albuminterpret%" -T "COMPOSER=%composer%" %haslyrics%–tag-from-file=LYRICS="%lyricsfile%"%haslyrics% -T "DISCNUMBER=%cdnumber%" -T "TOTALDISCS=%totalcds%" -T "TOTALTRACKS=%numtracks%" %hascover%–picture="%coverfile%"%hascover% %source% -o %dest%


TOC of the extracted CD

Track | Start | Length | Start sector | End sector
––––––––––––––––––––––––––––-
1 | 0:00.33 | 10:51.42 | 33 | 48899
2 | 10:52.00 | 6:05.05 | 48900 | 76279
3 | 16:57.05 | 3:59.35 | 76280 | 94239
4 | 20:56.40 | 3:59.08 | 94240 | 112172
5 | 24:55.48 | 5:34.57 | 112173 | 137279
6 | 30:30.30 | 3:45.08 | 137280 | 154162
7 | 34:15.38 | 2:17.42 | 154163 | 164479
8 | 36:33.05 | 5:33.48 | 164480 | 189502


Track 1

Filename G:\RRC's Rip\01-Chronologie Part 1.wav

Pre-gap length 0:00:02.33

Peak level 100.0 %
Extraction speed 5.1 X
Track quality 100.0 %
Test CRC 737BD67A
Copy CRC 737BD67A
Accurately ripped (confidence 38) [AE44A7F6] (AR v2)
Copy OK

Track 2

Filename G:\RRC's Rip\02-Chronologie Part 2.wav

Peak level 100.0 %
Extraction speed 5.8 X
Track quality 100.0 %
Test CRC 1762CDD9
Copy CRC 1762CDD9
Accurately ripped (confidence 38) [CA5B37B3] (AR v2)
Copy OK

Track 3

Filename G:\RRC's Rip\03-Chronologie Part 3.wav

Peak level 78.8 %
Extraction speed 5.8 X
Track quality 100.0 %
Test CRC CF96C66A
Copy CRC CF96C66A
Accurately ripped (confidence 37) [E56AB9D1] (AR v2)
Copy OK

Track 4

Filename G:\RRC's Rip\04-Chronologie Part 4.wav

Peak level 100.0 %
Extraction speed 6.3 X
Track quality 100.0 %
Test CRC 1667B95A
Copy CRC 1667B95A
Accurately ripped (confidence 38) [B1BD452B] (AR v2)
Copy OK

Track 5

Filename G:\RRC's Rip\05-Chronologie Part 5.wav

Peak level 100.0 %
Extraction speed 6.7 X
Track quality 100.0 %
Test CRC 5BAEF096
Copy CRC 5BAEF096
Accurately ripped (confidence 38) [E1C537A9] (AR v2)
Copy OK

Track 6

Filename G:\RRC's Rip\06-Chronologie Part 6.wav

Peak level 100.0 %
Extraction speed 5.8 X
Track quality 99.9 %
Test CRC 23188A06
Copy CRC 23188A06
Accurately ripped (confidence 38) [B7BE458D] (AR v2)
Copy OK

Track 7

Filename G:\RRC's Rip\07-Chronologie Part 7.wav

Peak level 52.2 %
Extraction speed 6.4 X
Track quality 100.0 %
Test CRC 7D7DB0DA
Copy CRC 7D7DB0DA
Accurately ripped (confidence 38) [408D6C71] (AR v2)
Copy OK

Track 8

Filename G:\RRC's Rip\08-Chronologie Part 8.wav

Peak level 100.0 %
Extraction speed 7.0 X
Track quality 99.9 %
Test CRC 75639E2E
Copy CRC 75639E2E
Accurately ripped (confidence 36) [65A66002] (AR v2)
Copy OK


All tracks accurately ripped

No errors occurred

End of status report

–– CUETools DB Plugin V2.1.6

[CTDB TOCID: JAgotLLYwoa22XUdebR1ZPy.MW0-] found
Submit result: JAgotLLYwoa22XUdebR1ZPy.MW0- has been confirmed
Track | CTDB Status
1 | (219/223) Accurately ripped
2 | (219/223) Accurately ripped
3 | (220/223) Accurately ripped
4 | (220/223) Accurately ripped
5 | (219/223) Accurately ripped
6 | (218/223) Accurately ripped
7 | (217/223) Accurately ripped
8 | (217/223) Accurately ripped


==== Log checksum E4FEF0600A80F8B4411D60C51F0B2E66DB00D64B4E081408004F53A46F314F28 ====

[CUETools log; Date: 30.05.2021 22:40:52; Version: 2.1.4]
Pregap length 00:00:33.
[CTDB TOCID: JAgotLLYwoa22XUdebR1ZPy.MW0-] found.
Track | CTDB Status
1 | (593/602) Accurately ripped
2 | (594/602) Accurately ripped
3 | (599/602) Accurately ripped
4 | (599/602) Accurately ripped
5 | (595/602) Accurately ripped
6 | (596/602) Accurately ripped
7 | (595/602) Accurately ripped
8 | (594/602) Accurately ripped
[AccurateRip ID: 000ee89c-005e6e8e-6e09de08] found.
Track [ CRC | V2 ] Status
01 [11e761da|ae44a7f6] (37+58/95) Accurately ripped
02 [bbbbcca0|ca5b37b3] (37+58/95) Accurately ripped
03 [a84cefa0|e56ab9d1] (36+57/93) Accurately ripped
04 [56280d2c|b1bd452b] (37+58/95) Accurately ripped
05 [f1134675|e1c537a9] (36+56/92) Accurately ripped
06 [795da88e|b7be458d] (35+57/92) Accurately ripped
07 [436fc684|408d6c71] (36+57/93) Accurately ripped
08 [b17e5fb5|65a66002] (35+55/90) Accurately ripped

Track Peak [ CRC32 ] [W/O NULL] [ LOG ]
– 99,9 [67636E72] [A0E5865D]
01 99,9 [737BD67A] [39DB8A23] CRC32
02 99,9 [1762CDD9] [020E5398] CRC32
03 78,8 [CF96C66A] [C88C3405] CRC32
04 99,9 [1667B95A] [D3E22FE1] CRC32
05 99,9 [5BAEF096] [A1DF4818] CRC32
06 99,9 [23188A06] [1142BB4C] CRC32
07 52,2 [7D7DB0DA] [FAEE54F1] CRC32
08 99,9 [75639E2E] [617956F7] CRC32

Thanks to RRC

See also: