Tags
Language
Tags

Jean Michel Jarre - Oxygene (1976) [MFSL, 1994]

Posted By: gribovar
Jean Michel Jarre - Oxygene (1976) [MFSL, 1994]

Jean Michel Jarre - Oxygene (1976) [MFSL, 1994]
EAC Rip | FLAC (image+.cue+log) - 219 MB | MP3 CBR 320 kbps (LAME 3.93) - 93 MB | Covers - 335 MB
Genre: Traditional Electronic, Progressive Electronic | RAR 3% Rec. | Label: Mobile Fidelity Sound Lab (UDCD 613)

Jean Michel Jarre, son of film composer Maurice Jarre, is one of the true pioneers of electronic music. Oxygène is one of the original e-music albums. It has withstood the test of time and the evolution of digital electronica. Jarre's compositional style and his rhythmic instincts were his strong points in 1976. While his popularity has escalated exponentially over the years, he never quite achieved the quality of this amazing recording. The innocence and freshness provide most of its charm. Jarre's techniques and ability provide the rest. This epic work will appeal to fans of Tonto's Expanding HeadBand, Tangerine Dream, Synergy, Kraftwerk, and Klaus Schulze.

Tracklist:
01. Oxygene Part I
02. Oxygene Part II
03. Oxygene Part III
04. Oxygene Part IV
05. Oxygene Part V
06. Oxygene Part VI

Total time: 39:41

Exact Audio Copy V1.3 from 2. September 2016

EAC extraction logfile from 1. December 2016, 2:47

Jean Michel Jarre / Oxygene

Used drive : PLEXTOR DVDR PX-810SA Adapter: 1 ID: 0

Read mode : Secure
Utilize accurate stream : Yes
Defeat audio cache : Yes
Make use of C2 pointers : No

Read offset correction : 48
Overread into Lead-In and Lead-Out : No
Fill up missing offset samples with silence : Yes
Delete leading and trailing silent blocks : No
Null samples used in CRC calculations : Yes
Used interface : Installed external ASPI interface

Used output format : User Defined Encoder
Selected bitrate : 1024 kBit/s
Quality : High
Add ID3 tag : No
Command line compressor : C:\Program Files (x86)\Exact Audio Copy\Flac\flac.exe
Additional command line options : -8 -V -T "Date=%year%" -T "Genre=%genre%" -T "COMMENT=ripped by bvstudio®" %source%


TOC of the extracted CD

Track | Start | Length | Start sector | End sector
––––––––––––––––––––––––––––-
1 | 0:00.37 | 7:40.25 | 37 | 34561
2 | 7:40.62 | 8:04.50 | 34562 | 70911
3 | 15:45.37 | 2:58.65 | 70912 | 84326
4 | 18:44.27 | 4:07.08 | 84327 | 102859
5 | 22:51.35 | 10:31.05 | 102860 | 150189
6 | 33:22.40 | 6:18.72 | 150190 | 178611


Range status and errors

Selected range

Filename F:\Jean Michel Jarre - Collection\1976 - Oxygene (1994 - MFSL Inc. • Disques Dreyfus - United States - UDCD 613)\Jean Michel Jarre - Oxygene.wav

Peak level 97.0 %
Extraction speed 6.5 X
Range quality 100.0 %
Test CRC 969D1CB9
Copy CRC 969D1CB9
Copy OK

No errors occurred


AccurateRip summary

Track 1 accurately ripped (confidence 75) [062C9C8A] (AR v2)
Track 2 accurately ripped (confidence 74) [59FF4EBC] (AR v2)
Track 3 accurately ripped (confidence 75) [DE8F13FD] (AR v2)
Track 4 accurately ripped (confidence 75) [C8CA99C8] (AR v2)
Track 5 accurately ripped (confidence 75) [74CAFA9D] (AR v2)
Track 6 accurately ripped (confidence 76) [92648150] (AR v2)

All tracks accurately ripped

End of status report

–– CUETools DB Plugin V2.1.6

[CTDB TOCID: 0nZhrCFwTupglawOlAAe_Za6Dqc-] found
Submit result: 0nZhrCFwTupglawOlAAe_Za6Dqc- has been confirmed
Track | CTDB Status
1 | (33/34) Accurately ripped
2 | (32/34) Accurately ripped
3 | (32/34) Accurately ripped
4 | (33/34) Accurately ripped
5 | (33/34) Accurately ripped
6 | (32/34) Accurately ripped


==== Log checksum 91D2E3010827C2AB671AEFA5B8EC012EB422B3C0E28DB6A1C9CD858F213E685B ====

[CUETools log; Date: 22.03.2021 19:04:51; Version: 2.1.4]
Pregap length 00:00:37.
[CTDB TOCID: 0nZhrCFwTupglawOlAAe_Za6Dqc-] found.
Track | CTDB Status
1 | (132/137) Accurately ripped
2 | (133/137) Accurately ripped
3 | (131/137) Accurately ripped
4 | (130/137) Accurately ripped
5 | (130/137) Accurately ripped
6 | (133/137) Accurately ripped
[AccurateRip ID: 00097bbc-00321fc1-40094d06] found.
Track [ CRC | V2 ] Status
01 [c6e3228f|062c9c8a] (057+104/163) Accurately ripped
02 [485846ea|59ff4ebc] (058+104/164) Accurately ripped
03 [cede84cb|de8f13fd] (057+105/164) Accurately ripped
04 [756b5531|c8ca99c8] (058+106/166) Accurately ripped
05 [88f615b1|74cafa9d] (057+105/164) Accurately ripped
06 [7865be69|92648150] (054+106/162) Accurately ripped
Offsetted by 30:
01 [1abd9804] (000/163) No match (V2 was not tested)
02 [1f82aec1] (000/164) No match (V2 was not tested)
03 [425fbf85] (000/164) No match (V2 was not tested)
04 [6db0678a] (000/166) No match (V2 was not tested)
05 [8a32eb30] (000/164) No match (V2 was not tested)
06 [441e68bf] (000/162) No match (V2 was not tested)

Track Peak [ CRC32 ] [W/O NULL] [ LOG ]
– 97,0 [969D1CB9] [1647F84C] CRC32
01 81,4 [DD305844] [3DF5BF53]
02 97,0 [D6EA2341] [D8A9DAB3]
03 88,5 [9158899E] [73805457]
04 94,7 [A020C753] [7CA8F7F2]
05 84,7 [2132CB17] [C5F7F825]
06 84,1 [E51F96C6] [A8CE0DF0]

Thanks to bvstudio

See also: