Tags
Language
Tags
June 2024
Su Mo Tu We Th Fr Sa
26 27 28 29 30 31 1
2 3 4 5 6 7 8
9 10 11 12 13 14 15
16 17 18 19 20 21 22
23 24 25 26 27 28 29
30 1 2 3 4 5 6

Jesse Sykes & The Sweet Hereafter - Reckless Burning (2002)

Posted By: Designol
Jesse Sykes & The Sweet Hereafter - Reckless Burning (2002)

Jesse Sykes & The Sweet Hereafter - Reckless Burning (2002)
EAC | FLAC | Tracks (Cue&Log) ~ 258 Mb | Mp3 (CBR320) ~ 106 Mb | Scans included | 00:42:34
Alternative Singer/Songwriter, Alternative Country-Rock | Label: Fargo | # FA20299

Taking what talents they've garnered from previous bands such as Hominy and Whiskeytown, lead singer Jesse Sykes and guitarist Phil Wandscher are onto something far bigger than the two could have foreseen. The opening title track lends itself as much to Margo Timmins as it does to a latter-day Lucinda Williams à la "Lonely Girls" in its almost morose tempo and arrangements, making the nearly seven-minute song glide along effortlessly and, to the listener, far shorter. The following numbers offer the same barren sounds, evoking images of members recording the songs in a log cabin. The well-trodden but solidly produced tracks never waver, especially "Doralee" and the slightly upbeat, honky tonk of "Lonely Hill." Resembling a trace of Neil Young's "Harvest Moon," the tune discusses heartbreak over a cross between Appalachian music and traditional country twang. "Don't Let Me Go" is another fine gem that doesn't stray too far from Sykes' strong points. While not having a dynamic range, she certainly knows what works. Only on "Drinking With Strangers," with its harmonies and backing instruments, does it sound a bit forced and too over-the-top. Returning to the melodic, swaying sound of "Love Me, Someday," the band is very well versed in a quasi dirge-country. A very sound and gentle series of heartbreaking vignettes makes this album so adorable.

Review by Jason MacNeil, Allmusic.com

Jesse Sykes & The Sweet Hereafter - Reckless Burning (2002)



Tracklist:

01. Reckless Burning (6:54)
02. Doralee (4:10)
03. Lonely Still (4:47)
04. Your Side Now (5:05)
05. Don't Let Me Go (3:37)
06. Drinking with Strangers (4:22)
07. Made Of Wood (5:01)
08. Love Me, Someday (3:53)
09. Lullaby (4:45)


Exact Audio Copy V0.99 prebeta 4 from 23. January 2008

EAC extraction logfile from 1. June 2008, 12:50

Jesse Sykes & The Sweet Hereafter / Reckless Burning

Used drive : TSSTcorpCDDVDW SH-S203B Adapter: 5 ID: 0

Read mode : Secure
Utilize accurate stream : Yes
Defeat audio cache : Yes
Make use of C2 pointers : No

Read offset correction : 6
Overread into Lead-In and Lead-Out : No
Fill up missing offset samples with silence : Yes
Delete leading and trailing silent blocks : No
Null samples used in CRC calculations : Yes
Used interface : Installed external ASPI interface
Gap handling : Appended to previous track

Used output format : User Defined Encoder
Selected bitrate : 768 kBit/s
Quality : High
Add ID3 tag : No
Command line compressor : C:\Program Files\Exact Audio Copy\FLAC\FLAC.EXE
Additional command line options : -V -8 -T "artist=%a" -T "title=%t" -T "album=%g" -T "date=%y" -T "tracknumber=%n" -T "genre=%m" %s


TOC of the extracted CD

Track | Start | Length | Start sector | End sector
––––––––––––––––––––––––––––-
1 | 0:00.00 | 6:54.27 | 0 | 31076
2 | 6:54.27 | 4:10.15 | 31077 | 49841
3 | 11:04.42 | 4:46.40 | 49842 | 71331
4 | 15:51.07 | 5:05.25 | 71332 | 94231
5 | 20:56.32 | 3:37.35 | 94232 | 110541
6 | 24:33.67 | 4:21.43 | 110542 | 130159
7 | 28:55.35 | 5:01.35 | 130160 | 152769
8 | 33:56.70 | 3:53.02 | 152770 | 170246
9 | 37:49.72 | 4:44.45 | 170247 | 191591


Track 1

Filename E:\Seeding\Jesse Sykes & The Sweet Hereafter - Reckless Burning (2002) FLAC\01 - Reckless Burning.wav

Pre-gap length 0:00:02.00

Peak level 99.2 %
Track quality 100.0 %
Test CRC 1E010FAE
Copy CRC 1E010FAE
Cannot be verified as accurate (confidence 3) [CF63FD84], AccurateRip returned [21A202A5]
Copy OK

Track 2

Filename E:\Seeding\Jesse Sykes & The Sweet Hereafter - Reckless Burning (2002) FLAC\02 - Doralee.wav

Peak level 99.2 %
Track quality 100.0 %
Test CRC 5EB6D98F
Copy CRC 5EB6D98F
Cannot be verified as accurate (confidence 2) [55D18D94], AccurateRip returned [D1551C84]
Copy OK

Track 3

Filename E:\Seeding\Jesse Sykes & The Sweet Hereafter - Reckless Burning (2002) FLAC\03 - Lonely Still.wav

Peak level 99.2 %
Track quality 99.9 %
Test CRC 8AE46AC8
Copy CRC 8AE46AC8
Cannot be verified as accurate (confidence 2) [CBF15892], AccurateRip returned [AD3CC072]
Copy OK

Track 4

Filename E:\Seeding\Jesse Sykes & The Sweet Hereafter - Reckless Burning (2002) FLAC\04 - Your Side Now.wav

Peak level 99.2 %
Track quality 100.0 %
Test CRC 75FAF683
Copy CRC 75FAF683
Cannot be verified as accurate (confidence 2) [EA41B949], AccurateRip returned [7CDCA4FB]
Copy OK

Track 5

Filename E:\Seeding\Jesse Sykes & The Sweet Hereafter - Reckless Burning (2002) FLAC\05 - Don't Let Me Go.wav

Peak level 99.2 %
Track quality 99.9 %
Test CRC A0A12F2E
Copy CRC A0A12F2E
Cannot be verified as accurate (confidence 2) [1D589A20], AccurateRip returned [A072DC2A]
Copy OK

Track 6

Filename E:\Seeding\Jesse Sykes & The Sweet Hereafter - Reckless Burning (2002) FLAC\06 - Drinking with Strangers.wav

Peak level 99.2 %
Track quality 100.0 %
Test CRC 18A9EB28
Copy CRC 18A9EB28
Cannot be verified as accurate (confidence 2) [6E37AB6D], AccurateRip returned [9E705E0D]
Copy OK

Track 7

Filename E:\Seeding\Jesse Sykes & The Sweet Hereafter - Reckless Burning (2002) FLAC\07 - Made Of Wood.wav

Pre-gap length 0:00:02.44

Peak level 99.2 %
Track quality 100.0 %
Test CRC 237B9FFF
Copy CRC 237B9FFF
Cannot be verified as accurate (confidence 3) [0E336B6E], AccurateRip returned [0B46B3D5]
Copy OK

Track 8

Filename E:\Seeding\Jesse Sykes & The Sweet Hereafter - Reckless Burning (2002) FLAC\08 - Love Me, Someday.wav

Peak level 99.2 %
Track quality 100.0 %
Test CRC B5B61991
Copy CRC B5B61991
Cannot be verified as accurate (confidence 3) [0C5967E6], AccurateRip returned [FA999051]
Copy OK

Track 9

Filename E:\Seeding\Jesse Sykes & The Sweet Hereafter - Reckless Burning (2002) FLAC\09 - Lullaby.wav

Pre-gap length 0:00:03.02

Peak level 99.2 %
Track quality 99.9 %
Test CRC CEFB0BC6
Copy CRC CEFB0BC6
Cannot be verified as accurate (confidence 3) [BFB45ED7], AccurateRip returned [4CE55592]
Copy OK


No tracks could be verified as accurate
You may have a different pressing from the one(s) in the database

No errors occurred

End of status report

[CUETools log; Date: 04.04.2018 6:49:54; Version: 2.1.4]
[CTDB TOCID: Cn6yVaM_AfLvdNm7eciFAZMoJn4-] found.
Track | CTDB Status
1 | (40/41) Accurately ripped
2 | (40/41) Accurately ripped
3 | (40/41) Accurately ripped
4 | (40/41) Accurately ripped
5 | (40/41) Accurately ripped
6 | (39/41) Accurately ripped
7 | (36/41) Accurately ripped
8 | (36/41) Accurately ripped
9 | (37/41) Accurately ripped
[AccurateRip ID: 000f4942-006e0f2c-7c09fa09] found.
Track [ CRC | V2 ] Status
01 [cf63fd84|be81c0b6] (08+14/44) Accurately ripped
02 [55d18d94|541cb086] (08+14/45) Accurately ripped
03 [cbf15892|c29d8f19] (08+14/45) Accurately ripped
04 [ea41b949|ba6e1aa7] (08+14/45) Accurately ripped
05 [1d589a20|9baae22e] (07+14/44) Accurately ripped
06 [6e37ab6d|ccea6136] (08+14/45) Accurately ripped
07 [0e336b6e|a29dc5e9] (06+14/39) Accurately ripped
08 [0c5967e6|1ed65745] (08+14/41) Accurately ripped
09 [bfb45ed7|e2055c44] (07+14/40) Accurately ripped
Offsetted by 5:
01 [21a202a5] (06/44) Accurately ripped
02 [2034f697] (06/45) Accurately ripped
03 [f8459f5e] (06/45) Accurately ripped
04 [9a24d74f] (06/45) Accurately ripped
05 [3a25370e] (06/44) Accurately ripped
06 [e81e7a95] (06/45) Accurately ripped
07 [0b46b3d5] (06/39) Accurately ripped
08 [fa999051] (06/41) Accurately ripped
09 [4ce55592] (06/40) Accurately ripped
Offsetted by 10:
01 [51dc133e] (02/44) Accurately ripped
02 [34d58cc5] (02/45) Accurately ripped
03 [3494b605] (02/45) Accurately ripped
04 [0fdf7ee2] (02/45) Accurately ripped
05 [77e93427] (02/44) Accurately ripped
06 [6af13a98] (02/45) Accurately ripped
07 [0856fc35] (02/39) Accurately ripped
08 [7b974d40] (02/41) Accurately ripped
09 [61465db6] (02/40) Accurately ripped
Offsetted by 593:
01 [4bcc6b9d] (03/44) Accurately ripped
02 [d1551c84] (04/45) Accurately ripped
03 [ad3cc072] (04/45) Accurately ripped
04 [7cdca4fb] (04/45) Accurately ripped
05 [a072dc2a] (04/44) Accurately ripped
06 [9e705e0d] (04/45) Accurately ripped
07 [1c3b1fb8] (03/39) Accurately ripped
08 [bf76b57f] (03/41) Accurately ripped
09 [4fe837c8] (03/40) Accurately ripped
Offsetted by 664:
01 [3699b3fc] (02/44) Accurately ripped
02 [eb768fff] (02/45) Accurately ripped
03 [8f74ccf7] (02/45) Accurately ripped
04 [c7dbb5cf] (02/45) Accurately ripped
05 [f938dbf4] (02/44) Accurately ripped
06 [9cc55de6] (02/45) Accurately ripped
07 [da95774e] (02/39) Accurately ripped
08 [172eafa1] (02/41) Accurately ripped
09 [43a87df1] (02/40) Accurately ripped

Track Peak [ CRC32 ] [W/O NULL] [ LOG ]
– 99,2 [26865032] [A19876A7]
01 99,2 [1E010FAE] [964C7386] CRC32
02 99,2 [5EB6D98F] [243E64B6] CRC32
03 99,2 [8AE46AC8] [A3987FAE] CRC32
04 99,2 [75FAF683] [8E7C984B] CRC32
05 99,2 [A0A12F2E] [5DDDE3C7] CRC32
06 99,2 [18A9EB28] [C5BC3123] CRC32
07 99,2 [237B9FFF] [0F0D8526] CRC32
08 99,2 [B5B61991] [33187F18] CRC32
09 99,2 [CEFB0BC6] [FEC3A3FA] CRC32

foobar2000 1.2 / Dynamic Range Meter 1.1.1
log date: 2018-04-04 06:48:34

––––––––––––––––––––––––––––––––––––––––
Analyzed: Jesse Sykes & The Sweet Hereafter / Reckless Burning
––––––––––––––––––––––––––––––––––––––––

DR Peak RMS Duration Track
––––––––––––––––––––––––––––––––––––––––
DR8 -0.07 dB -10.86 dB 6:54 01-Reckless Burning
DR9 -0.07 dB -10.40 dB 4:10 02-Doralee
DR7 -0.07 dB -9.20 dB 4:47 03-Lonely Still
DR8 -0.07 dB -10.30 dB 5:05 04-Your Side Now
DR8 -0.07 dB -9.79 dB 3:37 05-Don't Let Me Go
DR7 -0.07 dB -10.37 dB 4:22 06-Drinking With Strangers
DR9 -0.07 dB -11.69 dB 5:01 07-Made Of Wood
DR8 -0.07 dB -10.00 dB 3:53 08-Love Me, Someday
DR9 -0.07 dB -12.10 dB 4:45 09-Lullaby
––––––––––––––––––––––––––––––––––––––––

Number of tracks: 9
Official DR value: DR8

Samplerate: 44100 Hz
Channels: 2
Bits per sample: 16
Bitrate: 805 kbps
Codec: FLAC
================================================================================

Jesse Sykes & The Sweet Hereafter - Reckless Burning (2002)

Jesse Sykes & The Sweet Hereafter - Reckless Burning (2002)

All thanks to original releaser

More interesting music in My Blog