Subcategories
Tags
Language
Tags

Jimi Hendrix - Jimi Hendrix At His Best (Volume 3) (1972) [Vinyl Rip 16/44 & mp3-320 + DVD] Re-up

Posted By: v3122
Jimi Hendrix - Jimi Hendrix At His Best (Volume 3) (1972) [Vinyl Rip 16/44 & mp3-320 + DVD] Re-up

Jimi Hendrix - Jimi Hendrix At His Best (Volume 3) (1972)
Vinyl Rip 16/44 | Flac(Image + Cue) > 226 Mb
MP3 CBR 320Kbps > 91 Mb | Artwork(jpg) > 1.91 Mb
DVD-5: NTSC 4:3 (720x480) VBR | LPCM, 2 ch, 24 bit, 96 kHz > 1.35 Gb
SagaPan, SM 3273 | Modern Electric Blues, Psychedelic Rock

An interesting early record of Jimi Hendrix and avant-garde pianist Mike Ephron, sometimes with uncredited percussionists. "Occasionally, too, a Conga drummer would sit in with us, not always able to follow the intricacies of the rhythms I patterned out with my chords and la la la's" (from Mike Ephron's liner notes). La la la's indeed. These are some very unfocused jams, which don't add much to the Jimi Hendrix catalog. Still nice to hear him in such an informal setting.

by etrusqo, rateyourmusic.com
Jimi Hendrix - Jimi Hendrix At His Best (Volume 3) (1972):

Jimi Hendrix - Jimi Hendrix At His Best (Volume 3) (1972) [Vinyl Rip 16/44 & mp3-320 + DVD] Re-up

Tracklist:

A1 - Young Jim
A2 - Lift Off

B1 - Swift's Wing
B2 - Spiked With Heady Dreams
B3 - Giraffe

foobar2000 1.4 / Dynamic Range Meter 1.1.1
log date: 2018-10-22 23:56:27

––––––––––––––––––––––––––––––––––––––––
Analyzed: Jimi Hendrix / Jimi Hendrix At His Best (Volume 3)
––––––––––––––––––––––––––––––––––––––––

DR Peak RMS Duration Track
––––––––––––––––––––––––––––––––––––––––
DR12 -2.23 dB -19.40 dB 13:53 01-Young Jim
DR10 -5.32 dB -19.37 dB 6:48 02-Lift Off
DR15 -1.72 dB -21.93 dB 7:14 03-Swift's Wing
DR14 -4.69 dB -24.19 dB 8:42 04-Spiked With Heady Dreams
DR12 -2.98 dB -20.65 dB 2:01 05-Giraffe
––––––––––––––––––––––––––––––––––––––––

Number of tracks: 5
Official DR value: DR12

Samplerate: 44100 Hz
Channels: 2
Bits per sample: 16
Bitrate: 794 kbps
Codec: FLAC
================================================================================



Title: Jimi Hendrix 1972 - Jimi Hendrix At His Best (Volume 3) - DVD
Size: 1.28 Gb ( 1 342 464,00 KBytes ) - DVD-5
Enabled regions: 1, 2, 3, 4, 5, 6, 7, 8

VTS_01 :
Play Length: 00:38:35
Video: NTSC 4:3 (720x480) VBR
Audio:
Not specified (LinearPCM, 2 ch)



Original ripper: 1atamay
Original format: 32/192
Vinyl Condition: EX
Cleaning:
Direct Drive Turntable: Pioneer PL30L
Cartridge: Denon 103
Amplifier: yamaha C4
ADC: Xonar ST
Postprocessing: iZotop

Downsampled to 16/44

Jimi Hendrix - Jimi Hendrix At His Best (Volume 3) (1972) [Vinyl Rip 16/44 & mp3-320 + DVD] Re-up

Jimi Hendrix - Jimi Hendrix At His Best (Volume 3) (1972) [Vinyl Rip 16/44 & mp3-320 + DVD] Re-up

Jimi Hendrix in my Blog

Download Jimi Hendrix - Jimi Hendrix At His Best (Volume 3) (1972):