Subcategories
Tags
Language
Tags

Jimi Hendrix - War Heroes (1972) Re-up

Posted By: v3122
Jimi Hendrix - War Heroes (1972) Re-up

Jimi Hendrix - War Heroes (1972)
EAC | Flac(Image) + Cue + Log > 243 Mb | Mp3 CBR 320Kpbs > 91 Mb
Psychedelic/Classic Rock | TT - 35:34 | Label: Polydor KK | Cat. # P20P 22010 | 1989, Japan
Scans (Jpg) -> 6.81 Mb

Jimi Hendrix left behind more unreleased material than just about any other rock artist. Some tracks have rated as all-time classics ("Angel," "Izabella," "Drifting," etc.), while others should have remained in the vaults (such as the full-length albums Crash Landing and Voodoo Soup, two collections that were near-criminally touched up by then-Hendrix keeper Alan Douglas). The out of print War Heroes is one of the few consistent compilations of unreleased Hendrix, and has since been replaced by First Rays of the New Rising Sun and South Saturn Delta. Highlights include "Beginning" (which contains a riff almost identical to the Stones' "Bitch"), "Highway Chile," and "Izabella," a track premiered on a Dick Cavett TV show a year before Hendrix's death. However, not all of the material is up to snuff, such as the nonsensical "Three Little Bears" and "Midnight," an overty indulgent instrumental. If you're a newcomer to Hendrix, don't start here, but if you're a serious fan searching for some interesting obscurities, War Heroes is definitely worth the price.

by Greg Prato, allmusic.com
Jimi Hendrix - War Heroes (1972) Re-up


*********



Jimi Hendrix - War Heroes (1972) Re-up

Tracklist:

01. Bleeding heart [rec. at Record Plant Studios, NY 02.05.68] [03:16]
02. Highway chile [rec. at Olympic Studios, London, UK 03.04.67] [03:36]
03. Tax free [rec. at Record Plant Studios, NY 01.05.68] [05:01]
04. Peter Gunn catastrophe [rec. at Record Plant Studios, NY 14.05.70] [02:24]
05. Stepping stone [rec. at Record Plant Studios, NY 14.11.69] [04:11]
06. Midnight [rec. at Olmstead Studios, NY 03.04.69] [05:38]
07. 3 little bears [rec. at Record Plant Studios, NY 02.05.68] [04:15]
08. Beginning [rec. at Electric Lady Studios, NY 16.06 &\or 01.07.70] [04:17]
09. Izabella [rec. at The Hit Factory, NY 28-29.08.69] [02:52]

Exact Audio Copy V0.99 prebeta 5 from 4. May 2009

EAC extraction logfile from 6. May 2013, 12:25

JIMI HENDRIX / War Heroes

Used drive : ASUS DRW-24B3ST Adapter: 5 ID: 0

Read mode : Secure
Utilize accurate stream : Yes
Defeat audio cache : Yes
Make use of C2 pointers : No

Read offset correction : 6
Overread into Lead-In and Lead-Out : No
Fill up missing offset samples with silence : Yes
Delete leading and trailing silent blocks : No
Null samples used in CRC calculations : Yes
Used interface : Native Win32 interface for Win NT & 2000

Used output format : User Defined Encoder
Selected bitrate : 1024 kBit/s
Quality : High
Add ID3 tag : No
Command line compressor : C:\Program Files (x86)\EAC\WV\wavpack.exe
Additional command line options : -h -hh -m %s %d


TOC of the extracted CD

Track | Start | Length | Start sector | End sector
––––––––––––––––––––––––––––-
1 | 0:00.37 | 3:16.50 | 37 | 14786
2 | 3:17.12 | 3:36.45 | 14787 | 31031
3 | 6:53.57 | 5:01.33 | 31032 | 53639
4 | 11:55.15 | 2:24.60 | 53640 | 64499
5 | 14:20.00 | 4:11.57 | 64500 | 83381
6 | 18:31.57 | 5:38.15 | 83382 | 108746
7 | 24:09.72 | 4:15.00 | 108747 | 127871
8 | 28:24.72 | 4:17.33 | 127872 | 147179
9 | 32:42.30 | 2:52.65 | 147180 | 160144


Range status and errors

Selected range

Filename S:\JIMI HENDRIX\1972- War Heroes (JP 1989 Polydor KK • P20P 22010)\JIMI HENDRIX - War Heroes.wav

Peak level 95.5 %
Range quality 100.0 %
Test CRC 4876B444
Copy CRC 4876B444
Copy OK

No errors occurred


AccurateRip summary

Track 1 accurately ripped (confidence 2) [E974590C]
Track 2 accurately ripped (confidence 2) [506C0FB9]
Track 3 not present in database
Track 4 not present in database
Track 5 accurately ripped (confidence 2) [6244D0E3]
Track 6 not present in database
Track 7 not present in database
Track 8 not present in database
Track 9 not present in database

3 track(s) accurately ripped
6 track(s) not present in the AccurateRip database

Some tracks could not be verified as accurate

End of status report

foobar2000 1.2.9 / Dynamic Range Meter 1.1.1
log date: 2016-12-30 00:49:53

––––––––––––––––––––––––––––––––––––––––
Analyzed: JIMI HENDRIX / War Heroes
––––––––––––––––––––––––––––––––––––––––

DR Peak RMS Duration Track
––––––––––––––––––––––––––––––––––––––––
DR12 -0.40 dB -14.19 dB 3:17 01-Bleeding heart [rec. at Record Plant Studios, NY 02.05.68]
DR13 -0.40 dB -15.20 dB 3:37 02-Highway chile [rec. at Olympic Studios, London, UK 03.04.67]
DR12 -0.40 dB -13.85 dB 5:01 03-Tax free [rec. at Record Plant Studios, NY 01.05.68]
DR12 -0.40 dB -15.55 dB 2:25 04-Peter Gunn catastrophe [rec. at Record Plant Studios, NY 14.05.70]
DR11 -0.40 dB -13.91 dB 4:12 05-Stepping stone [rec. at Record Plant Studios, NY 14.11.69]
DR12 -0.40 dB -13.75 dB 5:38 06-Midnight [rec. at Olmstead Studios, NY 03.04.69]
DR11 -0.40 dB -14.30 dB 4:15 07-3 little bears [rec. at Record Plant Studios, NY 02.05.68]
DR11 -0.40 dB -13.42 dB 4:17 08-Beginning [rec. at Electric Lady Studios, NY 16.06 &\or 01.07.70]
DR11 -0.40 dB -12.79 dB 2:53 09-Izabella [rec. at The Hit Factory, NY 28-29.08.69]
––––––––––––––––––––––––––––––––––––––––

Number of tracks: 9
Official DR value: DR12

Samplerate: 44100 Hz
Channels: 2
Bits per sample: 16
Bitrate: 902 kbps
Codec: FLAC

[CUETools log; Date: 30.12.2016 0:49:55; Version: 2.1.4]
Pregap length 00:00:37.
[CTDB TOCID: uCG2VMucRjMEOIaMYzKS_FCeqdk-] found.
Track | CTDB Status
1 | (3/7) Accurately ripped
2 | (3/7) Accurately ripped
3 | (3/7) Accurately ripped
4 | (3/7) Accurately ripped
5 | (3/7) Accurately ripped
6 | (3/7) Accurately ripped
7 | (3/7) Accurately ripped
8 | (3/7) Accurately ripped
9 | (3/7) Accurately ripped
[AccurateRip ID: 000c131a-005992fe-71085709] found.
Track [ CRC | V2 ] Status
01 [e974590c|39247366] (2+2/4) Accurately ripped
02 [506c0fb9|e24a9736] (2+2/4) Accurately ripped
03 [05e2d89c|37574d13] (0+2/2) Accurately ripped
04 [8c3a2284|7929ca12] (0+2/2) Accurately ripped
05 [6244d0e3|3eaf43c8] (2+2/4) Accurately ripped
06 [60e9b36e|750b4133] (0+2/2) Accurately ripped
07 [d0654592|e81693f6] (0+2/2) Accurately ripped
08 [7ad9aefc|4bc1bbb1] (0+2/2) Accurately ripped
09 [fa0ce6c6|249eaeb8] (0+2/2) Accurately ripped

Track Peak [ CRC32 ] [W/O NULL] [ LOG ]
– 95,5 [4876B444] [3552BBDB] CRC32
01 95,5 [95419637] [5C017F2A]
02 95,5 [3B49F4CC] [83ACEF7B]
03 95,5 [A7AABB57] [8042E14C]
04 95,5 [378C16E6] [CE25E0AA]
05 95,5 [AD0EA4BD] [604B8439]
06 95,5 [E02A0C98] [B2675927]
07 95,5 [6FB15254] [7131985A]
08 95,5 [DECA43FC] [E753766F]
09 95,5 [EF306CCB] [FCB4F37A]

Jimi Hendrix - War Heroes (1972) Re-up

All thanks go to original releaser …