Subcategories

Jimmy Raney, Jim Hall, Zoot Sims - Two Jims and Zoot (1964) [MFSL Remastered]

Posted By: Designol
Jimmy Raney, Jim Hall, Zoot Sims - Two Jims and Zoot (1964) [MFSL Remastered]

Jimmy Raney, Jim Hall, Zoot Sims - Two Jims and Zoot (1964) [MFSL Remastered]
XLD | FLAC | Tracks (Cue&Log) ~ 184 Mb | Mp3 (CBR320) ~ 95 Mb | Scans included
Bop, Cool, Guitar Jazz | Label: Mobile Fidelity Sound Lab | # MFCD 833 | 00:40:16

The slightly unusual date Two Jims and a Zoot features tenor saxophonist Zoot Sims interacting with two guitarists (Jimmy Raney and Jim Hall) while given subtle support by bassist Steve Swallow and drummer Osie Johnson. Although the eight selections (none of which caught on as standards) had all been written recently and sometimes display the influence of bossa nova, the quiet performances could pass for 1954 rather than 1964. The cool-toned improvisations and boppish playing have a timeless quality about them although for the time period aspects of this music already sounded a bit old-fashioned.

Review by Scott Yanow, Allmusic.com

Jimmy Raney, Jim Hall, Zoot Sims - Two Jims and Zoot (1964) [MFSL Remastered]



Jimmy Raney, Jim Hall - guitars
Zoot Sims - tenor saxophone
Steve Swallow - bass
Osie Johnson - drums
Recorded in New York on May 11-12, 1964.

Tracklist:

01. Hold Me (2:56)
02. A Primera Vez (4:20)
03. Presente de Natal (3:06)
04. Morning of the Carnival (4:34)
05. Este Seu Olhar (4:36)
06. Betaminus (3:18)
07. Move It (4:25)
08. All Across the City (4:49)
09. Coisa Mais Linda (4:20)
10. How About You (3:52)


X Lossless Decoder version 20161007 (149.3)

XLD extraction logfile from 2017-07-18 06:30:56 -0300

Jimmy Raney / Two Jims And Zoot

Used drive : HL-DT-ST DVDRAM GP30NB20 (revision 1.00)
Media type : Pressed CD

Ripper mode : XLD Secure Ripper
Disable audio cache : OK for the drive with a cache less than 1375KiB
Make use of C2 pointers : NO
Read offset correction : 6
Max retry count : 20
Gap status : Analyzed, Appended

TOC of the extracted CD
Track | Start | Length | Start sector | End sector
––––––––––––––––––––––––––––-
1 | 00:00:33 | 02:55:10 | 33 | 13167
2 | 02:55:43 | 04:19:70 | 13168 | 32662
3 | 07:15:38 | 03:06:37 | 32663 | 46649
4 | 10:22:00 | 04:34:00 | 46650 | 67199
5 | 14:56:00 | 04:35:38 | 67200 | 87862
6 | 19:31:38 | 03:18:00 | 87863 | 102712
7 | 22:49:38 | 04:25:00 | 102713 | 122587
8 | 27:14:38 | 04:48:42 | 122588 | 144229
9 | 32:03:05 | 04:20:33 | 144230 | 163762
10 | 36:23:38 | 03:52:25 | 163763 | 181187

AccurateRip Summary (DiscID: 000eae0b-00770ee7-8d096f0a)
Track 01 : OK (v1+v2, confidence 12/12)
Track 02 : OK (v1+v2, confidence 13/13)
Track 03 : OK (v1+v2, confidence 13/13)
Track 04 : OK (v1+v2, confidence 13/13)
Track 05 : OK (v1+v2, confidence 13/13)
Track 06 : OK (v1+v2, confidence 13/13)
Track 07 : OK (v1+v2, confidence 13/13)
Track 08 : OK (v1+v2, confidence 13/13)
Track 09 : OK (v1+v2, confidence 13/13)
Track 10 : OK (v1+v2, confidence 11/11)
->All tracks accurately ripped.

All Tracks
Album gain : 2.91 dB
Peak : 0.545776
Statistics
Read error : 0
Jitter error (maybe fixed) : 0
Retry sector count : 0
Damaged sector count : 0

Track 01
Filename : /Incompatible Software/Compilations - Two Jims And Zoot (1964) {MFCD 833} [FLAC]/01 - Hold Me.flac
Pre-gap length : 00:02:33

Track gain : 4.83 dB
Peak : 0.380035
CRC32 hash (test run) : 4D4378BC
CRC32 hash : 4D4378BC
CRC32 hash (skip zero) : 2FDD6314
AccurateRip v1 signature : 19A15555
AccurateRip v2 signature : 951DE81E
->Accurately ripped (v1+v2, confidence 3+9/12)
Statistics
Read error : 0
Jitter error (maybe fixed) : 0
Retry sector count : 0
Damaged sector count : 0

Track 02
Filename : /Incompatible Software/Compilations - Two Jims And Zoot (1964) {MFCD 833} [FLAC]/02 - A Primera Vez.flac
Pre-gap length : 00:04:20

Track gain : 1.85 dB
Peak : 0.454895
CRC32 hash (test run) : CEE9789A
CRC32 hash : CEE9789A
CRC32 hash (skip zero) : F9E0D87F
AccurateRip v1 signature : 2EFFE225
AccurateRip v2 signature : F64F33FC
->Accurately ripped (v1+v2, confidence 3+10/13)
Statistics
Read error : 0
Jitter error (maybe fixed) : 0
Retry sector count : 0
Damaged sector count : 0

Track 03
Filename : /Incompatible Software/Compilations - Two Jims And Zoot (1964) {MFCD 833} [FLAC]/03 - Presente De Natal.flac
Pre-gap length : 00:01:45

Track gain : 3.04 dB
Peak : 0.498840
CRC32 hash (test run) : 4A79193D
CRC32 hash : 4A79193D
CRC32 hash (skip zero) : 95F6EFF9
AccurateRip v1 signature : 99CB9DDF
AccurateRip v2 signature : 98A4AEE4
->Accurately ripped (v1+v2, confidence 3+10/13)
Statistics
Read error : 0
Jitter error (maybe fixed) : 0
Retry sector count : 0
Damaged sector count : 0

Track 04
Filename : /Incompatible Software/Compilations - Two Jims And Zoot (1964) {MFCD 833} [FLAC]/04 - Morning Of The Carnival.flac
Pre-gap length : 00:01:62

Track gain : 3.45 dB
Peak : 0.545776
CRC32 hash (test run) : A4BEA9B7
CRC32 hash : A4BEA9B7
CRC32 hash (skip zero) : 4789261A
AccurateRip v1 signature : EDC446F1
AccurateRip v2 signature : B5C0AEA4
->Accurately ripped (v1+v2, confidence 3+10/13)
Statistics
Read error : 0
Jitter error (maybe fixed) : 0
Retry sector count : 0
Damaged sector count : 0

Track 05
Filename : /Incompatible Software/Compilations - Two Jims And Zoot (1964) {MFCD 833} [FLAC]/05 - Este Seu Olhar.flac
Pre-gap length : 00:02:37

Track gain : 3.16 dB
Peak : 0.440430
CRC32 hash (test run) : C1847A9D
CRC32 hash : C1847A9D
CRC32 hash (skip zero) : 1C0C4B17
AccurateRip v1 signature : 88C68129
AccurateRip v2 signature : 40505C85
->Accurately ripped (v1+v2, confidence 3+10/13)
Statistics
Read error : 0
Jitter error (maybe fixed) : 0
Retry sector count : 0
Damaged sector count : 0

Track 06
Filename : /Incompatible Software/Compilations - Two Jims And Zoot (1964) {MFCD 833} [FLAC]/06 - Betaminus.flac
Pre-gap length : 00:05:05

Track gain : 2.68 dB
Peak : 0.476715
CRC32 hash (test run) : 56C147F7
CRC32 hash : 56C147F7
CRC32 hash (skip zero) : 4D7CFEAA
AccurateRip v1 signature : 00B48C2A
AccurateRip v2 signature : 7B85107E
->Accurately ripped (v1+v2, confidence 3+10/13)
Statistics
Read error : 0
Jitter error (maybe fixed) : 0
Retry sector count : 0
Damaged sector count : 0

Track 07
Filename : /Incompatible Software/Compilations - Two Jims And Zoot (1964) {MFCD 833} [FLAC]/07 - Move It.flac
Pre-gap length : 00:01:30

Track gain : 2.36 dB
Peak : 0.480438
CRC32 hash (test run) : 484C9A13
CRC32 hash : 484C9A13
CRC32 hash (skip zero) : 5831F059
AccurateRip v1 signature : D1AF6770
AccurateRip v2 signature : 63213881
->Accurately ripped (v1+v2, confidence 3+10/13)
Statistics
Read error : 0
Jitter error (maybe fixed) : 0
Retry sector count : 0
Damaged sector count : 0

Track 08
Filename : /Incompatible Software/Compilations - Two Jims And Zoot (1964) {MFCD 833} [FLAC]/08 - All Across The City.flac
Pre-gap length : 00:01:50

Track gain : 4.96 dB
Peak : 0.360413
CRC32 hash (test run) : 64C50864
CRC32 hash : 64C50864
CRC32 hash (skip zero) : DED56F86
AccurateRip v1 signature : 6780C407
AccurateRip v2 signature : FDDA8C37
->Accurately ripped (v1+v2, confidence 3+10/13)
Statistics
Read error : 0
Jitter error (maybe fixed) : 0
Retry sector count : 0
Damaged sector count : 0

Track 09
Filename : /Incompatible Software/Compilations - Two Jims And Zoot (1964) {MFCD 833} [FLAC]/09 - Coisa Mais Linda.flac
Pre-gap length : 00:01:67

Track gain : 2.72 dB
Peak : 0.438995
CRC32 hash (test run) : 6FCB49C3
CRC32 hash : 6FCB49C3
CRC32 hash (skip zero) : 391CC2A2
AccurateRip v1 signature : 49CFDD9D
AccurateRip v2 signature : 25E11BBF
->Accurately ripped (v1+v2, confidence 3+10/13)
Statistics
Read error : 0
Jitter error (maybe fixed) : 0
Retry sector count : 0
Damaged sector count : 0

Track 10
Filename : /Incompatible Software/Compilations - Two Jims And Zoot (1964) {MFCD 833} [FLAC]/10 - How About You.flac
Pre-gap length : 00:03:28

Track gain : 2.67 dB
Peak : 0.464081
CRC32 hash (test run) : 4F4AEE7C
CRC32 hash : 4F4AEE7C
CRC32 hash (skip zero) : 37844243
AccurateRip v1 signature : 90624655
AccurateRip v2 signature : 3E8D791B
->Accurately ripped (v1+v2, confidence 3+8/11)
Statistics
Read error : 0
Jitter error (maybe fixed) : 0
Retry sector count : 0
Damaged sector count : 0

No errors occurred

End of status report

––-BEGIN XLD SIGNATURE––-
WJj6XvtWPOJPA0lyY8CrUGWkU.HVKXl709_Oi7r2j2th8acNzG1KV4H_LkYxopU5S.YDFFmzCaunaBgjkT0b.gG7Qb2rBuIOFoOeIFa
––-END XLD SIGNATURE––-

foobar2000 1.2 / Dynamic Range Meter 1.1.1
log date: 2017-07-23 19:54:27

––––––––––––––––––––––––––––––––––––––––
Analyzed: Jimmy Raney / Two Jims and Zoot
––––––––––––––––––––––––––––––––––––––––

DR Peak RMS Duration Track
––––––––––––––––––––––––––––––––––––––––
DR11 -8.40 dB -24.09 dB 2:56 01-Hold Me
DR11 -6.84 dB -20.99 dB 4:20 02-A Primera Vez
DR11 -6.04 dB -21.90 dB 3:06 03-Presente de Natal
DR11 -5.26 dB -22.74 dB 4:34 04-Morning of the Carnival
DR11 -7.12 dB -22.83 dB 4:36 05-Este Seu Olhar
DR12 -6.43 dB -21.49 dB 3:18 06-Betaminus
DR12 -6.37 dB -21.87 dB 4:25 07-Move It
DR11 -8.86 dB -24.56 dB 4:49 08-All Across the City
DR11 -7.15 dB -22.42 dB 4:20 09-Coisa Mais Linda
DR11 -6.67 dB -21.46 dB 3:52 10-How About You
––––––––––––––––––––––––––––––––––––––––

Number of tracks: 10
Official DR value: DR11

Samplerate: 44100 Hz
Channels: 2
Bits per sample: 16
Bitrate: 642 kbps
Codec: FLAC
================================================================================

Jimmy Raney, Jim Hall, Zoot Sims - Two Jims and Zoot (1964) [MFSL Remastered]

Jimmy Raney, Jim Hall, Zoot Sims - Two Jims and Zoot (1964) [MFSL Remastered]

All thanks to original releaser - Ratcake

More interesting music in My Blog