Subcategories

Jimmy Rogers with Muddy Waters & Little Walter - Chicago Bound (1970) Reissue 1994, Chess Blues Collection 26

Posted By: Designol
Jimmy Rogers with Muddy Waters & Little Walter - Chicago Bound (1970) Reissue 1994, Chess Blues Collection 26

Jimmy Rogers with Muddy Waters & Little Walter - Chicago Bound (1970)
Reissue 1994, Chess Blues Collection 26

EAC | FLAC | Tracks (Cue&Log) ~ 165 Mb | Mp3 (CBR320) ~ 97 Mb | Scans ~ 226 Mb
Chicago Blues, Electric Blues | Label: MCA | # MVCM-22026 | Time: 00:42:15

Starkly printed in black and white with washed-out, grainy photographs, this is one heavy slab of blues by a player who is not as well-known as he should be. Guitarist Jimmy Rogers was usually overshadowed by the leaders he worked for, Muddy Waters particularly. He was also sometimes confused with the hillbilly singer Jimmie Rodgers, and although they might have sounded good together, they don't have anything in common. This reissue collection grabs 14 tracks done at various times in the mostly early '50s which involve practically a who's who of performers associated with the most intense and driving Chicago blues. This includes the aforementioned Waters, leaving behind his role as leader for a few numbers to add some stinging guitar parts. There is also a pair of harmonica players, each of whom could melt vinyl siding with their playing. These are the Walters, big and little, as in Big Walter Horton and Little Walter. Pianist Otis Spann, bassist Willie Dixon, and drummer Fred Belew are also on hand, meaning the rhythm section action is first class. Blues listeners who have only skimmed the surface of the music may not have really discovered Rogers, as his reputation increased in the years after his death and he had nowhere near the following and status of Waters or even Little Walter. Some of the tracks here are numbers the musicians got together and played with Rogers at the end of what was probably an already grueling session by Waters. "Sloppy Drunk" is a killer track that joins the long list of great blues numbers concerning the inebriated, while "Walking by Myself" is a fine example of the kind of shuffling rhythm these players are so good at. The CD era was an opportunity to put together larger selections of Rogers' material, complete with outtakes and selections that are much rarer than the material here. If a listener's reaction to this album is as positive as it ought to be, they can be assured the pickings will be equally tasty if they decide to go for more extensive documentation of this artist.
Review by Eugene Chadbourne, Allmusic.com

Jimmy Rogers with Muddy Waters & Little Walter - Chicago Bound (1970) Reissue 1994, Chess Blues Collection 26



Lead Vocals – Jimmy Rogers
Guitar – Jimmy Rogers, Muddy Waters (2, 4, 10, 11, 13)
Harmonica – Little Walter, Big Walter Horton (14)
Bass – Ernest "Big" Crawford (3, 7, 11, 12, 13), Willie Dixon
Piano – Eddie Ware (2, 5, 7), Henry Gray (6, 9, 10, 13), Otis Spann (1, 8, 14)
Tenor Saxophone – Ernest Cotton (7), J.T. Brown (5)
Drums – Elgin Evans (2, 4, 5, 7, 10), Fred Below


Tracklist:

01. You're The One (2:33) March 9, 1955
02. Money, Marbles and Chalk (3:20) July 11, 1951
03. Luedella (2:55) August 15, 1950
04. Act Like You Love Me (3:53) May 4, 1953
05. Back Door Friend (3:24) February 11, 1952
06. Last Time (2:46) August 12, 1952
07. I Used To Have A Woman (3:09) January 23, 1951
08. Sloppy Drunk (3:03) April 13, 1954
09. Blues Leave Me Alone (3:06) January 7, 1954
10. Out On The Road (2:55) August 12, 1952
11. Goin' Away Baby (2:46) October 23, 1950
12. That's All Right (2:51) August 15, 1950
13. Chicago Bound (2:44) January 7, 1954
14. Walking By Myself (2:50) October 29, 1956


Exact Audio Copy V1.0 beta 2 from 29. April 2011

EAC extraction logfile from 20. March 2012, 20:50

Jimmy Rogers / Chicago Bound

Used drive : PLEXTOR DVDR PX-L890SA Adapter: 2 ID: 1

Read mode : Secure
Utilize accurate stream : Yes
Defeat audio cache : Yes
Make use of C2 pointers : No

Read offset correction : 6
Overread into Lead-In and Lead-Out : No
Fill up missing offset samples with silence : Yes
Delete leading and trailing silent blocks : No
Null samples used in CRC calculations : Yes
Used interface : Native Win32 interface for Win NT & 2000
Gap handling : Appended to previous track

Used output format : User Defined Encoder
Selected bitrate : 256 kBit/s
Quality : High
Add ID3 tag : No
Command line compressor : C:\Program Files (x86)\Exact Audio Copy\FLAC\FLAC.EXE
Additional command line options : -8 -V -T "ARTIST=%artist%" -T "TITLE=%title%" -T "ALBUM=%albumtitle%" -T "DATE=%year%" -T "TRACKNUMBER=%tracknr%" -T "TOTALTRACKS=%numtracks%" -T "GENRE=%genre%" -T "ALBUMARTIST=%albumartist%" -T "ALBUM ARTIST=%albumartist%


TOC of the extracted CD

Track | Start | Length | Start sector | End sector
––––––––––––––––––––––––––––-
1 | 0:00.37 | 2:33.30 | 37 | 11541
2 | 2:33.67 | 3:20.12 | 11542 | 26553
3 | 5:54.04 | 2:54.53 | 26554 | 39656
4 | 8:48.57 | 3:53.12 | 39657 | 57143
5 | 12:41.69 | 3:24.28 | 57144 | 72471
6 | 16:06.22 | 2:46.20 | 72472 | 84941
7 | 18:52.42 | 3:08.67 | 84942 | 99108
8 | 22:01.34 | 3:02.60 | 99109 | 112818
9 | 25:04.19 | 3:06.13 | 112819 | 126781
10 | 28:10.32 | 2:55.02 | 126782 | 139908
11 | 31:05.34 | 2:46.10 | 139909 | 152368
12 | 33:51.44 | 2:50.45 | 152369 | 165163
13 | 36:42.14 | 2:43.48 | 165164 | 177436
14 | 39:25.62 | 2:49.60 | 177437 | 190171


Track 1

Filename F:\Flac Rips\01 - You're The One.wav

Pre-gap length 0:00:02.37

Peak level 76.9 %
Extraction speed 3.0 X
Track quality 100.0 %
Test CRC C3AA4457
Copy CRC C3AA4457
Accurately ripped (confidence 1) [94D82073] (AR v1)
Copy OK

Track 2

Filename F:\Flac Rips\02 - Money, Marbles and Chalk.wav

Pre-gap length 0:00:03.12

Peak level 73.1 %
Extraction speed 2.8 X
Track quality 99.9 %
Test CRC 071CBDE5
Copy CRC 071CBDE5
Accurately ripped (confidence 1) [BE59A96C] (AR v1)
Copy OK

Track 3

Filename F:\Flac Rips\03 - Luedella.wav

Pre-gap length 0:00:02.61

Peak level 58.4 %
Extraction speed 3.7 X
Track quality 100.0 %
Test CRC 2A6CE89E
Copy CRC 2A6CE89E
Accurately ripped (confidence 1) [F0825350] (AR v1)
Copy OK

Track 4

Filename F:\Flac Rips\04 - Act Like You Love Me.wav

Pre-gap length 0:00:02.57

Peak level 75.3 %
Extraction speed 4.2 X
Track quality 100.0 %
Test CRC C8CACAA2
Copy CRC C8CACAA2
Accurately ripped (confidence 1) [D782E6A9] (AR v1)
Copy OK

Track 5

Filename F:\Flac Rips\05 - Back Door Friend.wav

Pre-gap length 0:00:02.26

Peak level 73.9 %
Extraction speed 4.4 X
Track quality 100.0 %
Test CRC 66D05583
Copy CRC 66D05583
Accurately ripped (confidence 1) [3E66BF5B] (AR v1)
Copy OK

Track 6

Filename F:\Flac Rips\06 - Last Time.wav

Pre-gap length 0:00:03.22

Peak level 73.5 %
Extraction speed 4.4 X
Track quality 100.0 %
Test CRC C0884362
Copy CRC C0884362
Accurately ripped (confidence 1) [ECADC624] (AR v1)
Copy OK

Track 7

Filename F:\Flac Rips\07 - I Used To Have A Woman.wav

Pre-gap length 0:00:02.42

Peak level 75.3 %
Extraction speed 3.6 X
Track quality 99.9 %
Test CRC B9E54B48
Copy CRC B9E54B48
Accurately ripped (confidence 1) [3725BDC5] (AR v1)
Copy OK

Track 8

Filename F:\Flac Rips\08 - Sloppy Drunk.wav

Pre-gap length 0:00:01.24

Peak level 58.9 %
Extraction speed 4.9 X
Track quality 100.0 %
Test CRC 496BC387
Copy CRC 496BC387
Accurately ripped (confidence 1) [C74A57EB] (AR v1)
Copy OK

Track 9

Filename F:\Flac Rips\09 - Blues Leave Me Alone.wav

Pre-gap length 0:00:01.41

Peak level 83.3 %
Extraction speed 5.1 X
Track quality 100.0 %
Test CRC 2DED94F1
Copy CRC 2DED94F1
Accurately ripped (confidence 1) [5C5D8A8E] (AR v1)
Copy OK

Track 10

Filename F:\Flac Rips\10 - Out On The Road.wav

Pre-gap length 0:00:02.39

Peak level 71.6 %
Extraction speed 5.2 X
Track quality 100.0 %
Test CRC 0B68D583
Copy CRC 0B68D583
Accurately ripped (confidence 1) [09BF03D8] (AR v1)
Copy OK

Track 11

Filename F:\Flac Rips\11 - Goin' Away Baby.wav

Pre-gap length 0:00:02.66

Peak level 84.7 %
Extraction speed 5.4 X
Track quality 100.0 %
Test CRC 7E911C0A
Copy CRC 7E911C0A
Accurately ripped (confidence 1) [5E66D31A] (AR v1)
Copy OK

Track 12

Filename F:\Flac Rips\12 - That's All Right.wav

Pre-gap length 0:00:02.69

Peak level 63.8 %
Extraction speed 5.4 X
Track quality 100.0 %
Test CRC 8B321BB3
Copy CRC 8B321BB3
Accurately ripped (confidence 1) [6B7C9A1A] (AR v1)
Copy OK

Track 13

Filename F:\Flac Rips\13 - Chicago Bound.wav

Pre-gap length 0:00:03.71

Peak level 70.0 %
Extraction speed 4.2 X
Track quality 99.9 %
Test CRC A68719DB
Copy CRC A68719DB
Accurately ripped (confidence 1) [08DC5C7E] (AR v1)
Copy OK

Track 14

Filename F:\Flac Rips\14 - Walking By Myself.wav

Pre-gap length 0:00:02.59

Peak level 58.5 %
Extraction speed 5.8 X
Track quality 100.0 %
Test CRC 45F39520
Copy CRC 45F39520
Accurately ripped (confidence 1) [4D95B59A] (AR v1)
Copy OK


All tracks accurately ripped

No errors occurred

End of status report

==== Log checksum 6D615B3D5B1D184DE45EC53B4C6FC1F9BAECCD2932C362721A4E3E8597FEB4E1 ====

foobar2000 1.2 / Dynamic Range Meter 1.1.1
log date: 2017-05-15 22:53:21

––––––––––––––––––––––––––––––––––––––––
Analyzed: Jimmy Rogers / Chicago Bound
––––––––––––––––––––––––––––––––––––––––

DR Peak RMS Duration Track
––––––––––––––––––––––––––––––––––––––––
DR14 -2.27 dB -17.44 dB 2:33 01-You're The One
DR13 -2.71 dB -17.42 dB 3:20 02-Money, Marbles and Chalk
DR12 -4.66 dB -19.27 dB 2:55 03-Luedella
DR13 -2.46 dB -17.52 dB 3:53 04-Act Like You Love Me
DR13 -2.62 dB -18.27 dB 3:24 05-Back Door Friend
DR13 -2.67 dB -16.87 dB 2:46 06-Last Time
DR14 -2.45 dB -17.94 dB 3:09 07-I Used To Have A Woman
DR11 -4.59 dB -16.19 dB 3:03 08-Sloppy Drunk
DR13 -1.58 dB -17.66 dB 3:06 09-Blues Leave Me Alone
DR13 -2.90 dB -16.87 dB 2:55 10-Out On The Road
DR15 -1.44 dB -18.88 dB 2:46 11-Goin' Away Baby
DR12 -3.89 dB -18.19 dB 2:51 12-That's All Right
DR14 -3.10 dB -18.15 dB 2:44 13-Chicago Bound
DR10 -4.65 dB -16.43 dB 2:50 14-Walking By Myself
––––––––––––––––––––––––––––––––––––––––

Number of tracks: 14
Official DR value: DR13

Samplerate: 44100 Hz
Channels: 2
Bits per sample: 16
Bitrate: 555 kbps
Codec: FLAC
================================================================================

Jimmy Rogers with Muddy Waters & Little Walter - Chicago Bound (1970) Reissue 1994, Chess Blues Collection 26

Jimmy Rogers with Muddy Waters & Little Walter - Chicago Bound (1970) Reissue 1994, Chess Blues Collection 26

All thanks to original releaser - jlgt

More interesting music in My Blog