Tags
Language
Tags
November 2022
Su Mo Tu We Th Fr Sa
30 31 1 2 3 4 5
6 7 8 9 10 11 12
13 14 15 16 17 18 19
20 21 22 23 24 25 26
27 28 29 30 1 2 3

Jody Williams - Return Of A Legend (2001)

Posted By: Designol
Jody Williams - Return Of A Legend (2001)

Jody Williams - Return Of A Legend (2001)
EAC | FLAC | Image (Cue&Log) ~ 379 Mb | Mp3 (CBR320) ~ 128 Mb | Scans ~ 63 Mb
Modern Electric Blues, Chicago Blues | Label: Evidence | # ECD 26120-2 | 00:55:47

The boastful title is no exaggeration; this is a welcome return for the classic Chicago blues sideman, who, primarily because of the misfortune of his music being exploited by other musicians, took a self-imposed retirement for nearly 30 years. It's especially rewarding since Williams – whose work you hear on early Howlin' Wolf, Otis Spann, Bo Diddley, Billy Boy Arnold (who guests here) sides – hadn't played a lick during that time, keeping his guitar stashed under his bed. He sounds like he never put the instrument away on this album, the first cohesive disc under his own name ever. Aided by comparative youngsters Tinsley Ellis, Ronnie Baker Brooks, and Rusty Zinn, along with a 21-year-old Sean Costello, Williams holds the spotlight like the pro his is. Though well into his sixties when this was recorded in 2001, he sounds remarkably vibrant, completely confident, and totally in his element. Whether reprising past glories like the magnificent instrumental "Moanin' for Molasses" along with Costello (who had revived the tune as the title track to his third release) or "Lucky Lou," which most blues fans will immediately recognize as the opening to Otis Rush's "All Your Love" (but was nicked from Williams), or writing new originals like the slow blues of "She Found a Fool and Bumped His Head," the guitarist sounds like he's thrilled to be recording again. That enthusiasm infects the band and pervades this album with a glow all too seldom felt when bluesmen attempt comebacks, especially after laying low as long as Williams has. Between his clean, jazzy yet direct blues style, the remarkably sympathetic band, and wonderfully understated production from Dick Shurman (the man heavily credited with enticing Williams back from obscurity), there are no missteps on this return. It's a tasteful showcase for one of the blues' lesser-known yet classic stars, and will hopefully be the beginning of a new lease on life for Jody Williams.

Review by Hal Horowitz, Allmusic.com

Jody Williams - Return Of A Legend (2001)



Vocals, Guitar – Jody Williams
Vocals – Billy Boy Arnold (7), Rusty Zinn (10), Sean Costello (5, 6), Tinsley Ellis (5, 12)
Guitar – Rusty Zinn (9, 10), Sean Costello (5, 6), Tinsley Ellis (1, 12)
Harmonica – Billy Boy Arnold (tracks: 2)
Piano, Organ – Allen Batts
Rhythm Guitar – Ronnie Baker Brooks
Tenor Saxophone – Hank Ford
Trumpet – Kenny Anderson
Baritone Saxophone – Willie Henderson
Bass – Harlan Terson
Drums – Kenny Smith

Tracklist:

01. Lucky Lou (4:52)
02. Come Over To My House (4:39)
03. Lifelong Lover (3:10)
04. You May (4:40)
05. Moanin' For Molasses (3:25)
06. Monkey Business (3:40)
07. I'm Coming Back Again (4:13)
08. She Found A Fool And Bumped His Head (6:22)
09. Jive Spot (3:28)
10. Brown Eyes And Big Thighs (5:08)
11. Wham Bam Thank You Ma'Am (3:29)
12. What You Gonna Do! (3:55)
13. Henpecked And Happy (4:45)


Exact Audio Copy V0.99 prebeta 5 from 4. May 2009

Отчёт EAC об извлечении, выполненном 5. декабря 2009, 23:03

Jody Williams / Return Of A Legend

Дисковод: PIONEER DVD-RW DVRKD08 Adapter: 1 ID: 0

Режим чтения : Достоверность
Использование точного потока : Да
Отключение кэша аудио : Да
Использование указателей C2 : Нет

Коррекция смещения при чтении : 48
Способность читать области Lead-in и Lead-out : Нет
Заполнение пропущенных сэмплов тишиной : Да
Удаление блоков с тишиной в начале и конце : Нет
При вычислениях CRC использовались нулевые сэмплы : Да
Интерфейс : Встроенный Win32-интерфейс для Win NT/2000

Выходной формат : Пользовательский кодировщик
Выбранный битрейт : 1024 kBit/s
Качество : Высокий
Добавление ID3-тэга : Нет
Утилита сжатия : C:\Program Files\Exact Audio Copy\FLAC\FLAC.EXE
Дополнительные параметры : -6 -V -T "ARTIST=%a" -T "TITLE=%t" -T "ALBUM=%g" -T "DATE=%y" -T "TRACKNUMBER=%n" -T "GENRE=%m" -T "COMMENT=%e" %s -o %d


TOC извлечённого CD

Трек | Старт | Длительность | Начальный сектор | Конечный сектор
––––––––––––––––––––––––––––––––––-
1 | 0:00.00 | 4:52.02 | 0 | 21901
2 | 4:52.02 | 4:38.65 | 21902 | 42816
3 | 9:30.67 | 3:09.53 | 42817 | 57044
4 | 12:40.45 | 4:39.55 | 57045 | 78024
5 | 17:20.25 | 3:25.27 | 78025 | 93426
6 | 20:45.52 | 3:40.35 | 93427 | 109961
7 | 24:26.12 | 4:13.20 | 109962 | 128956
8 | 28:39.32 | 6:21.48 | 128957 | 157579
9 | 35:01.05 | 3:28.32 | 157580 | 173211
10 | 38:29.37 | 5:08.30 | 173212 | 196341
11 | 43:37.67 | 3:29.30 | 196342 | 212046
12 | 47:07.22 | 3:55.00 | 212047 | 229671
13 | 51:02.22 | 4:45.08 | 229672 | 251054


Характеристики диапазона извлечения и сообщения об ошибках

Выбранный диапазон

Имя файла F:\Даде Саше\Jody Williams - 2001 - Return Of A Legend\Jody Williams - Return Of A Legend.wav

Пиковый уровень 99.2 %
Качество диапазона 100.0 %
CRC копии C251E648
Копирование… OK

Ошибок не произошло


AccurateRip: сводка

Трек 1 точность не определена (достоверность 2) [F55FDE49], AccurateRip вернул [2C1EA53C]
Трек 2 точность не определена (достоверность 2) [412DA503], AccurateRip вернул [9CE018BB]
Трек 3 точность не определена (достоверность 2) [948995AB], AccurateRip вернул [C97C5321]
Трек 4 точность не определена (достоверность 2) [92869A93], AccurateRip вернул [9CB7D313]
Трек 5 точность не определена (достоверность 3) [C79FAE11], AccurateRip вернул [ECD3B4E0]
Трек 6 точность не определена (достоверность 3) [413525BC], AccurateRip вернул [1384B060]
Трек 7 точность не определена (достоверность 2) [38AF2E58], AccurateRip вернул [847830FA]
Трек 8 точность не определена (достоверность 2) [4639A89D], AccurateRip вернул [14F6E084]
Трек 9 точность не определена (достоверность 2) [0315E2C4], AccurateRip вернул [1001C7E7]
Трек 10 точность не определена (достоверность 2) [ECBF23D2], AccurateRip вернул [91398325]
Трек 11 точность не определена (достоверность 2) [5B4281AC], AccurateRip вернул [D285C48C]
Трек 12 точность не определена (достоверность 2) [C589AFC8], AccurateRip вернул [358689BB]
Трек 13 точность не определена (достоверность 2) [720F15E0], AccurateRip вернул [1EDC016A]

Ни один трек не прошёл проверки на точность
В вашей базе может быть иной вариант штамповки диска

Конец отчёта

[CUETools log; Date: 16.05.2017 23:51:18; Version: 2.1.4]
HDCD: peak extend: none, transient filter: none, gain: -4,0dB..0,0dB
[CTDB TOCID: v365kDYXsroR4FYbUQ4qkRU6qO8-] found.
Track | CTDB Status
1 | (5/5) Accurately ripped
2 | (5/5) Accurately ripped
3 | (5/5) Accurately ripped
4 | (5/5) Accurately ripped
5 | (5/5) Accurately ripped
6 | (5/5) Accurately ripped
7 | (5/5) Accurately ripped
8 | (5/5) Accurately ripped
9 | (5/5) Accurately ripped
10 | (5/5) Accurately ripped
11 | (5/5) Accurately ripped
12 | (5/5) Accurately ripped
13 | (5/5) Accurately ripped
[AccurateRip ID: 001abbeb-010b2565-a20d130d] found.
Track [ CRC | V2 ] Status
01 [f55fde49|c8338bc0] (00+00/18) No match
02 [412da503|cc83f746] (00+00/18) No match
03 [948995ab|8ed9f29d] (00+00/18) No match
04 [92869a93|5f5cb948] (00+00/18) No match
05 [c79fae11|78fffa3c] (00+00/19) No match
06 [413525bc|a54bbff9] (00+00/19) No match
07 [38af2e58|18f93a4b] (00+00/18) No match
08 [4639a89d|15520491] (00+00/18) No match
09 [0315e2c4|4b025d56] (00+00/18) No match
10 [ecbf23d2|ba530289] (00+00/18) No match
11 [5b4281ac|3b9f5a9a] (00+00/18) No match
12 [c589afc8|f3a102e2] (00+00/18) No match
13 [720f15e0|a355b1af] (00+00/18) No match
Offsetted by -624:
01 [2c1ea53c] (06/18) Accurately ripped
02 [9ce018bb] (06/18) Accurately ripped
03 [c97c5321] (06/18) Accurately ripped
04 [9cb7d313] (06/18) Accurately ripped
05 [ecd3b4e0] (07/19) Accurately ripped
06 [1384b060] (07/19) Accurately ripped
07 [847830fa] (06/18) Accurately ripped
08 [14f6e084] (06/18) Accurately ripped
09 [1001c7e7] (06/18) Accurately ripped
10 [91398325] (06/18) Accurately ripped
11 [d285c48c] (06/18) Accurately ripped
12 [358689bb] (06/18) Accurately ripped
13 [1edc016a] (06/18) Accurately ripped

Track Peak [ CRC32 ] [W/O NULL] [ LOG ]
– 99,2 [C251E648] [2862EAC0] CRC32
01 99,2 [9F4FD4B8] [756380A6]
02 99,2 [90AE4AAD] [4974AC2B]
03 99,2 [B0DD47DC] [5B956146]
04 99,2 [337087FF] [A9961C6B]
05 99,2 [91EED157] [728B4DB6]
06 99,2 [AADCFD69] [4F980EE2]
07 99,2 [AAD86525] [68072115]
08 99,2 [5A667D60] [47F92736]
09 99,2 [F684C923] [8775EA91]
10 99,2 [34E0F43F] [9F1E13B5]
11 99,2 [DE680118] [A7CFF4D6]
12 99,2 [86AD3ABD] [5B2FD7C7]
13 99,2 [46BCF306] [B0583566]

foobar2000 1.2 / Dynamic Range Meter 1.1.1
log date: 2017-05-19 20:37:25

––––––––––––––––––––––––––––––––––––––––
Analyzed: Jody Williams / Return Of A Legend
––––––––––––––––––––––––––––––––––––––––

DR Peak RMS Duration Track
––––––––––––––––––––––––––––––––––––––––
DR8 -0.07 dB -9.01 dB 4:52 01-Lucky Lou
DR6 -0.07 dB -7.08 dB 4:39 02-Come Over To My House
DR7 -0.07 dB -8.37 dB 3:10 03-Lifelong Lover
DR8 -0.07 dB -8.91 dB 4:40 04-You May
DR8 -0.07 dB -8.79 dB 3:25 05-Moanin' For Molasses
DR7 -0.07 dB -8.03 dB 3:40 06-Monkey Business
DR6 -0.07 dB -7.54 dB 4:13 07-I'm Coming Back Again
DR7 -0.07 dB -8.25 dB 6:22 08-She Found A Fool And Bumped His Head
DR8 -0.07 dB -10.05 dB 3:28 09-Jive Spot
DR7 -0.07 dB -8.26 dB 5:08 10-Brown Eyes And Big Thighs
DR7 -0.07 dB -8.73 dB 3:29 11-Wham Bam Thank You Ma'Am
DR7 -0.07 dB -8.46 dB 3:55 12-What You Gonna Do!
DR7 -0.07 dB -8.17 dB 4:45 13-Henpecked And Happy
––––––––––––––––––––––––––––––––––––––––

Number of tracks: 13
Official DR value: DR7

Samplerate: 44100 Hz
Channels: 2
Bits per sample: 16
Bitrate: 950 kbps
Codec: FLAC
================================================================================

Jody Williams - Return Of A Legend (2001)

Jody Williams - Return Of A Legend (2001)

All thanks to original releaser - Saltovez

More interesting music in My Blog