Tags
Language
Tags

John Barry - Dances With Wolves: Original Motion Picture Soundtrack (1990) Expanded Edition 2004

Posted By: Efgrapha
John Barry - Dances With Wolves: Original Motion Picture Soundtrack (1990) Expanded Edition 2004

John Barry - Dances With Wolves: Original Motion Picture Soundtrack (1990) Expanded Edition 2004
EAC | FLAC (Image) + cue.+log ~ 362 Mb | Mp3, CBR320 kbps ~ 187 Mb | Scans included
Soundtrack, Score | Label: Sony Music Soundtrax | # EPC 515132 2 | 01:15:46

Original soundtrack of the 1990 Academy Award and Golden Globe winning film Dances with Wolves produced, directed, and starring Kevin Costner. The original score and songs were composed and conducted by John Barry. John Barry won the 1991 Academy Award for Best Original Score and the 1992 Grammy Award for "Best Instrumental Composition Written for a Motion Picture or for Television".

John Barry's fifth Oscar-winning score is a profoundly moving body of music, generally (though not entirely) elegiac in tone, very much like the movie for which it was written. It's also a bit of a mixed bag, occasionally falling back on material that will be familiar to fans of the James Bond movies that Barry scored during the early- to mid-'60s. The main title theme uses some of those devices – dense, heavy string passages adjacent to trumpet calls – but it is hardly representative of the full score. The real heart of Dances With Wolves is the pensive, tragic "John Dunbar Theme," which is far closer in spirit to Barry's music for Somewhere in Time or They Might Be Giants – films (and scores) far removed from the Bond movies. It seems as though, when Barry is asked to write music for characters who are complex and troubled (Bond is neither), he delivers the goods in the guise of musical material that reflects those elements. Some elements familiar from the Bond films can be found scattered throughout this soundtrack, particularly in the violin-driven "stings" that open "The Death of Timmons" and the horn calls that herald its closing; in the string parts underneath the hyperactive percussion of "Pawnee Attack" that might've been lifted right out of From Russia With Love; and also in "Stands With a Fist Remembers," with its secondary violin part in the upper register of the strings. Much of Dances With Wolves, however, shows a broadening of Barry's sound – he uses the vast canvas of Kevin Costner's movie and Dean Semler's cinematography as the basis for one of the most richly scored soundtracks of his career, working with one of the largest orchestras ever heard in one of his films; "Journey to Fort Sedgewick," "Kicking Bird's Gift," "Two Socks at Play," "The Death of Cisco," and "Journey to the Buffalo Killing Ground" have an almost Copland-like majesty about them, and "The Buffalo Hunt" is one of the finest pieces of music the man ever wrote. At times, it sounds as though Barry had every string and horn player in Los Angeles present, and topped it all out with an oversized percussion section, but none of the music or the scoring here sound excessive. Dances With Wolves was reissued with two bonus tracks in 1995. The 2004 reissue expanded some tracks and added still more material to present the soundtrack "in its entirety."

Bruce Eder, All Music Guide

John Barry - Dances With Wolves: Original Motion Picture Soundtrack (1990) Expanded Edition 2004


~ John Barry at All Music Guide
~ John Barry at Wiki

~ Film at IMDB
~ Film at Wiki

Tracklist:

01. Main Title - Looks Like a Suicide [Expanded] (07:35)
02. Ride to Fort Hayes (02:02)
03. Journey to Fort Sedgewick - Shooting Star - John Dunbar Theme - Arrival At Fort Sedgewick (04:55)
04. The John Dunbar Theme (02:19)
05. The Death of Timmons (02:25)
06. Two Socks - The Wolf Theme (01:32)
07. Stands with a Fist Remembers (02:12)
08. The Buffalo Robe (02:12)
09. Journey to the Buffalo Killing Ground (03:39)
10. Spotting the Herd (01:49)
11. The Buffalo Hunt [Film Version] (04:33)
12. Fire Dance (01:41)
13. Two Socks at Play (02:00)
14. Falling in Love (03:04)
15. Love Theme (03:46)
16. The John Dunbar Theme (02:06)
17. Pawnees - Pawnee Attack - Stone Calf Dies - Toughest Dies (06:15)
18. Victory (01:03)
19. The Death of Cisco (02:14)
20. Rescue of Dances with Wolves (02:08)
21. The Loss of the Journal - The Return to Winter Camp (02:09)
22. Farewell - End Title (08:51)

Bonus Tracks:
23. The Buffalo Hunt [Album Version] (02:45)
24. The John Dunbar Theme [Film Version] (02:21)


Exact Audio Copy V0.99 prebeta 5 from 4. May 2009

Отчёт EAC об извлечении, выполненном 16. сентября 2009, 16:33

Barry, John / Dances with Wolves [Complete Score]

Дисковод: TSSTcorpCDDVDW SH-S202H Adapter: 3 ID: 0

Режим чтения : Достоверность
Использование точного потока : Да
Отключение кэша аудио : Да
Использование указателей C2 : Нет

Коррекция смещения при чтении : 6
Способность читать области Lead-in и Lead-out : Нет
Заполнение пропущенных сэмплов тишиной : Да
Удаление блоков с тишиной в начале и конце : Нет
При вычислениях CRC использовались нулевые сэмплы : Нет
Интерфейс : Встроенный Win32-интерфейс для Win NT/2000

Выходной формат : Внутренние WAV-операции
Формат сэмплов : 44.100 Гц; 16 бит; стерео


TOC извлечённого CD

Трек | Старт | Длительность | Начальный сектор | Конечный сектор
––––––––––––––––––––––––––––––––––-
1 | 0:00.00 | 7:35.35 | 0 | 34159
2 | 7:35.35 | 2:02.72 | 34160 | 43381
3 | 9:38.32 | 4:55.05 | 43382 | 65511
4 | 14:33.37 | 2:19.50 | 65512 | 75986
5 | 16:53.12 | 2:25.40 | 75987 | 86901
6 | 19:18.52 | 1:32.18 | 86902 | 93819
7 | 20:50.70 | 2:12.17 | 93820 | 103736
8 | 23:03.12 | 2:12.55 | 103737 | 113691
9 | 25:15.67 | 3:39.50 | 113692 | 130166
10 | 28:55.42 | 1:49.10 | 130167 | 138351
11 | 30:44.52 | 4:33.08 | 138352 | 158834
12 | 35:17.60 | 1:41.52 | 158835 | 166461
13 | 36:59.37 | 2:00.15 | 166462 | 175476
14 | 38:59.52 | 3:04.00 | 175477 | 189276
15 | 42:03.52 | 3:46.05 | 189277 | 206231
16 | 45:49.57 | 2:06.35 | 206232 | 215716
17 | 47:56.17 | 6:15.63 | 215717 | 243904
18 | 54:12.05 | 1:03.37 | 243905 | 248666
19 | 55:15.42 | 2:14.10 | 248667 | 258726
20 | 57:29.52 | 2:08.40 | 258727 | 268366
21 | 59:38.17 | 2:09.38 | 268367 | 278079
22 | 61:47.55 | 8:51.15 | 278080 | 317919
23 | 70:38.70 | 2:45.47 | 317920 | 330341
24 | 73:24.42 | 2:21.60 | 330342 | 340976


Характеристики диапазона извлечения и сообщения об ошибках

Выбранный диапазон

Имя файла C:\Dances With Wolves\Barry, John - Dances with Wolves [Complete Score].wav

Пиковый уровень 100.0 %
Качество диапазона 100.0 %
CRC копии 2D883556
Копирование… OK

Ошибок не произошло


AccurateRip: сводка

Трек 1 точное извлечение (доверие 3) [808391D5]
Трек 2 точное извлечение (доверие 3) [8997AD54]
Трек 3 точное извлечение (доверие 3) [100911C1]
Трек 4 точное извлечение (доверие 3) [296D1267]
Трек 5 точное извлечение (доверие 3) [C11F4A39]
Трек 6 точное извлечение (доверие 3) [82BB2C84]
Трек 7 точное извлечение (доверие 3) [0E94AEB4]
Трек 8 точное извлечение (доверие 3) [36A3EFAD]
Трек 9 точное извлечение (доверие 3) [6AD32E7D]
Трек 10 точное извлечение (доверие 3) [B038721B]
Трек 11 точное извлечение (доверие 3) [A5358D8A]
Трек 12 точное извлечение (доверие 3) [E1626A44]
Трек 13 точное извлечение (доверие 3) [E98426B9]
Трек 14 точное извлечение (доверие 3) [5F354F0E]
Трек 15 точное извлечение (доверие 3) [DA23504B]
Трек 16 точное извлечение (доверие 3) [8F2BA1E9]
Трек 17 точное извлечение (доверие 3) [CB91AC69]
Трек 18 точное извлечение (доверие 3) [764EA8EC]
Трек 19 точное извлечение (доверие 3) [49E9B4E6]
Трек 20 точное извлечение (доверие 3) [756993F0]
Трек 21 точное извлечение (доверие 3) [FC72562F]
Трек 22 точное извлечение (доверие 3) [C252327B]
Трек 23 точное извлечение (доверие 3) [1D1E63E8]
Трек 24 точное извлечение (доверие 3) [F5B48606]

Все треки извлечены точно

Конец отчёта

[CUETools log; Date: 02.11.2016 21:59:08; Version: 2.1.4]
HDCD: peak extend: none, transient filter: some, gain: none
[CTDB TOCID: mxBShLL2lKLerE.9IQInXyscIk0-] found.
Track | CTDB Status
1 | (86/86) Accurately ripped
2 | (86/86) Accurately ripped
3 | (86/86) Accurately ripped
4 | (86/86) Accurately ripped
5 | (86/86) Accurately ripped
6 | (86/86) Accurately ripped
7 | (86/86) Accurately ripped
8 | (86/86) Accurately ripped
9 | (86/86) Accurately ripped
10 | (86/86) Accurately ripped
11 | (86/86) Accurately ripped
12 | (84/86) Accurately ripped
13 | (86/86) Accurately ripped
14 | (86/86) Accurately ripped
15 | (86/86) Accurately ripped
16 | (86/86) Accurately ripped
17 | (86/86) Accurately ripped
18 | (86/86) Accurately ripped
19 | (86/86) Accurately ripped
20 | (86/86) Accurately ripped
21 | (86/86) Accurately ripped
22 | (82/86) Accurately ripped
23 | (85/86) Accurately ripped
24 | (85/86) Accurately ripped
[AccurateRip ID: 00416118-045762cf-4911c218] found.
Track [ CRC | V2 ] Status
01 [808391d5|cbdd954b] (017+027/107) Accurately ripped
02 [8997ad54|d96f6bf8] (017+025/105) Accurately ripped
03 [100911c1|6ca28553] (017+025/105) Accurately ripped
04 [296d1267|fdd990b1] (017+025/105) Accurately ripped
05 [c11f4a39|1bea4656] (016+025/103) Accurately ripped
06 [82bb2c84|7fc77840] (017+025/105) Accurately ripped
07 [0e94aeb4|0c114815] (017+025/105) Accurately ripped
08 [36a3efad|5d7e2290] (017+025/105) Accurately ripped
09 [6ad32e7d|9cdcca87] (017+025/105) Accurately ripped
10 [b038721b|3724f12d] (017+025/105) Accurately ripped
11 [a5358d8a|5b28f922] (017+025/105) Accurately ripped
12 [e1626a44|be06adb9] (017+025/105) Accurately ripped
13 [e98426b9|60d8c3d7] (017+025/103) Accurately ripped
14 [5f354f0e|10b69948] (017+025/105) Accurately ripped
15 [da23504b|25f8b7f8] (017+025/105) Accurately ripped
16 [8f2ba1e9|85e6936c] (017+025/105) Accurately ripped
17 [cb91ac69|fbd1b156] (017+025/105) Accurately ripped
18 [764ea8ec|adffca7f] (017+025/105) Accurately ripped
19 [49e9b4e6|5be8136a] (017+025/105) Accurately ripped
20 [756993f0|18fa5150] (017+025/105) Accurately ripped
21 [fc72562f|6a8b24d7] (017+025/105) Accurately ripped
22 [c252327b|1a7a01dc] (017+025/104) Accurately ripped
23 [1d1e63e8|2bf3cf07] (017+024/103) Accurately ripped
24 [f5b48606|0f13d22a] (017+023/099) Accurately ripped
Offsetted by -168:
01 [2ffea2a5] (015/107) Accurately ripped
02 [319ba77a] (015/105) Accurately ripped
03 [b1b75eb1] (015/105) Accurately ripped
04 [8bad8921] (015/105) Accurately ripped
05 [c41e6f57] (015/103) Accurately ripped
06 [a7a78367] (015/105) Accurately ripped
07 [640a6a64] (015/105) Accurately ripped
08 [102da9b7] (015/105) Accurately ripped
09 [7efd48cb] (015/105) Accurately ripped
10 [a54c0a3c] (015/105) Accurately ripped
11 [179f5e81] (015/105) Accurately ripped
12 [8c998852] (015/105) Accurately ripped
13 [adde5752] (015/103) Accurately ripped
14 [a8bb8cba] (015/105) Accurately ripped
15 [d594d541] (015/105) Accurately ripped
16 [0c31895f] (015/105) Accurately ripped
17 [c555f5f2] (015/105) Accurately ripped
18 [9d30a6a7] (015/105) Accurately ripped
19 [b0c0ddc7] (015/105) Accurately ripped
20 [daa82757] (015/105) Accurately ripped
21 [5014394f] (015/105) Accurately ripped
22 [58865afe] (015/104) Accurately ripped
23 [b52292e1] (015/103) Accurately ripped
24 [7ae0f036] (014/099) Accurately ripped
Offsetted by -146:
01 [4470a051] (006/107) Accurately ripped
02 [ff06793d] (006/105) Accurately ripped
03 [6bc032df] (006/105) Accurately ripped
04 [82c9ec3d] (006/105) Accurately ripped
05 [a5d0c346] (006/103) Accurately ripped
06 [ffb4bb8d] (006/105) Accurately ripped
07 [91583207] (006/105) Accurately ripped
08 [cc3e9b6f] (006/105) Accurately ripped
09 [a1bd32b0] (006/105) Accurately ripped
10 [b8f609ba] (006/105) Accurately ripped
11 [477c4a18] (006/105) Accurately ripped
12 [3364fe00] (006/105) Accurately ripped
13 [d735cf18] (006/103) Accurately ripped
14 [c5777642] (006/105) Accurately ripped
15 [4ba45ccc] (006/105) Accurately ripped
16 [d4e989ea] (006/105) Accurately ripped
17 [ce52dd60] (006/105) Accurately ripped
18 [939f8335] (006/105) Accurately ripped
19 [3564a43b] (006/105) Accurately ripped
20 [887b99c6] (006/105) Accurately ripped
21 [6b8d3ae6] (006/105) Accurately ripped
22 [60847d65] (006/104) Accurately ripped
23 [1834dff7] (006/103) Accurately ripped
24 [c270bf80] (006/099) Accurately ripped
Offsetted by -36:
01 [6cf2251e] (000/107) No match (V2 was not tested)
02 [6cd914d2] (000/105) No match (V2 was not tested)
03 [4626cb41] (000/105) No match (V2 was not tested)
04 [8abcc978] (000/105) No match (V2 was not tested)
05 [29787002] (000/103) No match (V2 was not tested)
06 [ac1892e2] (000/105) No match (V2 was not tested)
07 [2f3c1bf6] (000/105) No match (V2 was not tested)
08 [df7d5699] (000/105) No match (V2 was not tested)
09 [6891a7ef] (000/105) No match (V2 was not tested)
10 [d86e6d9f] (000/105) No match (V2 was not tested)
11 [e6f4af07] (000/105) No match (V2 was not tested)
12 [4a96d682] (000/105) No match (V2 was not tested)
13 [8ac4ea2a] (000/103) No match (V2 was not tested)
14 [d3454763] (000/105) No match (V2 was not tested)
15 [2bf95be9] (000/105) No match (V2 was not tested)
16 [47494e26] (000/105) No match (V2 was not tested)
17 [53036253] (000/105) No match (V2 was not tested)
18 [8317e0fd] (000/105) No match (V2 was not tested)
19 [82884104] (000/105) No match (V2 was not tested)
20 [0521aa53] (000/105) No match (V2 was not tested)
21 [96a66d28] (000/105) No match (V2 was not tested)
22 [42e7ac70] (000/104) No match (V2 was not tested)
23 [75e2bb43] (000/103) No match (V2 was not tested)
24 [61e0f144] (000/099) No match (V2 was not tested)
Offsetted by 500:
01 [dcb9a103] (002/107) Accurately ripped
02 [91978c29] (002/105) Accurately ripped
03 [dfcba384] (002/105) Accurately ripped
04 [585e7db1] (002/105) Accurately ripped
05 [c3fde17d] (002/103) Accurately ripped
06 [f9dbb2d8] (002/105) Accurately ripped
07 [8665aead] (002/105) Accurately ripped
08 [0129b1de] (002/105) Accurately ripped
09 [8a42a650] (002/105) Accurately ripped
10 [95ef13a4] (002/105) Accurately ripped
11 [0f20b845] (002/105) Accurately ripped
12 [6c705118] (002/105) Accurately ripped
13 [68646287] (000/103) No match (V2 was not tested)
14 [6480f626] (002/105) Accurately ripped
15 [4bacb5ce] (002/105) Accurately ripped
16 [88d441d6] (002/105) Accurately ripped
17 [e19ffce3] (002/105) Accurately ripped
18 [9be5e137] (002/105) Accurately ripped
19 [a2d33869] (002/105) Accurately ripped
20 [55fc4de5] (002/105) Accurately ripped
21 [18330169] (002/105) Accurately ripped
22 [13d4972c] (002/104) Accurately ripped
23 [b2a5e649] (002/103) Accurately ripped
24 [5a7bc0a0] (000/099) No match (V2 was not tested)

Track Peak [ CRC32 ] [W/O NULL] [ LOG ]
– 100,0 [834EB838] [2D883556] W/O NULL
01 98,6 [5E9EB4F3] [792BF952]
02 61,8 [F08E8007] [DD107142]
03 90,5 [CF05CB6F] [D1506C84]
04 36,0 [B1A1E0FE] [62746DB8]
05 78,9 [3192C7D1] [B75CEDA8]
06 25,8 [9EC55C62] [04205D2B]
07 99,3 [5C78C9CE] [4212D7A7]
08 36,1 [B96F0DF3] [8E29F7D8]
09 57,1 [9B0130FE] [D7EC1A07]
10 62,0 [8F14CA89] [1803B819]
11 100,0 [153E548F] [9BF31650]
12 89,4 [014EFE56] [62070BCB]
13 27,4 [C3822B06] [AB467009]
14 19,4 [B04493EA] [98D2F1FE]
15 45,7 [5221F46C] [77744A14]
16 23,0 [071968A3] [DF9BE9FF]
17 100,0 [E9BA8865] [F2B8D6B1]
18 35,7 [DB3D8147] [5413D837]
19 88,4 [F144AFF2] [7CBF1CA3]
20 100,0 [7622C3F5] [5779FB0E]
21 71,9 [BFB544C3] [1726699B]
22 100,0 [6F8305D5] [62DE94C7]
23 99,9 [78448004] [0BF664D5]
24 27,6 [DBF5B4AD] [2EEB9C85]

foobar2000 1.2 / Dynamic Range Meter 1.1.1
log date: 2016-11-02 22:06:02

––––––––––––––––––––––––––––––––––––––––
Analyzed: Barry, John / Dances with Wolves [Complete Score]
––––––––––––––––––––––––––––––––––––––––

DR Peak RMS Duration Track
––––––––––––––––––––––––––––––––––––––––
DR13 -0.12 dB -19.16 dB 7:35 01-Main Title - Looks Like a Suicide [Expanded]
DR12 -4.18 dB -21.95 dB 2:03 02-Ride to Fort Hayes
DR12 -0.86 dB -19.02 dB 4:55 03-Journey to Fort Sedgewick - Shooting Star - John Dunbar Theme - Arrival at Fo…
DR9 -8.87 dB -21.97 dB 2:20 04-The John Dunbar Theme
DR14 -2.06 dB -21.25 dB 2:26 05-The Death of Timmons
DR10 -11.76 dB -26.09 dB 1:32 06-Two Socks - The Wolf Theme
DR12 -0.06 dB -17.15 dB 2:12 07-Stands with a Fist Remembers
DR11 -8.84 dB -23.21 dB 2:13 08-The Buffalo Robe
DR10 -4.86 dB -19.41 dB 3:40 09-Journey to the Buffalo Killing Ground
DR10 -4.15 dB -19.09 dB 1:49 10-Spotting the Herd
DR12 0.00 dB -15.36 dB 4:33 11-The Buffalo Hunt [Film Version]
DR12 -0.97 dB -18.63 dB 1:42 12-Fire Dance
DR11 -11.24 dB -25.72 dB 2:00 13-Two Socks at Play
DR11 -14.22 dB -27.67 dB 3:04 14-Falling in Love
DR12 -6.80 dB -24.56 dB 3:46 15-Love Theme
DR10 -12.73 dB -27.48 dB 2:06 16-The John Dunbar Theme
DR12 0.00 dB -14.31 dB 6:16 17-Pawnees - Pawnee Attack - Stone Calf Dies - Toughest Dies
DR10 -8.93 dB -23.75 dB 1:03 18-Victory
DR10 -1.07 dB -18.02 dB 2:14 19-The Death of Cisco
DR11 0.00 dB -12.53 dB 2:09 20-Rescue of Dances with Wolves
DR11 -2.86 dB -20.26 dB 2:10 21-The Loss of the Journal - The Return to Winter Camp
DR12 0.00 dB -18.93 dB 8:51 22-Farewell - End Title
DR12 0.00 dB -15.33 dB 2:46 23-The Buffalo Hunt [Album Version]
DR10 -11.18 dB -24.94 dB 2:22 24-The John Dunbar Theme [Film Version]
––––––––––––––––––––––––––––––––––––––––

Number of tracks: 24
Official DR value: DR11

Samplerate: 44100 Hz
Channels: 2
Bits per sample: 16
Bitrate: 643 kbps
Codec: FLAC
================================================================================

John Barry - Dances With Wolves: Original Motion Picture Soundtrack (1990) Expanded Edition 2004

All thanks to original uploader - Composer's fan

More Movies & Soundtracks in Efgrapha Blog