Tags
Language
Tags

John Barry - Soundtracks (2009)

Posted By: Rtax
John Barry - Soundtracks (2009)

John Barry - Soundtracks (2009)
EAC Rip | FLAC (tracks, cue, log) - 832 MB | MP3 CBR 320 kbps - 352 MB
2:32:00 | Soundtrack, Stage & Screen, Score | Label: Union Square Music

2009 two CD set. The deadly drama of 007, the mystery of the Ipcress File, the iconic brilliance of Midnight Cowboy, the romance of Out of Africa: they will come flooding back to you in this fantastic double disc collection of the movie themes of one of the modern era's greatest musicians - John Barry. This fantastic collection includes awesome movie music from the classics: Zulu, Goldfinger, the Ipcress File, Midnight Cowboy, Chaplin, Diamonds Are Forever, Out of Africa, King Kong and many more.

Tracklist
Disc: 1
1. Zulu - Main Theme Listen
2. The Ipcress File - A Man Alone Listen
3. Midnight Cowboy - Main Theme Listen
4. Goldfinger - Main Theme Listen
5. The Girl With The Sun In Her Hair Listen
6. The Persuaders - Main Theme Listen
7. On Her Majesty's Secret Service - Main Theme Listen
8. The Appointment - Main Theme Listen
9. Monte Walsh - Suite Listen
10. Moonraker - Main Theme Listen
11. The Knack - Main Theme Listen
12. The Tamarind Seed - Play It Again Listen
13. Hanover Street - Main Theme Listen
14. Thunderball - Main Theme Listen
15. The Lion In Winter - Suite Listen
16. The Black Hole - Main Theme Listen
17. Dances With Wolves - The John Dunbar Theme Listen
18. Somewhere In Time - Main Theme Listen

Disc: 2
1. Chaplin - Main Theme Listen
2. The Quiller Memorandum Listen
3. You Only Live Twice - Main Theme Listen
4. Born Free - Lions At Play Listen
5. Diamonds Are Forever - Main Theme Listen
6. The Cotton Club - Suite Listen
7. Out Of Africa - Main Theme Listen
8. The Dove - Suite Listen
9. The Deep - Main Theme Listen
10. The Scarlet Letter - Love Theme Listen
11. Indecent Proposal - Main Theme Listen
12. The Specialist - Main Theme Listen
13. King Kong - Prelude & Love Theme Listen
14. The Man With The Golden Gun - Main Theme Listen
15. A View To A Kill - Main Theme Listen
16. The Living Daylights - Main Theme Listen
17. All Time High: Octopussy Theme Listen
18. We Have All The Time In The World: from On Her Majesty's Secret Service
Exact Audio Copy V1.3 from 2. September 2016

EAC extraction logfile from 31. December 2017, 21:30

John Barry / Soundtracks

Used drive : PHILIPS CDRW/DVD SCB5265 Adapter: 1 ID: 0

Read mode : Secure
Utilize accurate stream : Yes
Defeat audio cache : Yes
Make use of C2 pointers : No

Read offset correction : 6
Overread into Lead-In and Lead-Out : No
Fill up missing offset samples with silence : Yes
Delete leading and trailing silent blocks : No
Null samples used in CRC calculations : Yes
Used interface : Native Win32 interface for Win NT & 2000
Gap handling : Appended to previous track

Used output format : User Defined Encoder
Selected bitrate : 1024 kBit/s
Quality : High
Add ID3 tag : No
Command line compressor : C:\Program Files\Exact Audio Copy\FLAC\FLAC.EXE
Additional command line options : -8 -e -p -V -T "ARTIST=%artist%" -T "TITLE=%title%" -T "ALBUM=%albumtitle%" -T "DATE=%year%" -T "TRACKNUMBER=%tracknr%" -T "GENRE=%genre%" -T "PERFORMER=%albuminterpret%" -T "COMPOSER=%composer%" %haslyrics%–tag-from-file=LYRICS="%lyricsfile%"%haslyrics% -T "ALBUMARTIST=%albumartist%" -T "DISCNUMBER=%cdnumber%" -T "TOTALDISCS=%totalcds%" -T "TOTALTRACKS=%numtracks%" -T "COMMENT=%comment%" %source% -o %dest%


TOC of the extracted CD

Track | Start | Length | Start sector | End sector
––––––––––––––––––––––––––––-
1 | 0:00.00 | 7:44.24 | 0 | 34823
2 | 7:44.24 | 4:02.46 | 34824 | 53019
3 | 11:46.70 | 4:02.05 | 53020 | 71174
4 | 15:49.00 | 3:04.64 | 71175 | 85038
5 | 18:53.64 | 2:42.06 | 85039 | 97194
6 | 21:35.70 | 2:10.36 | 97195 | 106980
7 | 23:46.31 | 2:36.72 | 106981 | 118752
8 | 26:23.28 | 2:18.60 | 118753 | 129162
9 | 28:42.13 | 11:14.09 | 129163 | 179721
10 | 39:56.22 | 3:14.12 | 179722 | 194283
11 | 43:10.34 | 1:47.57 | 194284 | 202365
12 | 44:58.16 | 2:31.52 | 202366 | 213742
13 | 47:29.68 | 4:53.03 | 213743 | 235720
14 | 52:22.71 | 3:01.05 | 235721 | 249300
15 | 55:24.01 | 8:13.25 | 249301 | 286300
16 | 63:37.26 | 4:58.10 | 286301 | 308660
17 | 68:35.36 | 2:34.25 | 308661 | 320235
18 | 71:09.61 | 6:13.28 | 320236 | 348238


Track 1

Filename C:\EAC Rips\John Berry - Soundtracks (2009) [FLAC] [MTERDCD 634]\Disc 1\01 - Zulu - Main Theme.wav

Pre-gap length 0:00:02.00

Peak level 97.8 %
Extraction speed 3.0 X
Track quality 100.0 %
Test CRC BBF5B177
Copy CRC BBF5B177
Cannot be verified as accurate (confidence 9) [04FE6EC8], AccurateRip returned [97D8E2E7] (AR v2)
Copy OK

Track 2

Filename C:\EAC Rips\John Berry - Soundtracks (2009) [FLAC] [MTERDCD 634]\Disc 1\02 - The Ipcress File - A Man Alone.wav

Pre-gap length 0:00:02.29

Peak level 84.0 %
Extraction speed 2.5 X
Track quality 99.9 %
Test CRC 039FAB47
Copy CRC 039FAB47
Cannot be verified as accurate (confidence 9) [17A6098B], AccurateRip returned [06B42E27] (AR v2)
Copy OK

Track 3

Filename C:\EAC Rips\John Berry - Soundtracks (2009) [FLAC] [MTERDCD 634]\Disc 1\03 - Midnight Cowboy - Main Theme.wav

Pre-gap length 0:00:02.00

Peak level 98.2 %
Extraction speed 3.2 X
Track quality 100.0 %
Test CRC D39203B7
Copy CRC D39203B7
Cannot be verified as accurate (confidence 9) [8B7B67E5], AccurateRip returned [691B635E] (AR v2)
Copy OK

Track 4

Filename C:\EAC Rips\John Berry - Soundtracks (2009) [FLAC] [MTERDCD 634]\Disc 1\04 - Goldfinger - Main Theme.wav

Pre-gap length 0:00:02.30

Peak level 96.6 %
Extraction speed 3.2 X
Track quality 100.0 %
Test CRC 3D5D1CCA
Copy CRC 3D5D1CCA
Cannot be verified as accurate (confidence 9) [153CF957], AccurateRip returned [37C5B1B4] (AR v2)
Copy OK

Track 5

Filename C:\EAC Rips\John Berry - Soundtracks (2009) [FLAC] [MTERDCD 634]\Disc 1\05 - The Girl With The Sun In Her Hair.wav

Pre-gap length 0:00:02.27

Peak level 91.6 %
Extraction speed 3.1 X
Track quality 100.0 %
Test CRC 9228CB90
Copy CRC 9228CB90
Cannot be verified as accurate (confidence 9) [A06D5957], AccurateRip returned [5700DF15] (AR v2)
Copy OK

Track 6

Filename C:\EAC Rips\John Berry - Soundtracks (2009) [FLAC] [MTERDCD 634]\Disc 1\06 - The Persuaders - Main Theme.wav

Pre-gap length 0:00:02.06

Peak level 88.6 %
Extraction speed 2.5 X
Track quality 99.9 %
Test CRC DCDCE145
Copy CRC DCDCE145
Cannot be verified as accurate (confidence 9) [751DABA1], AccurateRip returned [C4AA3BB2] (AR v2)
Copy OK

Track 7

Filename C:\EAC Rips\John Berry - Soundtracks (2009) [FLAC] [MTERDCD 634]\Disc 1\07 - On Her Majesty's Secret Service - Main Theme.wav

Pre-gap length 0:00:02.29

Peak level 98.8 %
Extraction speed 3.4 X
Track quality 100.0 %
Test CRC 3B15A4AF
Copy CRC 3B15A4AF
Cannot be verified as accurate (confidence 9) [5C40E429], AccurateRip returned [5A6F4E76] (AR v2)
Copy OK

Track 8

Filename C:\EAC Rips\John Berry - Soundtracks (2009) [FLAC] [MTERDCD 634]\Disc 1\08 - The Appointment - Main Theme.wav

Pre-gap length 0:00:02.12

Peak level 90.7 %
Extraction speed 2.7 X
Track quality 99.9 %
Test CRC 0E75721B
Copy CRC 0E75721B
Cannot be verified as accurate (confidence 8) [03C40BDF], AccurateRip returned [54F85AAD] (AR v2)
Copy OK

Track 9

Filename C:\EAC Rips\John Berry - Soundtracks (2009) [FLAC] [MTERDCD 634]\Disc 1\09 - Monte Walsh - Suite.wav

Pre-gap length 0:00:02.31

Peak level 94.8 %
Extraction speed 3.9 X
Track quality 100.0 %
Test CRC 7DF15D7C
Copy CRC 7DF15D7C
Cannot be verified as accurate (confidence 6) [E516AB4A], AccurateRip returned [AA7F8BD0] (AR v2)
Copy OK

Track 10

Filename C:\EAC Rips\John Berry - Soundtracks (2009) [FLAC] [MTERDCD 634]\Disc 1\10 - Moonraker - Main Theme.wav

Pre-gap length 0:00:02.63

Peak level 98.8 %
Extraction speed 3.6 X
Track quality 100.0 %
Test CRC 929036EB
Copy CRC 929036EB
Cannot be verified as accurate (confidence 9) [3968796D], AccurateRip returned [D328D0DF] (AR v2)
Copy OK

Track 11

Filename C:\EAC Rips\John Berry - Soundtracks (2009) [FLAC] [MTERDCD 634]\Disc 1\11 - The Knack - Main Theme.wav

Pre-gap length 0:00:02.14

Peak level 85.5 %
Extraction speed 3.4 X
Track quality 100.0 %
Test CRC 560D1FCC
Copy CRC 560D1FCC
Cannot be verified as accurate (confidence 9) [A30B291B], AccurateRip returned [508FC43A] (AR v2)
Copy OK

Track 12

Filename C:\EAC Rips\John Berry - Soundtracks (2009) [FLAC] [MTERDCD 634]\Disc 1\12 - The Tamarind Seed - Play It Again.wav

Pre-gap length 0:00:02.18

Peak level 92.7 %
Extraction speed 3.0 X
Track quality 99.9 %
Test CRC BBB342B2
Copy CRC BBB342B2
Cannot be verified as accurate (confidence 9) [31CC413F], AccurateRip returned [75FE48FB] (AR v2)
Copy OK

Track 13

Filename C:\EAC Rips\John Berry - Soundtracks (2009) [FLAC] [MTERDCD 634]\Disc 1\13 - Hanover Street - Main Theme.wav

Pre-gap length 0:00:02.57

Peak level 98.2 %
Extraction speed 4.0 X
Track quality 100.0 %
Test CRC E4C687B9
Copy CRC E4C687B9
Cannot be verified as accurate (confidence 9) [CFB5A289], AccurateRip returned [37459005] (AR v2)
Copy OK

Track 14

Filename C:\EAC Rips\John Berry - Soundtracks (2009) [FLAC] [MTERDCD 634]\Disc 1\14 - Thunderball - Main Theme.wav

Pre-gap length 0:00:01.73

Peak level 96.6 %
Extraction speed 3.9 X
Track quality 100.0 %
Test CRC 86C2BDEE
Copy CRC 86C2BDEE
Cannot be verified as accurate (confidence 9) [4A195D41], AccurateRip returned [18DFE4CA] (AR v2)
Copy OK

Track 15

Filename C:\EAC Rips\John Berry - Soundtracks (2009) [FLAC] [MTERDCD 634]\Disc 1\15 - The Lion In Winter - Suite.wav

Pre-gap length 0:00:02.29

Peak level 94.3 %
Extraction speed 3.9 X
Track quality 99.9 %
Test CRC 8C2DFFB1
Copy CRC 8C2DFFB1
Cannot be verified as accurate (confidence 9) [C1092EAD], AccurateRip returned [BE608393] (AR v2)
Copy OK

Track 16

Filename C:\EAC Rips\John Berry - Soundtracks (2009) [FLAC] [MTERDCD 634]\Disc 1\16 - The Black Hole - Main Theme.wav

Pre-gap length 0:00:02.56

Peak level 92.2 %
Extraction speed 3.5 X
Track quality 99.9 %
Test CRC 65AD0082
Copy CRC 65AD0082
Cannot be verified as accurate (confidence 9) [9D6652E6], AccurateRip returned [837FFBF5] (AR v2)
Copy OK

Track 17

Filename C:\EAC Rips\John Berry - Soundtracks (2009) [FLAC] [MTERDCD 634]\Disc 1\17 - Dances With Wolves - The John Dunbar Theme.wav

Pre-gap length 0:00:02.11

Peak level 85.2 %
Extraction speed 3.3 X
Track quality 99.9 %
Test CRC 13195AAD
Copy CRC 13195AAD
Cannot be verified as accurate (confidence 9) [4B155C3B], AccurateRip returned [CA941D00] (AR v2)
Copy OK

Track 18

Filename C:\EAC Rips\John Berry - Soundtracks (2009) [FLAC] [MTERDCD 634]\Disc 1\18 - Somewhere In Time - Main Theme.wav

Pre-gap length 0:00:02.18

Peak level 95.4 %
Extraction speed 4.2 X
Track quality 100.0 %
Test CRC 71AE91B6
Copy CRC 71AE91B6
Cannot be verified as accurate (confidence 9) [7C3C2807], AccurateRip returned [AB7C886B] (AR v2)
Copy OK


No tracks could be verified as accurate
You may have a different pressing from the one(s) in the database

No errors occurred

End of status report

–– CUETools DB Plugin V2.1.6

[CTDB TOCID: yDG62Bj4w.qd1VYcE00V0YtY3Qo-] found
Submit result: yDG62Bj4w.qd1VYcE00V0YtY3Qo- has been confirmed
Track | CTDB Status
1 | (4/4) Accurately ripped
2 | (4/4) Accurately ripped
3 | (4/4) Accurately ripped
4 | (4/4) Accurately ripped
5 | (4/4) Accurately ripped
6 | (4/4) Accurately ripped
7 | (4/4) Accurately ripped
8 | (4/4) Accurately ripped
9 | (4/4) Accurately ripped
10 | (4/4) Accurately ripped
11 | (4/4) Accurately ripped
12 | (4/4) Accurately ripped
13 | (4/4) Accurately ripped
14 | (4/4) Accurately ripped
15 | (4/4) Accurately ripped
16 | (4/4) Accurately ripped
17 | (4/4) Accurately ripped
18 | (4/4) Accurately ripped


==== Log checksum 2797CEEF5650B632DBEA9D66E5AC896D0A9346A5A805752F78213DF94C31A51C ====


Exact Audio Copy V1.3 from 2. September 2016

EAC extraction logfile from 1. January 2018, 12:55

John Barry / Soundtracks

Used drive : PHILIPS CDRW/DVD SCB5265 Adapter: 1 ID: 0

Read mode : Secure
Utilize accurate stream : Yes
Defeat audio cache : Yes
Make use of C2 pointers : No

Read offset correction : 6
Overread into Lead-In and Lead-Out : No
Fill up missing offset samples with silence : Yes
Delete leading and trailing silent blocks : No
Null samples used in CRC calculations : Yes
Used interface : Native Win32 interface for Win NT & 2000
Gap handling : Appended to previous track

Used output format : User Defined Encoder
Selected bitrate : 1024 kBit/s
Quality : High
Add ID3 tag : No
Command line compressor : C:\Program Files\Exact Audio Copy\FLAC\FLAC.EXE
Additional command line options : -8 -e -p -V -T "ARTIST=%artist%" -T "TITLE=%title%" -T "ALBUM=%albumtitle%" -T "DATE=%year%" -T "TRACKNUMBER=%tracknr%" -T "GENRE=%genre%" -T "PERFORMER=%albuminterpret%" -T "COMPOSER=%composer%" %haslyrics%–tag-from-file=LYRICS="%lyricsfile%"%haslyrics% -T "ALBUMARTIST=%albumartist%" -T "DISCNUMBER=%cdnumber%" -T "TOTALDISCS=%totalcds%" -T "TOTALTRACKS=%numtracks%" -T "COMMENT=%comment%" %source% -o %dest%


TOC of the extracted CD

Track | Start | Length | Start sector | End sector
––––––––––––––––––––––––––––-
1 | 0:00.00 | 2:59.59 | 0 | 13483
2 | 2:59.59 | 2:32.50 | 13484 | 24933
3 | 5:32.34 | 2:52.07 | 24934 | 37840
4 | 8:24.41 | 5:51.26 | 37841 | 64191
5 | 14:15.67 | 2:43.57 | 64192 | 76473
6 | 16:59.49 | 6:34.01 | 76474 | 106024
7 | 23:33.50 | 4:28.13 | 106025 | 126137
8 | 28:01.63 | 6:32.22 | 126138 | 155559
9 | 34:34.10 | 4:02.31 | 155560 | 173740
10 | 38:36.41 | 3:03.60 | 173741 | 187525
11 | 41:40.26 | 4:44.38 | 187526 | 208863
12 | 46:24.64 | 6:31.70 | 208864 | 238258
13 | 52:56.59 | 4:54.45 | 238259 | 260353
14 | 57:51.29 | 2:34.65 | 260354 | 271968
15 | 60:26.19 | 3:38.11 | 271969 | 288329
16 | 64:04.30 | 4:16.35 | 288330 | 307564
17 | 68:20.65 | 3:02.10 | 307565 | 321224
18 | 71:23.00 | 3:15.27 | 321225 | 335876


Track 1

Filename C:\EAC Rips\John Berry - Soundtracks (2009) [FLAC] [MTERDCD 634]\Disc 2\01 - Chaplin - Main Theme.wav

Pre-gap length 0:00:02.00

Peak level 90.7 %
Extraction speed 2.6 X
Track quality 100.0 %
Test CRC A870F32C
Copy CRC A870F32C
Cannot be verified as accurate (confidence 9) [D2BB2B98], AccurateRip returned [C16FD35A] (AR v2)
Copy OK

Track 2

Filename C:\EAC Rips\John Berry - Soundtracks (2009) [FLAC] [MTERDCD 634]\Disc 2\02 - The Quiller Memorandum.wav

Pre-gap length 0:00:02.07

Peak level 87.2 %
Extraction speed 2.6 X
Track quality 100.0 %
Test CRC FCC8C31E
Copy CRC FCC8C31E
Cannot be verified as accurate (confidence 9) [179FA40A], AccurateRip returned [B2E6EF82] (AR v2)
Copy OK

Track 3

Filename C:\EAC Rips\John Berry - Soundtracks (2009) [FLAC] [MTERDCD 634]\Disc 2\03 - You Only Live Twice - Main Theme.wav

Pre-gap length 0:00:02.28

Peak level 87.1 %
Extraction speed 2.7 X
Track quality 100.0 %
Test CRC EE84AB8A
Copy CRC EE84AB8A
Cannot be verified as accurate (confidence 9) [A8490081], AccurateRip returned [95BC1F82] (AR v2)
Copy OK

Track 4

Filename C:\EAC Rips\John Berry - Soundtracks (2009) [FLAC] [MTERDCD 634]\Disc 2\04 - Born Free - Lions At Play.wav

Pre-gap length 0:00:02.26

Peak level 98.2 %
Extraction speed 3.1 X
Track quality 100.0 %
Test CRC 1A5381D9
Copy CRC 1A5381D9
Cannot be verified as accurate (confidence 9) [80D11FE3], AccurateRip returned [B8889BD2] (AR v2)
Copy OK

Track 5

Filename C:\EAC Rips\John Berry - Soundtracks (2009) [FLAC] [MTERDCD 634]\Disc 2\05 - Diamonds Are Forever - Main Theme.wav

Pre-gap length 0:00:02.12

Peak level 98.2 %
Extraction speed 3.1 X
Track quality 100.0 %
Test CRC A4697B50
Copy CRC A4697B50
Cannot be verified as accurate (confidence 9) [DDFA28F6], AccurateRip returned [C295D985] (AR v2)
Copy OK

Track 6

Filename C:\EAC Rips\John Berry - Soundtracks (2009) [FLAC] [MTERDCD 634]\Disc 2\06 - The Cotton Club - Suite.wav

Pre-gap length 0:00:02.71

Peak level 88.6 %
Extraction speed 3.4 X
Track quality 100.0 %
Test CRC 904FD4FC
Copy CRC 904FD4FC
Cannot be verified as accurate (confidence 9) [E344FE2C], AccurateRip returned [09A56761] (AR v2)
Copy OK

Track 7

Filename C:\EAC Rips\John Berry - Soundtracks (2009) [FLAC] [MTERDCD 634]\Disc 2\07 - Out Of Africa - Main Theme.wav

Pre-gap length 0:00:03.30

Peak level 98.2 %
Extraction speed 3.5 X
Track quality 100.0 %
Test CRC 30DC78C4
Copy CRC 30DC78C4
Cannot be verified as accurate (confidence 9) [9844597D], AccurateRip returned [8F1C3EDF] (AR v2)
Copy OK

Track 8

Filename C:\EAC Rips\John Berry - Soundtracks (2009) [FLAC] [MTERDCD 634]\Disc 2\08 - The Dove - Suite.wav

Pre-gap length 0:00:02.34

Peak level 91.0 %
Extraction speed 3.7 X
Track quality 100.0 %
Test CRC 9DBD9DA7
Copy CRC 9DBD9DA7
Cannot be verified as accurate (confidence 9) [5B6072A4], AccurateRip returned [B4F092F9] (AR v2)
Copy OK

Track 9

Filename C:\EAC Rips\John Berry - Soundtracks (2009) [FLAC] [MTERDCD 634]\Disc 2\09 - The Deep - Main Theme.wav

Pre-gap length 0:00:02.56

Peak level 83.0 %
Extraction speed 3.7 X
Track quality 100.0 %
Test CRC 6A173C76
Copy CRC 6A173C76
Cannot be verified as accurate (confidence 9) [60F5AB65], AccurateRip returned [CAC16737] (AR v2)
Copy OK

Track 10

Filename C:\EAC Rips\John Berry - Soundtracks (2009) [FLAC] [MTERDCD 634]\Disc 2\10 - The Scarlet Letter - Love Theme.wav

Pre-gap length 0:00:02.40

Peak level 84.2 %
Extraction speed 3.7 X
Track quality 100.0 %
Test CRC 415D1FA7
Copy CRC 415D1FA7
Cannot be verified as accurate (confidence 9) [C7AF70ED], AccurateRip returned [863556EC] (AR v2)
Copy OK

Track 11

Filename C:\EAC Rips\John Berry - Soundtracks (2009) [FLAC] [MTERDCD 634]\Disc 2\11 - Indecent Proposal - Main Theme.wav

Pre-gap length 0:00:01.74

Peak level 89.6 %
Extraction speed 3.4 X
Track quality 99.9 %
Test CRC FEA8E604
Copy CRC FEA8E604
Cannot be verified as accurate (confidence 9) [A783D093], AccurateRip returned [5B271B80] (AR v2)
Copy OK

Track 12

Filename C:\EAC Rips\John Berry - Soundtracks (2009) [FLAC] [MTERDCD 634]\Disc 2\12 - The Specialist - Main Theme.wav

Pre-gap length 0:00:02.14

Peak level 98.2 %
Extraction speed 4.0 X
Track quality 100.0 %
Test CRC 514A6CA7
Copy CRC 514A6CA7
Cannot be verified as accurate (confidence 9) [E218578C], AccurateRip returned [6F340965] (AR v2)
Copy OK

Track 13

Filename C:\EAC Rips\John Berry - Soundtracks (2009) [FLAC] [MTERDCD 634]\Disc 2\13 - King Kong - Prelude & Love Theme.wav

Pre-gap length 0:00:01.71

Peak level 92.7 %
Extraction speed 4.0 X
Track quality 100.0 %
Test CRC F3EAA4CB
Copy CRC F3EAA4CB
Cannot be verified as accurate (confidence 9) [DD9159C8], AccurateRip returned [633E2503] (AR v2)
Copy OK

Track 14

Filename C:\EAC Rips\John Berry - Soundtracks (2009) [FLAC] [MTERDCD 634]\Disc 2\14 - The Man With The Golden Gun - Main Theme.wav

Pre-gap length 0:00:02.33

Peak level 98.8 %
Extraction speed 3.8 X
Track quality 100.0 %
Test CRC D1F8C637
Copy CRC D1F8C637
Cannot be verified as accurate (confidence 9) [B615FF2C], AccurateRip returned [F89CAD59] (AR v2)
Copy OK

Track 15

Filename C:\EAC Rips\John Berry - Soundtracks (2009) [FLAC] [MTERDCD 634]\Disc 2\15 - A View To A Kill - Main Theme.wav

Pre-gap length 0:00:02.19

Peak level 88.8 %
Extraction speed 2.9 X
Track quality 99.9 %
Test CRC 787F3F9C
Copy CRC 787F3F9C
Cannot be verified as accurate (confidence 9) [5E2D1EB1], AccurateRip returned [FFDD72D4] (AR v2)
Copy OK

Track 16

Filename C:\EAC Rips\John Berry - Soundtracks (2009) [FLAC] [MTERDCD 634]\Disc 2\16 - The Living Daylights - Main Theme.wav

Pre-gap length 0:00:02.10

Peak level 96.6 %
Extraction speed 4.0 X
Track quality 100.0 %
Test CRC 30E02011
Copy CRC 30E02011
Cannot be verified as accurate (confidence 9) [8CF121BE], AccurateRip returned [1F1CE60A] (AR v2)
Copy OK

Track 17

Filename C:\EAC Rips\John Berry - Soundtracks (2009) [FLAC] [MTERDCD 634]\Disc 2\17 - All Time High - Octopussy Theme.wav

Pre-gap length 0:00:01.52

Peak level 96.6 %
Extraction speed 3.9 X
Track quality 100.0 %
Test CRC B920EBFA
Copy CRC B920EBFA
Cannot be verified as accurate (confidence 9) [A6BEDA14], AccurateRip returned [13269A28] (AR v2)
Copy OK

Track 18

Filename C:\EAC Rips\John Berry - Soundtracks (2009) [FLAC] [MTERDCD 634]\Disc 2\18 - We Have All The Time In The World - From On Her Majestey's Secret Service.wav

Pre-gap length 0:00:02.33

Peak level 98.8 %
Extraction speed 4.0 X
Track quality 100.0 %
Test CRC 950DD3B5
Copy CRC 950DD3B5
Cannot be verified as accurate (confidence 9) [63A0E09D], AccurateRip returned [B6CABD76] (AR v2)
Copy OK


No tracks could be verified as accurate
You may have a different pressing from the one(s) in the database

No errors occurred

End of status report

–– CUETools DB Plugin V2.1.6

[CTDB TOCID: 0x1d.9knnWpZ9AXmB7k9G0yHzxk-] found
Submit result: 0x1d.9knnWpZ9AXmB7k9G0yHzxk- has been confirmed
Track | CTDB Status
1 | (3/3) Accurately ripped
2 | (3/3) Accurately ripped
3 | (3/3) Accurately ripped
4 | (3/3) Accurately ripped
5 | (3/3) Accurately ripped
6 | (3/3) Accurately ripped
7 | (3/3) Accurately ripped
8 | (3/3) Accurately ripped
9 | (3/3) Accurately ripped
10 | (3/3) Accurately ripped
11 | (3/3) Accurately ripped
12 | (3/3) Accurately ripped
13 | (3/3) Accurately ripped
14 | (3/3) Accurately ripped
15 | (3/3) Accurately ripped
16 | (3/3) Accurately ripped
17 | (3/3) Accurately ripped
18 | (3/3) Accurately ripped


==== Log checksum 857B729BC6671132B85A326051A872A8D547F5F7F025CD2035C0BA0CA91259AF ====